#VERSION:0.83;
#TITLE:Build a Bitch;
#SUBTITLE:;
#ARTIST:Bella Poarch;
#TITLETRANSLIT:;
#SUBTITLETRANSLIT:;
#ARTISTTRANSLIT:;
#GENRE:Pop;
#ORIGIN:;
#CREDIT:;
#BANNER:bn.png;
#BACKGROUND:bg.png;
#PREVIEWVID:;
#JACKET:jacket.png;
#CDIMAGE:;
#DISCIMAGE:;
#LYRICSPATH:;
#CDTITLE:;
#MUSIC:Build a Bitch.ogg;
#OFFSET:1.748000;
#SAMPLESTART:9.284000;
#SAMPLELENGTH:18.640776;
#SELECTABLE:YES;
#BPMS:0.000=103.000;
#STOPS:;
#DELAYS:;
#WARPS:;
#TIMESIGNATURES:0.000=4=4;
#TICKCOUNTS:0.000=4;
#COMBOS:0.000=1;
#SPEEDS:0.000=1.000=0.000=0;
#SCROLLS:0.000=1.000;
#FAKES:;
#LABELS:0.000=Song Start;
#BGCHANGES:3.000=Build A Bitch.mp4=1.000=1=0=0=StretchNoLoop==CrossFade==,
226.000=bg.png=1.000=1=0=1===CrossFade==,
99999=-nosongbg-=1.000=0=0=0 // don't automatically add -songbackground-
;
#KEYSOUNDS:;
#ATTACKS:
;

//---------------dance-single - ----------------
#NOTEDATA:;
#CHARTNAME:;
#STEPSTYPE:dance-single;
#DESCRIPTION:;
#CHARTSTYLE:Pad;
#DIFFICULTY:Challenge;
#METER:12;
#RADARVALUES:0.470042,0.555472,0.489403,0.030117,0.158115,437.000000,372.000000,65.000000,4.000000,40.000000,0.000000,0.000000,0.000000,0.000000,0.470042,0.555472,0.489403,0.030117,0.158115,437.000000,372.000000,65.000000,4.000000,40.000000,0.000000,0.000000,0.000000,0.000000;
#CREDIT:Galamoth;
#NOTES:
// measure 0
0000
0000
0000
0000
,  // measure 1
0000
0000
0000
0000
,  // measure 2
0000
0000
0000
0000
,  // measure 3
0000
0000
0000
0000
,  // measure 4
0000
0000
0000
0000
0000
0000
1000
0001
,  // measure 5
0100
0000
0000
0001
1000
0000
0001
0000
1000
0000
0000
0000
0010
0000
1000
0000
,  // measure 6
0100
0001
0100
1000
0010
0000
0100
0001
,  // measure 7
0010
0001
1000
0001
0010
0000
0100
1000
,  // measure 8
0010
1000
0001
1000
0010
0000
1000
0001
,  // measure 9
0100
0000
0000
0001
1000
0000
0001
0000
1000
0000
0100
0000
0010
0000
0001
0000
,  // measure 10
0100
1000
0100
0001
0010
0000
0100
1000
,  // measure 11
0001
0100
0010
0100
1000
0100
0010
0100
,  // measure 12
0002
0000
0003
M00M
,  // measure 13
1001
0000
0001
0000
1000
0000
0100
0000
0010
0000
0011
0000
1000
0010
0000
0010
,  // measure 14
0110
0000
0001
0000
1000
0000
0010
0000
0100
0001
0011
0000
1000
0001
0000
0001
,  // measure 15
0101
0000
0010
0000
1000
0000
0001
0000
1000
0000
1100
0000
0001
0100
0000
0100
,  // measure 16
0110
0000
0001
0000
1000
0000
0001
0000
0100
0001
1001
0000
0001
1000
0100
0010
,  // measure 17
1001
0000
0000
1000
0001
0000
0010
0000
0100
0000
1100
0000
0001
0100
0000
0100
,  // measure 18
0110
0000
1000
0000
0001
0000
0100
0000
0010
1000
1100
0000
0001
1000
0000
1000
,  // measure 19
1010
0000
0100
0000
0001
0000
1000
0000
0001
0000
0011
0000
1000
0010
0000
0010
,  // measure 20
0110
M000
000M
0M00
0010
0000
1000
0001
,  // measure 21
0100
0000
0000
0001
1000
0000
0001
0000
1000
0000
0000
0000
0010
0000
1000
0000
,  // measure 22
0100
0001
0100
1000
0010
0000
0100
0001
,  // measure 23
0010
0001
1000
0001
0010
0000
0100
1000
,  // measure 24
0010
1000
0001
1000
0010
0000
1000
0001
,  // measure 25
0100
0000
0000
0001
1000
0000
0001
0000
1000
0000
0100
0000
0010
0000
0001
0000
,  // measure 26
0100
1000
0100
0001
0010
0000
0100
1000
,  // measure 27
0001
0100
0010
0100
1000
0100
0010
0100
,  // measure 28
00M2
0MM0
MMM3
M00M
,  // measure 29
1001
0000
1000
1000
1000
0110
0100
0101
,  // measure 30
1001
0001
0001
0011
1001
1100
0010
0001
,  // measure 31
1001
0000
0001
0001
0001
0110
0010
1010
,  // measure 32
1001
1000
1000
1100
1001
0011
0100
1000
,  // measure 33
000M
000M
000M
000M
00M0
00M0
00M0
00M0
,  // measure 34
0M00
0000
0M00
0000
0M00
0000
0M00
0000
M000
0000
M000
0000
M000
0000
M000
0001
,  // measure 35
0101
0000
0100
0000
0001
0000
1000
0000
0001
0000
0011
0000
1000
0010
0000
0010
,  // measure 36
0110
0000
1000
0000
0001
0000
1000
0000
0010
1000
1001
0000
1000
0001
0010
0100
,  // measure 37
1001
0000
0000
0001
1000
0000
0100
0000
0010
0000
0011
0000
1000
0010
0000
0010
,  // measure 38
0110
0000
0001
0000
1000
0000
0010
0000
0100
0001
0011
0000
1000
0001
0000
0001
,  // measure 39
0101
0000
0010
0000
1000
0000
0001
0000
1000
0000
1100
0000
0001
0100
0000
0100
,  // measure 40
0110
M000
000M
0M00
0010
0000
1000
0001
,  // measure 41
0100
0000
0000
0001
1000
0000
0001
0000
1000
0000
0000
0000
0010
0000
1000
0000
,  // measure 42
0100
0001
0100
1000
0010
0000
0100
0001
,  // measure 43
0010
0001
1000
0001
0010
0000
0100
1000
,  // measure 44
0010
1000
0001
1000
0010
0000
1000
0001
,  // measure 45
0100
0000
0000
0001
1000
0000
0001
0000
1000
0000
0100
0000
0010
0000
0001
0000
,  // measure 46
0100
1000
0100
0001
0010
0000
0100
1000
,  // measure 47
0001
0100
0010
0100
1000
0100
0010
0100
,  // measure 48
00M2
0MM0
MMM3
M00M
,  // measure 49
1001
0000
1000
1000
1000
0110
0100
0101
,  // measure 50
1001
0001
0001
0011
1001
1100
0010
0001
,  // measure 51
1001
0000
0001
0001
0001
0110
0010
1010
,  // measure 52
1001
1000
1000
1100
1001
0011
0100
1000
,  // measure 53
1001
0000
0000
0001
0101
0000
0010
0000
1100
0000
0001
0000
0110
0000
1000
0000
,  // measure 54
0011
0000
0000
1000
1100
0000
0100
0000
0110
0000
0001
0000
1001
0000
0100
0000
,  // measure 55
1001
0000
0001
0000
0001
0000
0100
0000
0010
0000
1001
0000
1000
0100
0000
0001
,  // measure 56
0110
0001
0010
0100
2000
0000
3000
0000
;

//---------------dance-single - ----------------
#NOTEDATA:;
#CHARTNAME:;
#STEPSTYPE:dance-single;
#DESCRIPTION:;
#CHARTSTYLE:Pad;
#DIFFICULTY:Hard;
#METER:10;
#RADARVALUES:0.404429,0.448650,0.052705,0.045176,0.150585,376.000000,369.000000,7.000000,6.000000,33.000000,0.000000,0.000000,0.000000,0.000000,0.404429,0.448650,0.052705,0.045176,0.150585,376.000000,369.000000,7.000000,6.000000,33.000000,0.000000,0.000000,0.000000,0.000000;
#CREDIT:Galamoth;
#NOTES:
// measure 0
0000
0000
0000
0000
,  // measure 1
0000
0000
0000
0000
,  // measure 2
0000
0000
0000
0000
,  // measure 3
0000
0000
0000
0000
,  // measure 4
0000
0000
0000
0000
0000
0000
1000
0001
,  // measure 5
0100
0000
0000
0001
1000
0000
0001
0000
1000
0000
0000
0000
0010
0000
1000
0000
,  // measure 6
0100
0010
0100
1000
0010
0000
1000
0001
,  // measure 7
0010
0100
1000
0001
0010
0000
0001
1000
,  // measure 8
0010
0100
0001
1000
0010
0000
1000
0001
,  // measure 9
0100
0000
0000
0001
1000
0000
0001
0000
1000
0000
0100
0000
0010
0000
0001
0000
,  // measure 10
0100
0010
0100
0001
0010
0000
0100
1000
,  // measure 11
0001
0100
0001
0100
0010
1000
0010
1000
,  // measure 12
0002
0000
0003
000M
,  // measure 13
1001
0000
0001
0000
1000
0000
0100
0000
0010
0000
0001
0000
1000
0010
0000
0010
,  // measure 14
1000
0000
0001
0000
0100
0000
0010
0000
1000
0001
0100
0000
0001
0010
0000
0010
,  // measure 15
0001
0000
1000
0000
0100
0000
0010
0000
0100
0000
1000
0000
0001
0100
0000
0100
,  // measure 16
0001
0000
1000
0000
0010
0000
0100
0000
0001
0010
0100
0000
1000
0001
1000
0001
,  // measure 17
0100
0000
0000
0001
1000
0000
0100
0000
0010
0000
0001
0000
1000
0100
0000
0100
,  // measure 18
1000
0000
0001
0000
0100
0000
0001
0000
1000
0001
0010
0000
0100
1000
0000
1000
,  // measure 19
0100
0000
0010
0000
0001
0000
0010
0000
0100
0000
1000
0000
0001
0100
0000
0100
,  // measure 20
0001
M000
00M0
0M00
000M
0000
1000
0001
,  // measure 21
0100
0000
0000
0001
1000
0000
0001
0000
1000
0000
0000
0000
0010
0000
1000
0000
,  // measure 22
0100
0010
0100
1000
0010
0000
1000
0001
,  // measure 23
0010
0100
1000
0001
0010
0000
0001
1000
,  // measure 24
0010
0100
0001
1000
0010
0000
1000
0001
,  // measure 25
0100
0000
0000
0001
1000
0000
0001
0000
1000
0000
0100
0000
0010
0000
0001
0000
,  // measure 26
0100
0010
0100
0001
0010
0000
0100
1000
,  // measure 27
0001
0100
0001
0100
0010
1000
0010
1000
,  // measure 28
00M2
0MM0
MMM3
M00M
,  // measure 29
1001
0000
1000
1000
1000
0010
0100
0100
,  // measure 30
0001
0001
0001
0001
0001
1000
0100
0010
,  // measure 31
0110
0000
0001
0001
0001
0100
0010
0010
,  // measure 32
1000
1000
1000
1000
1000
0001
0010
0100
,  // measure 33
M000
M000
0M00
0M00
,  // measure 34
00M0
0000
0000
0000
00M0
0000
0000
0000
000M
0000
0000
0000
000M
0000
0000
1000
,  // measure 35
0001
0000
1000
0000
0100
0000
0010
0000
0100
0000
1000
0000
0001
0100
0000
0100
,  // measure 36
0001
0000
1000
0000
0010
0000
0100
0000
0001
0010
0100
0000
1000
0001
1000
0001
,  // measure 37
0100
0000
0000
0001
1000
0000
0100
0000
0010
0000
0001
0000
1000
0100
0000
0100
,  // measure 38
1000
0000
0001
0000
0100
0000
0001
0000
1000
0001
0010
0000
0100
1000
0000
1000
,  // measure 39
0100
0000
0010
0000
0001
0000
0010
0000
0100
0000
1000
0000
0001
0100
0000
0100
,  // measure 40
0001
M000
00M0
0M00
000M
0000
1000
0001
,  // measure 41
0100
0000
0000
0001
1000
0000
0001
0000
1000
0000
0000
0000
0010
0000
1000
0000
,  // measure 42
0100
0010
0100
1000
0010
0000
1000
0001
,  // measure 43
0010
0100
1000
0001
0010
0000
0001
1000
,  // measure 44
0010
0100
0001
1000
0010
0000
1000
0001
,  // measure 45
0100
0000
0000
0001
1000
0000
0001
0000
1000
0000
0100
0000
0010
0000
0001
0000
,  // measure 46
0100
0010
0100
0001
0010
0000
0100
1000
,  // measure 47
0001
0100
0001
0100
0010
1000
0010
1000
,  // measure 48
00M2
0MM0
MMM3
M00M
,  // measure 49
1001
0000
1000
1000
1000
0010
0100
0100
,  // measure 50
0001
0001
0001
0001
0001
1000
0100
0010
,  // measure 51
0110
0000
0001
0001
0001
0100
0010
0010
,  // measure 52
1000
1000
1000
1000
1000
0001
0010
0100
,  // measure 53
2001
0000
0000
3001
0100
0000
0010
0000
1000
0000
1000
0000
0100
0000
0010
0000
,  // measure 54
0002
0000
0000
1003
0100
0000
0010
0000
0001
0000
1000
0000
0010
0000
1000
0000
,  // measure 55
1001
0001
0001
0100
0010
0010
1000
0100
,  // measure 56
0010
0001
0010
0100
2000
0000
3000
0000
;

//---------------dance-single - ----------------
#NOTEDATA:;
#CHARTNAME:;
#STEPSTYPE:dance-single;
#DESCRIPTION:;
#CHARTSTYLE:Pad;
#DIFFICULTY:Medium;
#METER:8;
#RADARVALUES:0.296868,0.363193,0.030117,0.045176,0.000000,276.000000,272.000000,4.000000,6.000000,20.000000,0.000000,0.000000,0.000000,0.000000,0.296868,0.363193,0.030117,0.045176,0.000000,276.000000,272.000000,4.000000,6.000000,20.000000,0.000000,0.000000,0.000000,0.000000;
#CREDIT:Galamoth;
#NOTES:
0000
0000
0000
0000
,
0000
0000
0000
0000
,
0000
0000
0000
0000
,
0000
0000
0000
0000
,
0000
0000
0000
0000
,
1000
0000
1000
0001
1000
0000
0010
0000
,
0100
0000
0100
0010
0100
0000
0001
0000
,
0010
0000
0010
0100
0010
0000
0001
0000
,
0100
0000
0100
0001
0100
0000
0000
0000
,
0001
0000
0001
1000
0001
0000
0100
0000
,
0010
0000
0010
0100
0010
0000
1000
0000
,
0001
0010
0001
0010
0100
1000
0100
1000
,
0002
0000
0000
0003
,
1000
0100
1000
0100
0010
0001
0100
0000
,
0001
1000
0001
1000
0010
0000
0100
0000
,
0001
0010
0001
0010
0100
1000
0010
0000
,
1000
0001
1000
0001
0100
0000
0010
0000
,
1000
0000
0001
0100
0010
1000
0001
0000
,
1000
0010
0100
0001
1000
0000
0001
0000
,
1000
0100
0010
0001
0010
0100
1000
0000
,
0001
0000
0000
0000
,
1000
0000
1000
0001
1000
0000
0010
0000
,
0100
0000
0100
0010
0100
0000
0001
0000
,
0010
0000
0010
0100
0010
0000
0001
0000
,
0100
0000
0100
0001
0100
0000
0000
0000
,
0001
0000
0001
1000
0001
0000
0100
0000
,
0010
0000
0010
0100
0010
0000
1000
0000
,
0001
0010
0001
0010
0100
1000
0100
1000
,
00M2
0MM0
MMM0
0003
,
0011
0000
0001
0010
0001
0010
0100
1000
,
0001
0100
0001
0100
0010
0000
0000
0000
,
1100
0000
1000
0100
1000
0100
0010
0001
,
1000
0010
1000
0010
0100
0000
0001
1000
,
00M0
00M0
0M00
0M00
,
00M0
00M0
0M00
0M00
,
0001
0100
0001
0100
0010
1000
0001
0000
,
1000
0001
1000
0001
0100
0000
0010
0000
,
1000
0000
0001
0100
0010
1000
0001
0000
,
1000
0010
0100
0001
1000
0000
0001
0000
,
1000
0100
0010
0001
0010
0100
1000
0000
,
0001
0000
0000
0000
,
1000
0000
1000
0001
1000
0000
0010
0000
,
0100
0000
0100
0010
0100
0000
0001
0000
,
0010
0000
0010
0100
0010
0000
0001
0000
,
0100
0000
0100
0001
0100
0000
0000
0000
,
0001
0000
0001
1000
0001
0000
0100
0000
,
0010
0000
0010
0100
0010
0000
1000
0000
,
0001
0010
0001
0010
0100
1000
0100
1000
,
00M2
0MM0
MMM0
0003
,
0011
0000
0001
0010
0001
0010
0100
1000
,
0001
0100
0001
0100
0010
0000
0000
0000
,
1100
0000
1000
0100
1000
0100
0010
0001
,
1000
0010
1000
0010
0100
0000
0001
1000
,
0002
0000
0013
0100
1000
0100
0010
0001
,
2000
0000
3100
0010
0001
0010
0100
1000
,
0001
0010
0001
0010
0100
1000
0001
0100
,
0010
1000
0100
0010
0002
0000
0003
0000
;

//---------------dance-single - ----------------
#NOTEDATA:;
#CHARTNAME:;
#STEPSTYPE:dance-single;
#DESCRIPTION:;
#CHARTSTYLE:Pad;
#DIFFICULTY:Easy;
#METER:5;
#RADARVALUES:0.202215,0.235007,0.045176,0.045176,0.000000,188.000000,182.000000,6.000000,6.000000,16.000000,0.000000,0.000000,0.000000,0.000000,0.202215,0.235007,0.045176,0.045176,0.000000,188.000000,182.000000,6.000000,6.000000,16.000000,0.000000,0.000000,0.000000,0.000000;
#CREDIT:Galamoth;
#NOTES:
0000
0000
0000
0000
,
0000
0000
0000
0000
,
0000
0000
0000
0000
,
0000
0000
0000
0000
,
0000
0000
0000
0000
,
1000
1000
1000
0010
,
0100
0100
0100
0001
,
0010
0010
0010
0001
,
0100
0100
0100
0000
,
0001
0001
0001
0010
,
0100
0100
0100
1000
,
0010
0010
1000
1000
,
2000
0000
3000
0000
,
0001
1000
0001
0010
,
0001
1000
0002
0003
,
1000
0001
1000
0010
,
1000
0001
2000
3000
,
0001
0000
1000
0001
1000
0000
0001
0000
,
0100
0000
0001
1000
0001
0000
1000
0000
,
0100
0000
1000
0001
1000
0000
0010
0000
,
1000
0000
0000
0000
,
1000
1000
1000
0010
,
0100
0100
0100
0001
,
0010
0010
0010
0001
,
0100
0100
0100
0000
,
0001
0001
0001
0010
,
0100
0100
0100
1000
,
0010
0010
1000
1000
,
200M
00MM
3MMM
0000
,
1001
1000
1000
0001
,
0100
0100
0100
0000
,
1001
0001
0001
0010
,
0100
0100
0100
1000
,
00M0
0000
00M0
0000
,
00M0
0000
00M0
0000
,
1000
0001
1000
0010
,
1000
0001
2000
3000
,
0001
0000
1000
0001
1000
0000
0001
0000
,
0100
0000
0001
1000
0001
0000
1000
0000
,
0100
0000
1000
0001
1000
0000
0010
0000
,
1000
0000
0000
0000
,
1000
1000
1000
0010
,
0100
0100
0100
0001
,
0010
0010
0010
0001
,
0100
0100
0100
0000
,
0001
0001
0001
0010
,
0100
0100
0100
1000
,
0010
0010
1000
1000
,
200M
00MM
3MMM
0000
,
1001
1000
1000
0001
,
0100
0100
0100
0000
,
1001
0001
0001
0010
,
0100
0100
0100
0000
,
1001
0001
0100
0001
,
1001
1000
0100
1000
,
0001
0001
1000
1000
,
0010
0010
1000
0001
;

//---------------dance-single - ----------------
#NOTEDATA:;
#CHARTNAME:;
#STEPSTYPE:dance-single;
#DESCRIPTION:;
#CHARTSTYLE:Pad;
#DIFFICULTY:Beginner;
#METER:2;
#RADARVALUES:0.106485,0.127621,0.000000,0.000000,0.000000,99.000000,99.000000,0.000000,0.000000,0.000000,0.000000,0.000000,0.000000,0.000000,0.106485,0.127621,0.000000,0.000000,0.000000,99.000000,99.000000,0.000000,0.000000,0.000000,0.000000,0.000000,0.000000,0.000000;
#CREDIT:Galamoth;
#NOTES:
0000
0000
0000
0000
,
0000
0000
0000
0000
,
0000
0000
0000
0000
,
0000
0000
0000
0000
,
0000
0000
0000
0000
,
1000
0000
1000
0000
,
0001
0000
0001
0000
,
1000
0000
1000
0000
,
0001
0000
0001
0000
,
0100
0000
0100
0000
,
0010
0000
0010
0000
,
0100
0000
0100
0000
,
0010
0000
0000
0000
,
1000
0000
1000
0000
,
0001
0000
0001
0000
,
0100
0000
0100
0000
,
0010
0000
0010
0000
,
1000
0000
0001
0000
,
1000
0000
0001
0000
,
0100
0000
0010
0000
,
0100
0000
0000
0000
,
0001
0000
0001
0000
,
1000
0000
1000
0000
,
0001
0000
0001
0000
,
1000
0000
1000
0000
,
0010
0000
0010
0000
,
0100
0000
0100
0000
,
0010
0000
0010
0000
,
0100
0000
0000
0000
,
0001
0000
1000
0000
,
0001
0001
0001
0000
,
1000
0000
0001
0000
,
1000
1000
1000
0000
,
0000
0000
0000
0000
,
0000
0000
0000
0000
,
1000
0000
1000
0000
,
0010
0000
0010
0000
,
1000
0000
0001
0000
,
1000
0000
0001
0000
,
0100
0000
0010
0000
,
0100
0000
0000
0000
,
0001
0000
0001
0000
,
1000
0000
1000
0000
,
0001
0000
0001
0000
,
1000
0000
1000
0000
,
0010
0000
0010
0000
,
0100
0000
0100
0000
,
0010
0000
0010
0000
,
0100
0000
0000
0000
,
0001
0000
1000
0000
,
0001
0001
0001
0000
,
1000
0000
0001
0000
,
1000
1000
1000
0000
,
0010
0000
0100
0000
,
0001
0000
1000
0000
,
0001
0000
0010
0000
,
0100
0000
1000
0000
;
