#VERSION:0.83;
#TITLE:Break My Heart;
#SUBTITLE:;
#ARTIST:Dua Lipa;
#TITLETRANSLIT:;
#SUBTITLETRANSLIT:;
#ARTISTTRANSLIT:;
#GENRE:Pop;
#ORIGIN:;
#CREDIT:;
#BANNER:bn.png;
#BACKGROUND:bg.png;
#PREVIEWVID:;
#JACKET:jacket.png;
#CDIMAGE:;
#DISCIMAGE:;
#LYRICSPATH:;
#CDTITLE:;
#MUSIC:Break My Heart.ogg;
#OFFSET:0.000000;
#SAMPLESTART:67.196144;
#SAMPLELENGTH:16.991173;
#SELECTABLE:YES;
#BPMS:0.000=113.000;
#STOPS:143.875=0.531,
207.000=1.062;
#DELAYS:;
#WARPS:;
#TIMESIGNATURES:0.000=4=4;
#TICKCOUNTS:0.000=4;
#COMBOS:0.000=1;
#SPEEDS:0.000=1.000=0.000=0;
#SCROLLS:0.000=1.000;
#FAKES:;
#LABELS:0.000=Song Start;
#BGCHANGES:0.000=Break My Heart.mp4=1.000=1=0=0=StretchNoLoop==CrossFade==,
273.000=bg.png=1.000=1=0=1===CrossFade==,
99999=-nosongbg-=1.000=0=0=0 // don't automatically add -songbackground-
;
#KEYSOUNDS:;
#ATTACKS:
;

//---------------dance-single - ----------------
#NOTEDATA:;
#CHARTNAME:;
#STEPSTYPE:dance-single;
#DESCRIPTION:;
#CHARTSTYLE:Pad;
#DIFFICULTY:Challenge;
#METER:14;
#RADARVALUES:0.490393,0.636963,0.240426,0.080142,0.507567,514.000000,478.000000,36.000000,12.000000,2.000000,0.000000,0.000000,0.000000,0.000000,0.490393,0.636963,0.240426,0.080142,0.507567,514.000000,478.000000,36.000000,12.000000,2.000000,0.000000,0.000000,0.000000,0.000000;
#CREDIT:Galamoth;
#NOTES:
// measure 0
0000
0000
0000
0000
,  // measure 1
0000
0000
0000
0000
,  // measure 2
0000
0000
0000
0000
,  // measure 3
0000
0000
0000
0000
,  // measure 4
1000
0000
0000
0000
1000
0000
0000
0000
1000
0000
0000
0000
0001
0000
0000
1000
,  // measure 5
0100
0010
0001
0000
0010
0001
0010
0001
0100
0000
0000
0001
0100
0010
1000
0000
,  // measure 6
0001
0000
0000
0000
0001
0000
0000
0000
0001
0000
0000
0000
1000
0000
0000
1000
,  // measure 7
0001
0010
0100
0010
0100
1000
0010
1000
0000
0000
0000
0001
0100
0000
0100
0000
,  // measure 8
0010
0000
0000
0000
0010
0000
0000
0000
0010
0000
0000
0000
1000
0000
0000
0001
,  // measure 9
0010
0100
1000
0000
0100
1000
0100
1000
0010
0000
0000
1000
0010
0100
0001
0000
,  // measure 10
0100
0000
0000
0000
0100
0000
0000
0000
0100
0000
0000
0000
0001
0000
0000
0001
,  // measure 11
1000
0100
0010
0100
0010
0001
0100
0001
0000
0000
0000
1000
0100
0000
0100
0000
,  // measure 12
0010
0000
0000
0000
0001
0000
0000
0000
0001
0000
0000
0000
1000
0000
0000
0001
,  // measure 13
0010
0100
0010
0000
0100
1000
0100
1000
0001
0000
0000
0100
0010
0100
0001
0000
,  // measure 14
1000
0000
0000
0000
1000
0000
0000
0000
1000
0000
0000
0000
0001
0000
0000
0001
,  // measure 15
0100
0010
0100
0010
0100
0001
0100
0001
0000
0000
0000
1000
0100
0000
0100
0000
,  // measure 16
0010
0000
0000
0000
0010
0000
0000
0000
0010
0000
0000
0000
0100
0000
0000
1000
,  // measure 17
0001
0010
0001
0000
1000
0010
1000
0010
0100
0000
0000
0001
1000
0100
1000
0000
,  // measure 18
0100
0000
0000
0000
0100
0000
0000
0000
0100
0000
0000
0000
0010
0000
0000
0001
,  // measure 19
1000
0100
1000
0100
1000
0001
1000
0001
0000
0000
0000
0100
0010
0000
0010
0000
,  // measure 20
1000
0100
0010
0001
0010
0100
1000
0100
,  // measure 21
0001
0100
1000
0010
1000
0001
0100
0020
,  // measure 22
0000
2030
0000
3000
0000
0000
0000
0000
,  // measure 23
0000
0000
0000
0000
0000
0000
0000
0001
,  // measure 24
1000
0100
0010
0001
0010
0100
1000
0010
,  // measure 25
0001
0010
1000
0100
1000
0001
0100
0020
,  // measure 26
0000
2030
0000
3000
0000
0000
0000
0000
,  // measure 27
0000
0000
0000
0000
,  // measure 28
1000
0000
0000
0000
0001
0000
0000
0000
0100
0000
0000
0000
0000
0000
0000
0001
,  // measure 29
0010
0001
0010
0100
1000
0100
1000
0001
0000
0000
1000
0001
0100
0000
0100
0000
,  // measure 30
0001
0000
0000
0000
1000
0000
0000
0000
0010
0000
0000
0000
0000
0000
0000
1000
,  // measure 31
0100
1000
0100
0010
0001
0010
0001
1000
0000
0000
0001
1000
1001
0000
0100
0000
,  // measure 32
1100
0000
0010
0000
1001
0000
0100
0000
0011
0000
1000
0000
0101
0000
0000
0001
,  // measure 33
1000
0001
0100
0010
1000
0001
1000
0100
0000
0000
0000
0100
0010
0000
0001
0000
,  // measure 34
1000
0000
0000
0010
0000
0000
0001
0000
1000
0000
0000
0100
0000
0000
0001
0000
,  // measure 35
1000
0000
0000
0000
0000
0000
0010
0000
0000
0000
0000
0000
0001
0000
0000
0000
1000
0000
0000
0000
0000
0000
0100
0000
0000
0000
0000
0000
0001
0000
0000
0M00
,  // measure 36
1010
0000
0100
0000
1001
0000
0001
0000
0110
0000
0000
1000
0100
1000
0001
0100
,  // measure 37
0001
1000
0010
0100
0000
0000
0001
0100
0010
1000
0100
0000
1100
0000
0001
0000
,  // measure 38
1010
0000
0100
0000
1001
0000
0010
0000
0101
0000
0000
0001
0100
0001
1000
0100
,  // measure 39
1000
0010
0100
0001
0000
0000
1000
0100
0010
0001
0010
0100
1100
0000
0001
0000
,  // measure 40
1010
0000
0100
0000
0011
0000
1000
0000
0101
0000
0000
1000
0001
1000
0010
0100
,  // measure 41
0001
1000
0001
0010
0000
0000
0000
0010
0100
0000
0100
0000
1000
0000
0000
0010
,  // measure 42
0000
0000
0001
0000
1000
0000
0000
0100
0000
0000
0001
0000
1000
0000
0000
0010
,  // measure 43
0000
0000
0001
0000
1000
0000
0000
0100
0000
0000
0001
0000
2000
0000
0000
0000
,  // measure 44
0000
0000
0000
3200
,  // measure 45
0000
0000
0000
0320
,  // measure 46
0000
0000
0032
0000
0000
0000
1003
0010
,  // measure 47
0200
0000
0320
0000
1000
0000
0130
0001
,  // measure 48
2000
0000
0000
3002
,  // measure 49
0000
0000
0000
0000
0000
0000
0000
0000
0103
0000
0100
0000
0001
0000
0000
0010
,  // measure 50
0000
0000
1000
0000
0001
0000
0000
0100
0000
0000
1000
0000
0001
0000
0000
0010
,  // measure 51
0000
0000
1000
0000
0001
0000
0000
0100
0000
0000
1000
0000
00M0
0000
0001
0010
,  // measure 52
0100
1000
0100
0010
0011
0000
1000
0000
0101
0000
0010
0000
1001
0000
0100
0000
,  // measure 53
0110
0000
0000
1000
0100
1000
0001
0010
0001
1000
0100
0010
0000
0000
0100
1000
,  // measure 54
0010
0100
1001
0010
0101
1000
0011
0100
,  // measure 55
1010
0000
0000
0001
0010
0001
1000
0100
1000
0001
0100
0010
0000
0000
1000
0100
,  // measure 56
0010
0001
0010
0100
1100
0000
0001
0000
1010
0000
0100
0000
0011
0000
1000
0000
,  // measure 57
0101
0000
0000
1000
0001
1000
0010
0100
0001
1000
0001
0100
0000
0001
0000
1000
,  // measure 58
0010
0000
0010
0000
1000
0000
0000
0010
0000
0000
0001
0000
1000
0000
0000
0100
,  // measure 59
0000
0000
0001
0000
1000
0000
0000
0010
0000
0000
0001
0000
1000
0000
0000
0100
,  // measure 60
0000
0001
1100
0010
0101
1000
0011
0100
,  // measure 61
1010
0000
0000
0001
1000
0001
0100
0010
1000
0001
1000
0100
0000
0000
1000
0010
,  // measure 62
0100
0001
0100
0010
1010
0000
0100
0000
0011
0000
1000
0000
0101
0000
0010
0000
,  // measure 63
1001
0000
0000
1000
0100
0010
0001
0100
0010
1000
0100
0010
0000
0000
0100
0010
,  // measure 64
0001
1000
0010
0000
1000
0000
0001
0000
,  // measure 65
0000
0000
0000
1000
0100
1000
0100
0010
0001
0010
0001
1000
0000
0000
0000
1000
,  // measure 66
0010
0000
0010
0000
1000
0000
0000
0010
0000
0000
0001
0000
1000
0000
0000
0100
,  // measure 67
0000
0000
0001
0000
1000
0000
0000
0010
0000
0000
0001
0000
1000
0000
0000
0100
,  // measure 68
0000
0001
0000
0000
0000
0000
0000
0000
;

//---------------dance-single - ----------------
#NOTEDATA:;
#CHARTNAME:;
#STEPSTYPE:dance-single;
#DESCRIPTION:;
#CHARTSTYLE:Pad;
#DIFFICULTY:Hard;
#METER:12;
#RADARVALUES:0.335834,0.386728,0.166963,0.140249,0.123552,352.000000,327.000000,25.000000,21.000000,0.000000,0.000000,0.000000,0.000000,0.000000,0.335834,0.386728,0.166963,0.140249,0.123552,352.000000,327.000000,25.000000,21.000000,0.000000,0.000000,0.000000,0.000000,0.000000;
#CREDIT:Galamoth;
#NOTES:
// measure 0
0000
0000
0000
0000
,  // measure 1
0000
0000
0000
0000
,  // measure 2
0000
0000
0000
0000
,  // measure 3
0000
0000
0000
0000
,  // measure 4
1000
1000
1000
0001
,  // measure 5
1000
0000
1000
0000
0001
1000
0001
1000
0001
0000
0000
0000
0100
0000
0010
0000
,  // measure 6
1000
1000
1000
0001
,  // measure 7
1000
0100
1000
0000
0001
1000
0001
0000
0100
0000
0000
0000
0010
0000
0100
0000
,  // measure 8
0001
0001
0001
1000
,  // measure 9
0001
0000
0001
0000
1000
0001
1000
0001
1000
0000
0000
0000
0010
0000
0100
0000
,  // measure 10
0001
0001
0001
1000
,  // measure 11
0001
0100
0001
0000
1000
0001
1000
0000
0010
0000
0000
0000
1000
0000
0010
0000
,  // measure 12
0100
0100
0100
0001
,  // measure 13
0010
0000
0010
0000
0100
0010
0100
0010
0100
0000
0000
0000
0010
0000
0001
0000
,  // measure 14
0100
0100
0100
0001
,  // measure 15
1000
0010
1000
0000
0010
0100
0010
0000
0100
0000
0000
0000
0001
0000
1000
0000
,  // measure 16
0010
0010
0010
1000
,  // measure 17
0010
0000
0010
0000
0100
0010
0100
0010
0100
0000
0000
0000
0001
0000
1000
0000
,  // measure 18
0010
0010
0010
1000
,  // measure 19
0001
0010
0001
0000
0010
0100
0010
0000
0100
0000
0000
0000
0010
0000
0001
0000
,  // measure 20
0200
0000
0000
0000
,  // measure 21
0320
0000
0000
0000
,  // measure 22
2030
0000
0000
0000
,  // measure 23
3002
0000
0203
0000
,  // measure 24
0320
0000
0000
0000
,  // measure 25
2030
0000
0000
0000
,  // measure 26
3002
0000
0000
0000
,  // measure 27
0000
0000
0000
0000
,  // measure 28
1003
0001
0100
0000
,  // measure 29
0010
0010
1000
1000
0001
0000
0100
0001
,  // measure 30
1000
0010
0100
0000
,  // measure 31
0001
0001
0100
0100
0010
1000
0001
0100
,  // measure 32
0101
1001
0011
1000
,  // measure 33
0010
0010
0100
0100
0001
0000
0010
0001
,  // measure 34
0100
0000
0000
0010
0000
0000
1000
0000
0100
0000
0000
0010
0000
0000
0001
0000
,  // measure 35
0100
0000
0000
0010
0000
0000
1000
0000
0001
0000
0000
1000
0000
0000
0010
0000
,  // measure 36
0110
0000
0010
0000
0100
0000
0001
0001
,  // measure 37
1000
1000
0100
0010
0001
1000
1010
0000
,  // measure 38
1001
0000
1100
0000
0001
0000
0010
0010
,  // measure 39
0001
0001
1000
0100
0010
0001
1001
0000
,  // measure 40
0110
0000
1001
0000
0010
0000
1000
1000
,  // measure 41
0100
0000
0100
0000
0010
0000
0000
0000
0100
0000
1000
0000
0010
0000
0000
0100
,  // measure 42
0000
0000
0001
0000
0010
0000
0000
0100
0000
0000
1000
0000
0010
0000
0000
0100
,  // measure 43
0000
0000
0001
0000
1000
0000
0000
0001
0000
0000
0010
0000
0001
0000
0000
0000
,  // measure 44
2000
3200
0320
0032
,  // measure 45
0000
0000
0000
0003
,  // measure 46
2000
3020
0032
0203
,  // measure 47
2300
0000
0000
3000
,  // measure 48
0002
0023
0230
2300
,  // measure 49
0000
0000
0000
0000
3000
0000
0000
0000
0010
0000
1000
0000
0100
0000
0000
0010
,  // measure 50
0000
0000
0001
0000
0100
0000
0000
0010
0000
0000
1000
0000
0010
0000
0000
0100
,  // measure 51
0000
0000
0001
0000
0010
0000
0000
0100
0000
0000
1000
0000
0000
0000
0001
1000
,  // measure 52
0001
0100
0101
0000
1001
0000
0011
0000
,  // measure 53
1000
0000
0001
0001
0100
0100
0010
1000
,  // measure 54
0001
1000
1100
0000
1001
0000
1010
0000
,  // measure 55
0001
0000
0010
0010
0001
0001
1000
0100
,  // measure 56
0010
0001
1001
0000
0110
0000
1001
0000
,  // measure 57
0010
0000
1000
1000
0100
0100
0010
0000
,  // measure 58
0100
0000
1000
0000
0010
0000
0000
0100
0000
0000
0001
0000
0010
0000
0000
0100
,  // measure 59
0000
0000
1000
0000
0010
0000
0000
0100
0000
0000
0001
0000
1000
0000
0000
0001
,  // measure 60
0000
0010
0011
0000
1001
0000
0101
0000
,  // measure 61
1000
0000
0010
0010
0100
0100
0001
1000
,  // measure 62
0010
1000
1010
0000
1001
0000
1100
0000
,  // measure 63
0001
0000
0010
0010
0100
0100
1000
0001
,  // measure 64
0100
0010
0100
0000
0010
0000
1000
0000
,  // measure 65
0000
0000
0001
0001
1000
1000
0100
0000
,  // measure 66
0010
0000
0001
0000
0100
0000
0000
0010
0000
0000
1000
0000
0100
0000
0000
0010
,  // measure 67
0000
0000
0001
0000
0100
0000
0000
0010
0000
0000
1000
0000
0001
0000
0000
1000
,  // measure 68
0000
0010
0000
0000
0000
0000
0000
0000
;

//---------------dance-single - ----------------
#NOTEDATA:;
#CHARTNAME:;
#STEPSTYPE:dance-single;
#DESCRIPTION:;
#CHARTSTYLE:Pad;
#DIFFICULTY:Medium;
#METER:9;
#RADARVALUES:0.298625,0.363979,0.173641,0.093499,0.066785,313.000000,287.000000,26.000000,14.000000,0.000000,0.000000,0.000000,0.000000,0.000000,0.298625,0.363979,0.173641,0.093499,0.066785,313.000000,287.000000,26.000000,14.000000,0.000000,0.000000,0.000000,0.000000,0.000000;
#CREDIT:Galamoth;
#NOTES:
// measure 0
0000
0000
0000
0000
,  // measure 1
0000
0000
0000
0000
,  // measure 2
0000
0000
0000
0000
,  // measure 3
0000
0000
0000
0000
,  // measure 4
1000
1000
1000
0001
,  // measure 5
1000
0100
0010
0000
0001
0000
0010
0100
,  // measure 6
1000
1000
1000
0001
,  // measure 7
1000
0010
0100
0001
0010
0000
0100
1000
,  // measure 8
0001
0001
0001
1000
,  // measure 9
0001
0010
0100
0000
1000
0000
0100
0010
,  // measure 10
0001
0001
0001
1000
,  // measure 11
0001
0100
0010
1000
0100
0000
0010
0001
,  // measure 12
0100
0100
0100
0001
,  // measure 13
1000
0010
0100
0000
0001
0000
0100
0010
,  // measure 14
1000
1000
1000
0001
,  // measure 15
1000
0100
0010
0001
0010
0000
0100
1000
,  // measure 16
0010
0010
0010
1000
,  // measure 17
0001
0100
0010
0000
1000
0000
0010
0100
,  // measure 18
0001
0001
0001
1000
,  // measure 19
0001
0010
0100
1000
0100
0000
0010
0001
,  // measure 20
0200
0000
0000
0000
,  // measure 21
0320
0000
0000
0000
,  // measure 22
2030
0000
0000
0000
,  // measure 23
3002
0000
0203
0000
,  // measure 24
0320
0000
0000
0000
,  // measure 25
2030
0000
0000
0000
,  // measure 26
3002
0000
0000
0000
,  // measure 27
0000
0000
0000
0000
,  // measure 28
1003
0001
0100
0000
,  // measure 29
0001
1000
0001
1000
0001
0000
0100
0000
,  // measure 30
0001
1000
0100
0000
,  // measure 31
0010
0100
0010
0100
0010
0000
0001
0000
,  // measure 32
1001
1001
1001
1000
,  // measure 33
0010
0100
0001
1000
0100
0000
0010
0001
,  // measure 34
1000
0000
0000
1000
0000
0000
1000
0000
0001
0000
0000
0001
0000
0000
0001
0000
,  // measure 35
0100
0000
0000
0100
0000
0000
0100
0000
0010
0000
0000
0010
0000
0000
0010
0000
,  // measure 36
0110
0000
0110
0000
0110
0000
1000
0100
,  // measure 37
0010
0001
1000
0000
0001
0000
1100
0000
,  // measure 38
1100
0000
1100
0000
1000
0000
0001
0010
,  // measure 39
0100
1000
0001
0000
1000
0000
0101
0000
,  // measure 40
0101
0000
0101
0000
0001
0000
0100
0010
,  // measure 41
1000
0000
0001
0000
0100
0000
0000
0000
0010
0000
1000
0000
0001
0000
0000
0001
,  // measure 42
0000
0000
0001
0000
1000
0000
0000
1000
0000
0000
1000
0000
0010
0000
0000
0010
,  // measure 43
0000
0000
0010
0000
0100
0000
0000
0100
0000
0000
0100
0000
0000
0000
0000
0000
,  // measure 44
0002
1000
1000
2000
,  // measure 45
0000
3003
0000
0000
,  // measure 46
2000
0001
0001
0001
,  // measure 47
0002
0000
3003
0000
,  // measure 48
0002
1000
1000
2000
,  // measure 49
0000
0000
0000
0000
3003
0000
0000
0000
1000
0000
0001
0000
1000
0000
0000
1000
,  // measure 50
0000
0000
1000
0000
0001
0000
0000
0001
0000
0000
0001
0000
1000
0000
0000
1000
,  // measure 51
0000
0000
1000
0000
0001
0000
0000
0001
0000
0000
0001
0000
0000
0000
0000
0000
,  // measure 52
0000
1001
1001
1001
,  // measure 53
1000
0000
0001
0010
0100
0010
0001
0000
,  // measure 54
1000
0110
0110
0110
,  // measure 55
0010
0000
1000
0100
0010
0100
1000
0000
,  // measure 56
0001
1001
1001
1001
,  // measure 57
1000
0000
0010
0100
0001
1000
0010
0000
,  // measure 58
0100
0000
0001
0000
1000
0000
0000
1000
0000
0000
1000
0000
0001
0000
0000
0001
,  // measure 59
0000
0000
0001
0000
0100
0000
0000
0100
0000
0000
0100
0000
0010
0000
0000
0010
,  // measure 60
0000
0010
0100
0000
0101
0000
1100
0000
,  // measure 61
1000
0000
0001
0010
0100
1000
0001
0000
,  // measure 62
1000
1001
1100
0101
,  // measure 63
0001
0000
1000
0100
0010
0001
1000
0000
,  // measure 64
0010
1000
0001
0100
,  // measure 65
0000
0000
0001
1000
0100
1000
0001
0000
,  // measure 66
0100
0000
0001
0000
1000
0000
0000
1000
0000
0000
1000
0000
0001
0000
0000
0001
,  // measure 67
0000
0000
0001
0000
0100
0000
0000
0100
0000
0000
0100
0000
0010
0000
0000
0010
,  // measure 68
0000
0010
0000
0000
0000
0000
0000
0000
;

//---------------dance-single - ----------------
#NOTEDATA:;
#CHARTNAME:;
#STEPSTYPE:dance-single;
#DESCRIPTION:;
#CHARTSTYLE:Pad;
#DIFFICULTY:Easy;
#METER:5;
#RADARVALUES:0.155514,0.204738,0.053428,0.287176,0.000000,163.000000,155.000000,8.000000,43.000000,0.000000,0.000000,0.000000,0.000000,0.000000,0.155514,0.204738,0.053428,0.287176,0.000000,163.000000,155.000000,8.000000,43.000000,0.000000,0.000000,0.000000,0.000000,0.000000;
#CREDIT:Galamoth;
#NOTES:
// measure 0
0000
0000
0000
0000
,  // measure 1
0000
0000
0000
0000
,  // measure 2
0000
0000
0000
0000
,  // measure 3
0000
0000
0000
0000
,  // measure 4
1000
1000
1000
0000
,  // measure 5
0010
0100
0010
0000
,  // measure 6
1000
1000
1000
0000
,  // measure 7
0100
0010
0100
0000
,  // measure 8
0001
0001
0001
0000
,  // measure 9
0010
0100
0010
0000
,  // measure 10
0001
0001
0001
0000
,  // measure 11
0100
0010
0100
0000
,  // measure 12
1000
1000
1000
0000
,  // measure 13
0001
0100
0001
0000
,  // measure 14
1000
1000
1000
0000
,  // measure 15
0001
0010
0001
0000
,  // measure 16
0001
0001
0001
0000
,  // measure 17
1000
0100
1000
0000
,  // measure 18
0001
0001
0001
0000
,  // measure 19
1000
0010
1000
0000
,  // measure 20
0002
0000
0003
0000
,  // measure 21
2000
0000
3000
0000
,  // measure 22
0020
0000
0030
0000
,  // measure 23
2000
3000
0020
0030
,  // measure 24
0200
0000
0300
0000
,  // measure 25
0002
0000
0003
0000
,  // measure 26
2000
0000
0000
0000
,  // measure 27
3000
0000
0000
0000
,  // measure 28
0001
0001
0001
0000
,  // measure 29
0200
0000
0310
0000
,  // measure 30
1000
1000
1000
0000
,  // measure 31
0020
0000
0130
0000
,  // measure 32
0001
0001
1001
1000
,  // measure 33
0002
0000
1003
0100
,  // measure 34
2000
0100
3200
0010
,  // measure 35
0320
0000
0001
0000
0032
0000
0000
0003
,  // measure 36
1000
1000
0000
0002
,  // measure 37
0000
0103
0000
0001
,  // measure 38
0001
1001
0000
2000
,  // measure 39
0000
3010
0000
0100
,  // measure 40
0100
0110
0000
0020
,  // measure 41
0000
1030
0000
0002
,  // measure 42
0010
0023
0100
0230
,  // measure 43
1000
2300
0000
3000
,  // measure 44
0002
0000
1000
0000
,  // measure 45
1003
0000
0000
0000
,  // measure 46
0200
0000
0010
0000
,  // measure 47
0310
0000
0000
0000
,  // measure 48
0002
0000
1000
0000
,  // measure 49
1003
0000
0000
0002
,  // measure 50
0000
0023
0000
0230
,  // measure 51
0000
2300
0000
3000
,  // measure 52
0000
0001
0001
1001
,  // measure 53
0000
2000
0000
3010
,  // measure 54
0000
1000
1000
1001
,  // measure 55
0000
0002
0000
0013
,  // measure 56
0000
0100
0100
0110
,  // measure 57
0000
2000
0000
3001
,  // measure 58
0000
2000
0100
3200
,  // measure 59
0010
0320
0001
0032
,  // measure 60
0000
0103
1000
1000
,  // measure 61
0000
0002
0000
0103
,  // measure 62
0000
0010
0010
0110
,  // measure 63
0000
0200
0000
0301
,  // measure 64
0000
1000
1000
1001
,  // measure 65
0000
0002
0000
1003
,  // measure 66
0000
0002
0000
0023
,  // measure 67
0000
0230
0000
2300
,  // measure 68
0000
3000
0000
0000
0000
0000
0000
0000
;

//---------------dance-single - ----------------
#NOTEDATA:;
#CHARTNAME:;
#STEPSTYPE:dance-single;
#DESCRIPTION:;
#CHARTSTYLE:Pad;
#DIFFICULTY:Beginner;
#METER:3;
#RADARVALUES:0.118305,0.135741,0.000000,0.120213,0.000000,124.000000,124.000000,0.000000,18.000000,0.000000,0.000000,0.000000,0.000000,0.000000,0.118305,0.135741,0.000000,0.120213,0.000000,124.000000,124.000000,0.000000,18.000000,0.000000,0.000000,0.000000,0.000000,0.000000;
#CREDIT:Galamoth;
#NOTES:
// measure 0
0000
0000
0000
0000
,  // measure 1
0000
0000
0000
0000
,  // measure 2
0000
0000
0000
0000
,  // measure 3
0000
0000
0000
0000
,  // measure 4
1000
0000
1000
0000
,  // measure 5
0001
0000
0001
0000
,  // measure 6
1000
0000
1000
0000
,  // measure 7
0001
0000
0001
0000
,  // measure 8
0100
0000
0100
0000
,  // measure 9
0010
0000
0010
0000
,  // measure 10
0100
0000
0100
0000
,  // measure 11
0010
0000
0010
0000
,  // measure 12
1000
0000
0001
0000
,  // measure 13
1000
0000
0001
0000
,  // measure 14
0100
0000
0010
0000
,  // measure 15
0100
0000
0010
0000
,  // measure 16
1000
0000
0100
0000
,  // measure 17
0010
0000
0001
0000
,  // measure 18
1000
0000
0100
0000
,  // measure 19
0010
0000
0001
0000
,  // measure 20
2000
0000
3000
0000
,  // measure 21
0002
0000
0003
0000
,  // measure 22
0200
0000
0300
0000
,  // measure 23
0002
0003
0200
0300
,  // measure 24
0020
0000
0030
0000
,  // measure 25
2000
0000
3000
0000
,  // measure 26
0002
0000
0000
0000
,  // measure 27
0003
0000
0000
0000
,  // measure 28
1000
1000
1000
0000
,  // measure 29
0001
0000
0100
0000
,  // measure 30
0001
0001
0001
0000
,  // measure 31
1000
0000
0100
0000
,  // measure 32
1000
1000
1000
0000
,  // measure 33
0001
0000
0100
0000
,  // measure 34
0002
0000
1003
0000
,  // measure 35
2000
0000
3001
0000
,  // measure 36
0000
1000
0000
0001
,  // measure 37
0000
0010
0000
0001
,  // measure 38
0001
0001
0000
1000
,  // measure 39
0000
0010
0000
1000
,  // measure 40
1000
1000
0000
0001
,  // measure 41
0000
0100
0000
0002
,  // measure 42
0000
1003
0000
2000
,  // measure 43
0000
3001
0000
1000
,  // measure 44
0000
0000
0000
0001
,  // measure 45
0000
0000
0000
0100
,  // measure 46
0000
0000
0000
0010
,  // measure 47
0000
0000
0000
1000
,  // measure 48
0000
0000
0000
0001
,  // measure 49
0000
0000
0000
2000
,  // measure 50
0000
3001
0000
0002
,  // measure 51
0000
1003
0000
0000
,  // measure 52
0000
1000
1000
1000
,  // measure 53
0000
0001
0000
0100
,  // measure 54
0000
0001
0001
0001
,  // measure 55
0000
1000
0000
0100
,  // measure 56
0000
1000
1000
1000
,  // measure 57
0000
0001
0000
0010
,  // measure 58
0000
0002
0000
1003
,  // measure 59
0000
2000
0000
3001
,  // measure 60
0000
1000
0001
0001
,  // measure 61
0000
1000
0000
0010
,  // measure 62
0000
1000
1000
1000
,  // measure 63
0000
0001
0000
0010
,  // measure 64
0000
0001
0001
0001
,  // measure 65
0000
0100
0000
0010
,  // measure 66
0000
2000
0000
3001
,  // measure 67
0000
0002
0000
1003
;
