#TITLE:Bad Habits;
#SUBTITLE:;
#ARTIST:Ed Sheeran;
#TITLETRANSLIT:;
#SUBTITLETRANSLIT:;
#ARTISTTRANSLIT:;
#GENRE:Pop;
#CREDIT:;
#BANNER:bn.png;
#BACKGROUND:bg.png;
#LYRICSPATH:;
#CDTITLE:cdtitleMic.png;
#MUSIC:Bad Habits.ogg;
#OFFSET:0.080000;
#SAMPLESTART:51.882999;
#SAMPLELENGTH:15.238091;
#SELECTABLE:YES;
#BPMS:0.000000=125.999992
;
#STOPS:
;
#BGCHANGES:0.000=Bad Habits.mp4=1.000=1=0=0=StretchNoLoop==CrossFade==,
272.000=bg.png=1.000=1=0=1===CrossFade==,
99999=-nosongbg-=1.000=0=0=0 // don't automatically add -songbackground-
;
#KEYSOUNDS:;
#ATTACKS:TIME=34.29:LEN=1.90:MODS=*0.5 Tornado, *0.5 -140% Mini, *0.5 Stealth, *1.5 200% Drunk, *1.5 200% Tipsy:TIME=36.19:LEN=0.72:MODS=*0.5 Stealth, *1.5 No Drunk, *1.5 No Tipsy;

//---------------dance-single - ----------------
#NOTES:
     dance-single:
     :
     Hard:
     11:
     0.466306,0.439785,0.000000,0.007609,0.000000,429.000000,429.000000,0.000000,1.000000,0.000000,0.000000,0.466306,0.439785,0.000000,0.007609,0.000000,429.000000,429.000000,0.000000,1.000000,0.000000,0.000000:
0000
0000
0000
0000
,
0000
0000
0000
0000
,
0000
0000
0000
0000
,
0000
0000
0000
0000
,
0000
0001
0100
0000
0010
0100
0000
0001
,
0000
1000
0100
0000
0010
0100
0000
1000
,
0000
0001
0010
0000
0100
0010
0000
0001
,
0000
1000
0010
0000
0100
0010
0000
1000
,
0000
0001
0100
0000
0010
0100
0000
0001
,
0000
1000
0100
0000
0010
0100
0000
1000
,
0000
0001
0010
0000
0100
0010
0000
0001
,
0000
1000
0010
0000
0100
0010
0000
1000
,
0000
0001
0100
0000
0010
0100
0010
1000
,
0000
1000
0100
0000
0010
0100
0010
0001
,
0000
0001
0010
0000
0100
0010
0100
1000
,
0000
1000
0010
0000
0100
0010
0100
0001
,
0000
0001
0100
0000
0010
0100
0010
1000
,
0000
1000
0100
0000
0010
0100
0010
0001
,
2000
0000
0000
0000
,
3000
0000
0000
0000
,
0100
1000
0100
1000
0100
1000
0100
1000
,
0001
0010
0001
0010
0100
0010
0100
0010
,
0001
1000
0001
1000
0001
1000
0001
1000
,
0001
1000
0001
1000
0001
0010
0100
0010
,
0100
1000
0100
1000
0100
1000
0100
1000
,
0001
0010
0001
0010
0100
0010
0100
0010
,
0001
1000
0001
1000
0001
1000
0001
1000
,
0000
0100
0000
0001
0000
0010
0000
1000
,
0001
0010
0100
1000
0010
0100
0001
1000
,
0100
0010
0001
1000
0010
0100
0001
0100
,
0010
1000
0001
0010
0100
0010
0001
1000
,
0010
0100
0001
1000
0001
0100
0010
1000
,
0010
0100
0001
0010
0100
1000
0010
0100
,
0001
1000
0100
0010
0100
1000
0001
0100
,
0010
1000
0001
0100
0010
1000
0001
0010
,
0001
1000
0100
1000
0001
0100
0010
1000
,
0001
0100
0100
0001
0010
0010
0001
1000
,
0001
0010
0010
0001
1000
1000
0001
0100
,
0001
1000
1000
0001
0100
0100
0001
1000
,
0001
0100
0100
0001
0010
0010
0001
0100
,
1000
0010
0010
1000
0100
0100
1000
0001
,
1000
0100
0100
1000
0001
0001
1000
0010
,
1000
0001
0001
1000
0010
0010
1000
0001
,
1000
0010
0010
1000
0100
0100
1000
0001
,
0100
0010
0100
0010
0100
0010
0100
0010
,
1000
0100
1000
0100
0010
0001
0010
0001
,
1000
0001
1000
0001
1000
0001
1000
0001
,
1000
0001
1000
0001
1000
0001
1000
0001
,
0100
0010
0100
0010
0100
0010
0100
0010
,
1000
0010
1000
0010
0100
0001
0100
0001
,
1000
0100
0010
0001
1000
0100
0010
0001
,
1000
0010
0100
0001
1000
0010
0100
0001
,
1000
0001
0000
0001
0000
0001
0000
0001
,
0000
0100
0000
0100
0000
0100
0000
0100
,
0000
0010
0000
0010
0000
0010
0000
0010
,
0000
0010
0000
0010
0000
1000
0000
1000
,
0000
0001
1000
0001
0000
0001
1000
0001
,
0000
0100
0010
0100
0000
0100
0010
0100
,
0000
0010
1000
0010
0000
0010
1000
0010
,
0000
0000
0000
0000
,
1000
0100
0010
0001
0100
0010
1000
0001
,
0010
0100
1000
0001
0100
0010
1000
0010
,
0100
0001
1000
0100
0010
0100
1000
0001
,
0100
0010
1000
0001
1000
0010
0100
0001
,
0100
0010
1000
0100
0010
0001
0100
0010
,
1000
0001
0010
0100
0010
0001
1000
0010
,
0100
0001
1000
0010
0100
0001
1000
0100
,
1000
0001
0010
0001
1000
0010
0100
0001
,
1000
0000
0000
0000
;

//---------------dance-single - ----------------
#NOTES:
     dance-single:
     :
     Medium:
     7:
     0.284784,0.439785,0.000000,0.068479,0.000000,262.000000,262.000000,0.000000,9.000000,0.000000,0.000000,0.284784,0.439785,0.000000,0.068479,0.000000,262.000000,262.000000,0.000000,9.000000,0.000000,0.000000:
0000
0000
0000
0000
,
0000
0000
0000
0000
,
0000
0000
0000
0000
,
0000
0000
0000
0000
,
0000
1000
0000
0000
0100
0000
0000
1000
,
0000
0001
0000
0000
0100
0000
0000
0001
,
0000
1000
0000
0000
0010
0000
0000
1000
,
0000
0001
0000
0000
0010
0000
0000
0001
,
0000
1000
0000
0000
0100
0000
0000
0010
,
0000
0001
0000
0000
0010
0000
0000
0100
,
0000
1000
0000
0000
0100
0000
0000
0010
,
0000
0001
0000
0000
0010
0000
0000
0100
,
0000
1000
0001
0000
0100
0000
0001
1000
,
0000
0001
1000
0000
0100
0000
1000
0001
,
0000
1000
0001
0000
0010
0000
0001
1000
,
0000
0001
1000
0000
0010
0000
1000
0001
,
0000
1000
0001
0000
0100
0000
0001
0010
,
0000
0001
1000
0000
0010
0000
1000
0100
,
2000
0000
0000
0000
,
3000
0000
0000
0000
,
1000
1000
1000
1000
,
0001
0001
0100
0100
,
0010
0010
0010
0010
,
0010
0010
1000
1000
,
0001
0001
0001
0001
,
1000
1000
0100
0100
,
0010
0010
0010
0010
,
0000
0001
0000
1000
0000
0001
0000
1000
,
0001
0100
0001
0000
1000
0000
0100
0000
,
1000
0010
1000
0000
0001
0000
0100
0000
,
0001
1000
0001
0000
0010
0000
0100
0000
,
1000
0001
1000
0000
0010
0000
0100
0000
,
0010
1000
0100
0000
0010
0000
0100
0000
,
0010
0001
0100
0000
0001
0000
1000
0000
,
0001
1000
0010
0000
1000
0001
0100
0000
,
0001
1000
0100
0000
1000
0001
0010
0000
,
0001
1000
0001
0000
1000
0001
0000
0100
,
0000
0001
0010
0000
0001
0010
0000
0100
,
0000
1000
0010
0000
1000
0010
0000
0100
,
0000
0010
0100
0000
0010
0100
0000
0001
,
1000
0100
1000
0000
1000
0100
0000
0010
,
0000
0001
1000
0000
1000
0001
0000
0100
,
0000
0001
0010
0000
0010
0001
0000
0100
,
0000
0010
1000
0000
1000
0010
0000
1000
,
0002
0000
0000
0000
,
2003
0000
3020
0000
,
0230
0000
0000
0000
,
0000
0000
0302
0000
,
2003
0000
0000
0000
,
3200
0000
0320
0000
,
0031
1000
0001
1000
0010
0100
0010
0100
,
0001
1000
0001
1000
0010
0100
0010
0100
,
0001
1000
0000
0001
0000
1000
0000
0001
,
0000
0100
0000
0010
0000
0100
0000
0010
,
0000
1000
0000
0100
0000
1000
0000
0100
,
0000
1000
0000
0100
0000
0010
0000
0001
,
0000
1000
0010
0000
0000
0000
0100
0000
,
0000
0001
0000
1000
,
0000
0010
0000
1000
,
0000
0000
0000
0000
,
0001
0100
0001
0000
1000
0000
0100
0000
,
1000
0010
1000
0000
0001
0000
0100
0000
,
0001
1000
0001
0000
0010
0000
0100
0000
,
1000
0001
1000
0000
0010
0000
0100
0000
,
0010
1000
0100
0000
0010
0000
0100
0000
,
0010
0001
0100
0000
0001
0000
1000
0000
,
0001
1000
0010
0000
1000
0001
0100
0000
,
0001
1000
0100
0000
1000
0001
0010
0000
,
0001
0000
0000
0000
;

//---------------dance-single - ----------------
#NOTES:
     dance-single:
     :
     Easy:
     4:
     0.175001,0.232827,0.000000,0.060870,0.000000,161.000000,161.000000,0.000000,8.000000,0.000000,0.000000,0.175001,0.232827,0.000000,0.060870,0.000000,161.000000,161.000000,0.000000,8.000000,0.000000,0.000000:
0000
0000
0000
0000
,
0000
0000
0000
0000
,
0000
0000
0000
0000
,
0000
0000
0000
0000
,
1000
0000
0000
0000
,
0001
0000
0000
0000
,
0100
0000
0000
0000
,
0010
0000
0000
0000
,
1000
0000
0000
0000
,
0001
0000
0000
0000
,
0100
0000
0000
0000
,
0010
0000
0000
0000
,
1000
1000
1000
0000
,
0001
0001
0001
0000
,
0100
0100
0100
0000
,
0010
0010
0010
0000
,
1000
0000
0100
0000
,
0010
0000
0001
0000
,
2000
0000
3000
0000
,
0000
0000
0000
0000
,
0001
1000
0001
0000
,
1000
0001
1000
0000
,
0010
0100
0010
0000
,
0100
0010
0100
0000
,
0001
1000
0001
0000
,
1000
0001
1000
0000
,
0010
0100
0010
0000
,
0100
0000
0000
0000
,
0001
1000
0001
1000
,
0010
0100
0010
0100
,
0001
0010
0001
0010
,
0100
1000
0100
1000
,
0001
1000
0001
1000
,
0010
0100
0010
0100
,
0001
0010
0001
0010
,
0100
1000
0100
1000
,
0001
0001
0100
0000
,
1000
1000
0100
0000
,
0001
0001
0010
0000
,
1000
1000
0010
0000
,
1000
0100
0010
0000
,
0001
0100
0010
0000
,
1000
0010
0100
0000
,
0001
0010
0100
0000
,
2000
0000
3000
0000
,
0002
0003
2000
3000
,
0001
0000
0000
0000
,
0000
0000
2000
3000
,
0002
0000
0003
0000
,
0200
0300
0020
0030
,
1000
0000
0001
0000
,
1000
0100
0010
0001
,
1000
0000
0000
0000
,
0001
0000
0000
0000
,
0100
0000
0000
0000
,
0010
0000
0000
0000
,
1000
0000
0100
0000
,
0010
0000
0001
0000
,
1000
0000
0001
0000
,
1000
0000
0000
0000
,
0001
1000
0001
1000
,
0010
0100
0010
0100
,
0001
0010
0001
0010
,
0100
1000
0100
1000
,
0001
1000
0001
1000
,
0010
0100
0010
0100
,
0001
0010
0001
0010
,
0100
1000
0100
1000
,
0001
0000
0000
0000
;

//---------------dance-single - ----------------
#NOTES:
     dance-single:
     :
     Beginner:
     2:
     0.126088,0.155218,0.000000,0.000000,0.000000,116.000000,116.000000,0.000000,0.000000,0.000000,0.000000,0.126088,0.155218,0.000000,0.000000,0.000000,116.000000,116.000000,0.000000,0.000000,0.000000,0.000000:
0000
0000
0000
0000
,
0000
0000
0000
0000
,
0000
0000
0000
0000
,
0000
0000
0000
0000
,
1000
0000
0000
0000
,
1000
0000
0000
0000
,
0001
0000
0000
0000
,
0001
0000
0000
0000
,
0100
0000
0000
0000
,
0100
0000
0000
0000
,
0010
0000
0000
0000
,
0010
0000
0000
0000
,
0000
1000
0000
1000
,
0000
0001
0000
0001
,
0000
1000
0000
1000
,
0000
0001
0000
0001
,
0000
0100
0000
0100
,
0000
0010
0000
0010
,
0000
0000
0000
0000
,
0000
0000
0000
0000
,
1000
1000
0000
0000
,
0001
0001
0000
0000
,
1000
1000
0000
0000
,
0001
0001
0000
0000
,
0100
0100
0000
0000
,
0010
0010
0000
0000
,
1000
0000
0001
0000
,
1000
0000
0000
0000
,
0001
0001
0001
0000
,
1000
0000
0001
0000
,
1000
1000
1000
0000
,
0001
0000
1000
0000
,
0010
0010
0010
0000
,
1000
0000
0001
0000
,
0100
0100
0100
0000
,
0001
0000
1000
0000
,
0001
0000
0010
0000
,
0001
0000
0010
0000
,
0100
0000
1000
0000
,
0100
0000
1000
0000
,
0001
0000
0100
0000
,
0001
0000
0100
0000
,
0010
0000
1000
0000
,
0010
0000
1000
0000
,
0001
0000
0000
0000
,
1000
0000
1000
0000
,
1000
0000
0000
0000
,
0000
0000
0001
0000
,
0001
0000
0000
0000
,
0100
0000
0001
0000
,
1000
0000
0010
0000
,
1000
0000
0001
1000
,
0001
0000
0000
0000
,
0010
0000
0000
0000
,
0100
0000
0000
0000
,
1000
0000
0001
0000
,
0000
1000
0000
1000
,
0000
0001
0000
0001
,
0000
0100
0000
0100
,
0000
0000
0000
0000
,
0001
0001
0001
0000
,
1000
0000
0001
0000
,
1000
1000
1000
0000
,
0001
0000
1000
0000
,
0010
0010
0010
0000
,
1000
0000
0001
0000
,
0100
0100
0100
0000
,
0001
0000
1000
0000
,
0100
0000
0000
0000
;
