#VERSION:0.83;
#TITLE:BANG!;
#SUBTITLE:;
#ARTIST:AJR;
#TITLETRANSLIT:;
#SUBTITLETRANSLIT:;
#ARTISTTRANSLIT:;
#GENRE:Electropop;
#ORIGIN:;
#CREDIT:;
#BANNER:bn.png;
#BACKGROUND:bg.png;
#PREVIEWVID:;
#JACKET:jacket.png;
#CDIMAGE:;
#DISCIMAGE:;
#LYRICSPATH:;
#CDTITLE:;
#MUSIC:BANG!.ogg;
#OFFSET:0.000690;
#SAMPLESTART:34.682999;
#SAMPLELENGTH:13.714287;
#SELECTABLE:YES;
#BPMS:0.000=140.000;
#STOPS:;
#DELAYS:;
#WARPS:;
#TIMESIGNATURES:0.000=4=4;
#TICKCOUNTS:0.000=4;
#COMBOS:0.000=1;
#SPEEDS:0.000=1.000=0.000=0;
#SCROLLS:0.000=1.000;
#FAKES:;
#LABELS:0.000=Song Start;
#BGCHANGES:0.001=BANG!.mp4=1.000=1=0=0=StretchNoLoop==CrossFade==,
300.500=bg.png=1.000=1=0=1===CrossFade==,
99999=-nosongbg-=1.000=0=0=0 // don't automatically add -songbackground-
;
#KEYSOUNDS:;
#ATTACKS:
;

//---------------dance-single - ----------------
#NOTEDATA:;
#CHARTNAME:;
#STEPSTYPE:dance-single;
#DESCRIPTION:;
#CHARTSTYLE:Pad;
#DIFFICULTY:Hard;
#METER:11;
#RADARVALUES:0.409358,0.458481,0.695362,0.000000,0.042027,375.000000,284.000000,91.000000,0.000000,0.000000,0.000000,0.000000,0.000000,0.000000,0.409358,0.458481,0.695362,0.000000,0.042027,375.000000,284.000000,91.000000,0.000000,0.000000,0.000000,0.000000,0.000000,0.000000;
#CREDIT:Galamoth;
#NOTES:
0000
0000
0000
0000
,
0000
0000
0000
0000
,
0000
0000
0000
0000
,
0000
0000
0000
0000
,
0000
0000
0000
0000
,
1000
0000
0001
0000
,
1000
0000
0000
0000
0000
0000
0000
0000
0000
0000
0000
0000
0000
0000
0000
0000
0000
0000
0000
0001
0000
0000
0000
0000
0000
0000
0000
0000
0000
0000
0001
0000
0000
0000
0000
0000
0010
0000
0000
0000
0000
0000
0000
0000
0000
0000
0000
0000
,
0001
0000
1000
0000
,
0001
0000
0000
0000
0000
0000
0000
0000
0000
0000
0000
0000
0000
0000
0000
0000
0000
0000
0000
1000
0000
0000
0000
0000
0000
0000
0000
0000
0000
0000
1000
0000
0000
0000
0000
0000
0010
0000
0000
0000
0000
0000
0000
0000
0000
0000
0000
0000
,
1000
0000
0001
0000
,
1000
0000
0000
0000
0000
0000
0000
0000
0000
0000
0000
0000
0000
0000
0000
0000
0000
0000
0000
0001
0000
0000
0000
0000
0000
0000
0000
0000
0000
0000
0001
0000
0000
0000
0000
0000
0010
0000
0000
0000
0000
0000
0000
0000
0000
0000
0000
0000
,
1001
0000
1001
0110
,
1001
0000
0100
0000
,
0010
0100
0001
0000
,
0010
0000
0000
0000
0000
0000
0000
0000
0000
0000
0000
0000
0001
0000
0000
0000
0000
0000
0000
0100
0000
0000
0000
0000
0000
0000
0000
0000
0000
0000
0100
0000
0000
0000
0000
0000
0001
0000
0000
0000
0000
0000
0000
0000
0000
0000
0000
0000
,
1000
0010
0100
0000
,
0001
0000
0000
0000
0000
0000
0000
0000
0000
0000
0000
0000
1000
0000
0000
0000
0000
0000
0000
0100
0000
0000
0000
0000
0000
0000
0000
0000
0000
0000
0100
0000
0000
0000
0000
0000
1000
0000
0000
0000
0000
0000
0000
0000
0000
0000
0000
0000
,
0001
1000
0100
0000
,
1000
0000
0000
0000
0000
0000
0000
0000
0000
0000
0000
0000
0001
0000
0000
0000
0000
0000
0000
0100
0000
0000
0000
0000
0000
0000
0000
0000
0000
0000
0100
0000
0000
0000
0000
0000
0001
0000
0000
0000
0000
0000
0000
0000
0000
0000
0000
0000
,
1001
0000
1001
0110
,
1001
0000
0000
0110
,
1001
0001
0101
1000
,
1100
0000
0001
0100
1000
0100
0001
0000
,
0101
1000
1100
0001
,
0101
0000
1000
0100
0001
0100
1000
0000
,
1100
0001
0101
1000
,
1100
0000
0001
0010
0100
1000
0001
0000
,
1001
0000
1001
0110
,
1001
1000
0000
0110
,
1001
1000
1010
0001
,
0011
0000
1000
0010
0001
0010
1000
0000
,
1010
0001
0011
1000
,
1010
0000
0001
0010
1000
0010
0001
0000
,
0011
1000
1010
0001
,
0011
0000
1000
0100
0010
0001
1000
0000
,
1001
0000
1001
0110
,
1001
0001
1000
0000
,
0001
0100
0010
0000
,
1001
0000
0000
0000
0000
0000
0000
0000
0000
0000
0000
0000
0001
0000
0000
0000
0000
0000
0000
0100
0000
0000
0000
0000
0000
0000
0000
0000
0000
0000
0100
0000
0000
0000
0000
0000
0001
0000
0000
0000
0000
0000
0000
0000
0000
0000
0000
0000
,
1010
0010
0100
0000
,
0011
0000
0000
0000
0000
0000
0000
0000
0000
0000
0000
0000
1000
0000
0000
0000
0000
0000
0000
0100
0000
0000
0000
0000
0000
0000
0000
0000
0000
0000
0100
0000
0000
0000
0000
0000
1000
0000
0000
0000
0000
0000
0000
0000
0000
0000
0000
0000
,
0001
1000
0100
0000
,
1010
0000
0000
0000
0000
0000
0000
0000
0000
0000
0000
0000
0001
0000
0000
0000
0000
0000
0000
0100
0000
0000
0000
0000
0000
0000
0000
0000
0000
0000
0100
0000
0000
0000
0000
0000
0001
0000
0000
0000
0000
0000
0000
0000
0000
0000
0000
0000
,
1001
0000
1001
0110
,
1001
0000
0000
0000
,
1000
0100
0001
0010
,
1000
0100
0001
0100
1000
0000
0001
0000
,
1000
0010
0001
0100
,
1000
0010
0001
0010
1000
0000
0001
0000
,
1000
0100
0001
0010
,
1000
0100
0001
0010
1000
0000
0010
0000
,
1001
0000
0110
1001
,
0110
0000
0000
0110
,
1001
0001
0101
1000
,
1100
0000
0001
0100
1000
0100
0001
0000
,
0101
1000
1100
0001
,
0101
0000
1000
0100
0001
0100
1000
0000
,
1100
0001
0101
1000
,
1100
0000
0001
0010
0100
1000
0001
0000
,
1001
0000
1001
0110
,
1001
1000
0000
0110
,
1001
1000
1010
0001
,
0011
0000
1000
0010
0001
0010
1000
0000
,
1010
0001
0011
1000
,
1010
0000
0001
0010
1000
0010
0001
0000
,
0011
1000
1010
0001
,
0011
0000
1000
0100
0010
0001
1000
0000
,
1001
0000
1001
0110
,
1001
0000
0000
0001
0000
0100
0001
0000
0000
0101
0000
0000
,
1010
0010
1001
0110
,
1001
0000
0000
1000
0000
0100
1000
0000
0000
0001
0000
0000
,
0101
1000
1100
1000
,
1010
0010
0011
0001
,
1001
0000
1001
0110
,
1001
0000
0000
1010
,
0101
0000
0000
0000
;

//---------------dance-single - ----------------
#NOTEDATA:;
#CHARTNAME:;
#STEPSTYPE:dance-single;
#DESCRIPTION:;
#CHARTSTYLE:Pad;
#DIFFICULTY:Medium;
#METER:9;
#RADARVALUES:0.398442,0.458481,0.634232,0.000000,0.000000,365.000000,282.000000,83.000000,0.000000,0.000000,0.000000,0.000000,0.000000,0.000000,0.398442,0.458481,0.634232,0.000000,0.000000,365.000000,282.000000,83.000000,0.000000,0.000000,0.000000,0.000000,0.000000,0.000000;
#CREDIT:Galamoth;
#NOTES:
0000
0000
0000
0000
,
0000
0000
0000
0000
,
0000
0000
0000
0000
,
0000
0000
0000
0000
,
0000
0000
0000
0000
,
1000
0000
0001
0000
,
1000
0000
0000
0001
0000
0001
0010
0000
,
0001
0000
1000
0000
,
0001
0000
0000
1000
0000
1000
0010
0000
,
1000
0000
0001
0000
,
1000
0000
0000
0001
0000
0001
0010
0000
,
1001
0000
1001
0110
,
1001
0000
0100
0000
,
0010
0100
0001
0000
,
0010
0000
0001
0100
0000
0100
0001
0000
,
1000
0010
0100
0000
,
0001
0000
1000
0100
0000
0100
1000
0000
,
0001
1000
0100
0000
,
1000
0000
0001
0100
0000
0100
0001
0000
,
1001
0000
1001
0110
,
1001
0000
0000
0110
,
1001
0001
1001
1000
,
1001
0000
0001
1000
0100
1000
0001
0000
,
1001
1000
1001
0001
,
1001
0000
1000
0001
0100
0001
1000
0000
,
1001
0010
1001
0100
,
1001
0000
0001
0100
0010
1000
0001
0000
,
1001
0000
1001
0110
,
1001
0000
0000
1001
,
0110
0100
0110
0010
,
0110
0000
1000
0001
0100
0001
1000
0000
,
0110
0010
0110
0100
,
0110
0000
0001
1000
0100
1000
0001
0000
,
0110
1000
0110
0001
,
0110
0000
1000
0010
0100
0001
1000
0000
,
1001
0000
1001
0110
,
1001
0000
1000
0000
,
0001
0100
0010
0000
,
1000
0000
0001
0100
0000
0100
0001
0000
,
1000
0010
0100
0000
,
0001
0000
1000
0100
0000
0100
1000
0000
,
0001
1000
0100
0000
,
1000
0000
0001
0100
0000
0100
0001
0000
,
1001
0000
1001
0110
,
1001
0000
0000
0000
,
1000
0100
0001
0010
,
1000
0100
0010
0100
1000
0000
0001
0000
,
1000
0010
0001
0100
,
1000
0010
0100
0010
1000
0000
0001
0000
,
1000
0100
0001
0010
,
1000
0100
0010
0001
1000
0000
0010
0000
,
1001
0000
0110
1001
,
0110
0000
0000
0110
,
1001
0001
1001
1000
,
1001
0000
0001
1000
0100
1000
0001
0000
,
1001
1000
1001
0001
,
1001
0000
1000
0001
0100
0001
1000
0000
,
1001
0010
1001
0100
,
1001
0000
0001
0100
0010
1000
0001
0000
,
1001
0000
1001
0110
,
1001
0000
0000
1001
,
0110
0100
0110
0010
,
0110
0000
1000
0001
0100
0001
1000
0000
,
0110
0010
0110
0100
,
0110
0000
0001
1000
0100
1000
0001
0000
,
0110
1000
0110
0001
,
0110
0000
1000
0010
0100
0001
1000
0000
,
1001
0000
1001
0110
,
1001
0000
0001
1000
0001
0000
0110
0000
,
1001
0010
1001
0110
,
1001
0000
1000
0001
1000
0000
0001
0000
,
0100
0010
1000
0100
,
0010
0000
0001
1000
0000
1000
0001
0000
,
1001
0000
1001
0110
,
1001
0000
0000
0011
,
1100
0000
0000
0000
;

//---------------dance-single - ----------------
#NOTEDATA:;
#CHARTNAME:;
#STEPSTYPE:dance-single;
#DESCRIPTION:;
#CHARTSTYLE:Pad;
#DIFFICULTY:Easy;
#METER:6;
#RADARVALUES:0.277272,0.343861,0.489046,0.000000,0.000000,254.000000,190.000000,64.000000,0.000000,0.000000,0.000000,0.000000,0.000000,0.000000,0.277272,0.343861,0.489046,0.000000,0.000000,254.000000,190.000000,64.000000,0.000000,0.000000,0.000000,0.000000,0.000000,0.000000;
#CREDIT:Galamoth;
#NOTES:
0000
0000
0000
0000
,
0000
0000
0000
0000
,
0000
0000
0000
0000
,
0000
0000
0000
0000
,
0000
0000
0000
0000
,
1000
0000
0001
0000
,
1000
0000
0000
0001
0000
0000
0001
0000
,
1000
0000
0001
0000
,
1000
0000
0000
0010
0000
0000
0010
0000
,
1000
0000
0001
0000
,
1000
0000
0000
0100
0000
0000
0100
0000
,
1001
0000
1001
1001
,
1001
0000
0000
0000
,
0001
0000
1000
0000
,
0001
0000
0000
1000
0000
0000
1000
0000
,
0001
0000
1000
0000
,
0001
0000
0000
0100
0000
0000
0100
0000
,
0001
0000
1000
0000
,
0001
0000
0000
0010
0000
0000
0010
0000
,
1001
0000
1001
1001
,
1001
0000
0000
0100
,
1001
0000
0110
0000
,
1000
0100
0010
0001
,
1001
0000
0110
0000
,
0001
0010
0100
1000
,
1001
0000
0110
0000
,
1000
0001
1000
0001
,
1001
0000
1001
1001
,
1001
0000
0000
0000
,
1001
0000
0110
0000
,
1000
0100
0010
0001
,
1001
0000
0110
0000
,
0001
0010
0100
1000
,
1001
0000
0110
0000
,
1000
0001
1000
0001
,
1001
0000
1001
1001
,
1001
0000
0000
0000
,
1000
0000
0001
0000
,
1000
0000
0000
0001
0000
0000
0001
0000
,
1000
0000
0001
0000
,
1000
0000
0000
0010
0000
0000
0010
0000
,
1000
0000
0001
0000
,
1000
0000
0000
0100
0000
0000
0100
0000
,
1001
0000
1001
1001
,
1001
0000
0000
0000
,
1000
0001
1000
0001
,
0100
0010
0100
0010
,
1000
0100
1000
0100
,
0010
0001
0010
0001
,
1000
0010
1000
0010
,
0100
0001
0100
0001
,
1001
0000
0010
0100
,
0110
0000
0000
0000
,
1001
0000
0110
0000
,
1000
0100
0010
0001
,
1001
0000
0110
0000
,
0001
0010
0100
1000
,
1001
0000
0110
0000
,
1000
0001
1000
0001
,
1001
0000
1001
1001
,
1001
0000
0000
0000
,
1001
0000
0110
0000
,
1000
0100
0010
0001
,
1001
0000
0110
0000
,
0001
0010
0100
1000
,
1001
0000
0110
0000
,
1000
0001
1000
0001
,
1001
0000
1001
1001
,
1001
0000
0000
0110
,
0110
0000
1001
1001
,
1001
0000
0000
0010
,
0100
0000
0001
0000
,
1000
0000
0100
0000
,
0010
0000
1001
1001
,
1001
0000
0000
0110
,
1001
0000
0000
0000
;

//---------------dance-single - ----------------
#NOTEDATA:;
#CHARTNAME:;
#STEPSTYPE:dance-single;
#DESCRIPTION:;
#CHARTSTYLE:Pad;
#DIFFICULTY:Beginner;
#METER:4;
#RADARVALUES:0.174659,0.257895,0.099337,0.000000,0.000000,160.000000,147.000000,13.000000,0.000000,0.000000,0.000000,0.000000,0.000000,0.000000,0.174659,0.257895,0.099337,0.000000,0.000000,160.000000,147.000000,13.000000,0.000000,0.000000,0.000000,0.000000,0.000000,0.000000;
#CREDIT:Galamoth;
#NOTES:
0000
0000
0000
0000
,
0000
0000
0000
0000
,
0000
0000
0000
0000
,
0000
0000
0000
0000
,
0000
0000
0000
0000
,
1000
0000
0001
0000
,
1000
0000
0010
0000
,
1000
0000
0001
0000
,
1000
0000
0010
0000
,
1000
0000
0001
0000
,
1000
0000
0010
0000
,
1000
0000
0001
0001
,
1001
0000
0000
0000
,
0001
0000
1000
0000
,
0001
0000
0100
0000
,
0001
0000
1000
0000
,
0001
0000
0100
0000
,
0001
0000
1000
0000
,
0001
0000
0100
0000
,
0001
0000
1000
1000
,
1001
0000
0000
0000
,
1000
0000
0001
0000
,
1000
0000
0001
0000
,
0100
0000
0010
0000
,
0100
0000
0010
0000
,
1000
0000
0001
0000
,
1000
0000
0001
0000
,
0100
0000
0001
0001
,
1001
0000
0000
0000
,
0001
0000
1000
0000
,
0001
0000
1000
0000
,
0010
0000
0100
0000
,
0010
0000
0100
0000
,
0001
0000
1000
0000
,
0001
0000
1000
0000
,
0010
0000
1000
1000
,
1001
0000
0000
0000
,
1000
0000
0001
0000
,
1000
0000
0010
0000
,
1000
0000
0001
0000
,
1000
0000
0010
0000
,
1000
0000
0001
0000
,
1000
0000
0010
0000
,
1000
0000
0001
0001
,
1001
0000
0000
0000
,
1000
1000
1000
0000
,
0001
0000
0100
0000
,
0001
0001
0001
0000
,
1000
0000
0100
0000
,
1000
1000
1000
0000
,
0001
0000
0100
0000
,
1001
0000
1000
1000
,
1001
0000
0000
0000
,
1000
0000
0001
0000
,
1000
0000
0001
0000
,
0100
0000
0010
0000
,
0100
0000
0010
0000
,
1000
0000
0001
0000
,
1000
0000
0001
0000
,
0100
0000
0001
0001
,
1001
0000
0000
0000
,
0001
0000
1000
0000
,
0001
0000
1000
0000
,
0010
0000
0100
0000
,
0010
0000
0100
0000
,
0001
0000
1000
0000
,
0001
0000
1000
0000
,
0010
0000
1000
1000
,
1001
0000
0000
1000
,
1001
0000
0001
0001
,
1001
0000
1000
0000
,
0001
0000
0100
0000
,
0010
0000
1000
0000
,
0001
0000
1000
1000
,
1001
0000
0000
0001
,
1001
0000
0000
0000
;

//---------------dance-single - Hands----------------
#NOTEDATA:;
#CHARTNAME:Hands;
#STEPSTYPE:dance-single;
#DESCRIPTION:Hands;
#CHARTSTYLE:Pad;
#DIFFICULTY:Edit;
#METER:13;
#RADARVALUES:0.518520,0.544446,0.657156,0.000000,0.091696,475.000000,356.000000,86.000000,0.000000,3.000000,31.000000,0.000000,0.000000,0.000000,0.518520,0.544446,0.657156,0.000000,0.091696,475.000000,356.000000,86.000000,0.000000,3.000000,31.000000,0.000000,0.000000,0.000000;
#CREDIT:Gradi;
#NOTES:
0000
0000
0000
0000
,
0000
0000
0000
0000
,
0000
0000
0000
0000
,
0000
0000
0000
0000
,
0000
0000
0000
0000
0000
1000
0100
0010
,
0000
0010
0001
0100
0000
0100
0001
0010
,
0M00
0010
1000
0001
0000
0001
1000
0010
,
0000
0010
0100
0001
0000
1000
0001
0010
,
0000
0010
0001
1000
0000
0000
0001
0010
,
0100
0010
0001
1000
0000
0000
0010
0100
,
0001
1000
0001
0010
0000
0000
0100
1000
,
1100
0000
1101
1110
,
1101
0000
0000
0000
0000
1000
0010
0100
,
0000
0100
0010
1000
0000
1000
0100
0001
,
0000
0001
0100
0010
0000
0010
0001
0100
,
0000
0100
0010
1000
0000
1000
0001
0010
,
0000
0010
0100
1000
0000
0000
0001
0100
,
0010
0100
0001
1000
0000
0000
0001
0010
,
0001
0100
0010
1000
0000
0000
0001
0100
,
0101
0000
1101
0111
,
1101
0000
0000
0000
0000
0000
0000
0000
0000
0000
0000
0000
0001
0010
0100
1000
,
1001
0010
0101
1000
,
1001
0000
0001
0010
1001
0100
1000
0000
,
0011
0100
0110
0010
,
1001
0000
0001
0010
1001
0100
0010
0000
,
0011
0100
0110
0010
,
1001
0100
1000
0001
0000
0100
0001
1000
,
1100
0000
1101
1110
,
1101
0000
0000
0000
0000
0000
0000
0000
0000
0000
0000
0000
1000
0100
0010
0001
,
0011
1000
1001
0100
,
1010
0000
0010
0100
1001
0010
0001
0000
,
1100
0010
0110
0100
,
0011
0000
0001
0100
1001
0010
0100
0000
,
1100
0010
0101
1000
,
1001
0010
0001
1000
0000
0001
1000
0001
,
0101
0000
1101
0111
,
1101
0000
0000
0000
0000
1000
0001
0010
,
0000
0010
0001
0100
0000
0100
0010
1000
,
0000
1000
0100
0010
0000
0010
0001
1000
,
0000
1000
0001
0010
0000
0010
0100
1000
,
0000
1000
0010
0100
0000
0000
0010
0100
,
0001
0100
0010
1000
0000
0000
0001
0100
,
0010
1000
0001
0010
0000
0000
0100
1000
,
1100
0000
1101
1110
,
1101
0000
0000
0000
0000
0000
0000
0000
0000
1000
0000
1000
,
0010
0000
0010
0100
0000
0100
0001
0000
0000
1000
0000
0000
,
0001
0000
0000
0000
0000
0000
0000
0000
0001
0000
0000
0000
0100
0000
0000
0000
0000
0000
0000
0000
0100
00M0
0000
0000
1000
0000
0000
0000
0000
0000
0000
0000
0000
0000
0000
0000
1000
0000
0000
0000
0000
0000
0000
0000
1000
0000
0000
0000
,
0001
0000
0001
0100
0000
0100
0010
0000
0000
1000
0000
0000
,
0001
0000
0001
0010
0000
0010
0100
0000
0000
1000
0000
1000
,
0010
0000
0010
0100
0000
0100
0001
0000
0000
1000
0000
0000
,
0001
0000
0001
0010
0000
0M10
1000
0000
0000
0001
0000
0000
,
1001
0100
1000
0010
1001
0000
0101
0000
,
0011
0000
0100
0000
1000
0000
0000
0000
0000
0000
0000
0000
1000
0100
0010
0001
,
1001
0100
1010
0001
,
1001
0000
1000
0100
1001
0010
0001
0000
,
1100
0010
0110
0100
,
1001
0000
1000
0100
1001
0010
0100
0000
,
1100
0010
0110
0100
,
1001
0010
0001
1000
0000
0010
1000
0001
,
0101
0000
1101
0111
,
1101
0000
0000
0000
0000
0000
0000
0000
0000
0000
0000
0000
0001
0010
0100
1000
,
1100
0001
1001
0010
,
0101
0000
0100
0010
1001
0100
1000
0000
,
0011
0100
0110
0010
,
1100
0000
1000
0010
1001
0100
0010
0000
,
0011
0100
1010
0001
,
1001
0100
1000
0001
0000
1000
0010
1000
,
1100
0000
1101
1110
,
1101
0000
0000
0111
,
1101
0000
1101
1110
,
1101
0000
0000
0000
0000
0000
1000
0100
,
1000
0001
0100
0010
0000
0000
0100
0010
,
1000
0001
0010
0100
0000
0000
0010
0001
,
1000
0000
0111
1101
,
0111
0000
0000
1111
,
1111
0000
0000
0000
;

//---------------dance-single - ----------------
#NOTEDATA:;
#CHARTNAME:;
#STEPSTYPE:dance-single;
#DESCRIPTION:;
#CHARTSTYLE:Pad;
#DIFFICULTY:Challenge;
#METER:13;
#RADARVALUES:0.470489,0.630411,0.802341,0.175751,0.198675,431.000000,324.000000,105.000000,23.000000,0.000000,2.000000,0.000000,0.000000,0.000000,0.470489,0.630411,0.802341,0.175751,0.198675,431.000000,324.000000,105.000000,23.000000,0.000000,2.000000,0.000000,0.000000,0.000000;
#CREDIT:Galamoth;
#NOTES:
// measure 0
0000
0000
0000
0000
,  // measure 1
0000
0000
0000
0000
,  // measure 2
0000
0000
0000
0000
,  // measure 3
0000
0000
0000
0000
,  // measure 4
0000
0000
0000
0000
,  // measure 5
1000
0000
0001
0000
,  // measure 6
1000
0000
0000
0000
0000
0000
0000
0000
0000
0000
0000
0000
0000
0000
0000
0000
0000
0000
0000
0001
0000
0000
0000
0000
0000
0000
0000
0000
0000
0000
0001
0000
0000
0000
0000
0000
0010
0000
0000
0000
0000
0000
0000
0000
0000
0000
0000
0000
,  // measure 7
0001
0000
1000
0000
,  // measure 8
0001
0000
0000
0000
0000
0000
0000
0000
0000
0000
0000
0000
0000
0000
0000
0000
0000
0000
0000
1000
0000
0000
0000
0000
0000
0000
0000
0000
0000
0000
1000
0000
0000
0000
0000
0000
0010
0000
0000
0000
0000
0000
0000
0000
0000
0000
0000
0000
,  // measure 9
1000
0000
0001
0000
,  // measure 10
1000
0000
0000
0000
0000
0000
0000
0000
0000
0000
0000
0000
0000
0000
0000
0000
0000
0000
0000
0001
0000
0000
0000
0000
0000
0000
0000
0000
0000
0000
0001
0000
0000
0000
0000
0000
0010
0000
0000
0000
0000
0000
0000
0000
0000
0000
0000
0000
,  // measure 11
1001
0000
1100
0101
,  // measure 12
1001
0000
0100
0000
,  // measure 13
0010
0200
0301
0000
,  // measure 14
0010
0000
0000
0000
0000
0000
0000
0000
0000
0000
0000
0000
0001
0000
0000
0000
0000
0000
0000
0100
0000
0000
0000
0000
0000
0000
0000
0000
0000
0000
0100
0000
0000
0000
0000
0000
1000
0000
0000
0000
0000
0000
1000
0000
0000
0000
0000
0000
,  // measure 15
0001
0200
0310
0000
,  // measure 16
0100
0000
0000
0000
0000
0000
0000
0000
0000
0000
0000
0000
0001
0000
0000
0000
0000
0000
0000
0010
0000
0000
0000
0000
0000
0000
0000
0000
0000
0000
0010
0000
0000
0000
0000
0000
1000
0000
0000
0000
0000
0000
1000
0000
0000
0000
0000
0000
,  // measure 17
0001
0000
2000
0000
3100
0000
0010
0010
,  // measure 18
0001
0000
0000
0000
0000
0000
0000
0000
0000
0000
0000
0000
1000
0000
0000
0000
0000
0000
0000
0100
0000
0000
0000
0000
0000
0000
0000
0000
0000
0000
0100
0000
0000
0000
0000
0000
0001
0000
0000
0000
0000
0000
0001
0000
0000
0000
0000
0000
,  // measure 19
1001
0000
1010
0011
,  // measure 20
1001
0000
0000
0101
,  // measure 21
1100
0000
0000
0000
0002
0000
0000
0003
0110
0000
0000
0000
1000
0000
0000
0000
,  // measure 22
0011
0000
0000
0100
0000
1000
0100
0000
0100
0110
0000
0000
,  // measure 23
0101
0000
0000
0000
2000
0000
0000
3000
0110
0000
0000
0000
0001
0000
0000
0000
,  // measure 24
1010
0000
0000
0100
0000
0001
0010
0000
0010
0110
0000
0000
,  // measure 25
1001
0000
0000
0000
0020
0000
0000
0030
0110
0000
0000
0000
0100
0000
0000
0000
,  // measure 26
1001
0000
0000
0001
0000
0100
0010
0000
0010
1010
0000
0000
,  // measure 27
1001
0010
1100
0011
,  // measure 28
1001
0000
1000
0010
0100
0010
1001
0000
,  // measure 29
0011
0000
0000
0000
2000
0000
0000
3000
0110
0000
0000
0000
0001
0000
0000
0000
,  // measure 30
1100
0000
0000
0010
0000
0001
0010
0000
0010
0110
0000
0000
,  // measure 31
1010
0000
0000
0000
0002
0000
0000
0003
0110
0000
0000
0000
1000
0000
0000
0000
,  // measure 32
0101
0000
0000
0010
0000
1000
0100
0000
0100
0110
0000
0000
,  // measure 33
1001
0000
0000
0000
0200
0000
0000
0300
0110
0000
0000
0000
0010
0000
0000
0000
,  // measure 34
1001
0000
0000
1000
0000
0010
0100
0000
0100
0101
0000
0000
,  // measure 35
1001
0000
0000
0000
0020
0000
0000
0030
0101
0000
0000
0000
1010
0000
0000
0000
,  // measure 36
1001
0000
0001
0000
0010
0000
0100
0000
0010
0000
0100
0000
0010
0100
0010
0100
,  // measure 37
1000
0200
0310
0000
,  // measure 38
0001
0000
0000
1000
0000
0000
0100
0000
0000
1000
0000
0000
0001
0000
0000
0000
0000
0000
0000
0001
0000
0000
0000
0000
0101
0000
0000
0000
0000
0000
1000
0000
0000
0000
0000
0000
1100
0000
0000
0000
0000
0000
0000
0000
0000
0000
0000
0000
,  // measure 39
1001
0020
0031
0000
,  // measure 40
1000
0000
0000
0001
0000
0000
0100
0000
0000
0001
0000
0000
1000
0000
0000
0000
0000
0000
0000
1000
0000
0000
0000
0000
1100
0000
0000
0000
0000
0000
0001
0000
0000
0000
0000
0000
0101
0000
0000
0000
0000
0000
0000
0000
0000
0000
0000
0000
,  // measure 41
0001
0020
0130
0000
,  // measure 42
1000
0000
0000
0001
0000
0000
1000
0000
0000
0001
0000
0000
1000
0000
0000
0000
0000
0000
0000
0001
0000
0000
0000
0000
0011
0000
0000
0000
0000
0000
1000
0000
0000
0000
0000
0000
1010
0000
0000
0000
0000
0000
0000
0000
0000
0000
0000
0000
,  // measure 43
1001
0000
0000
0001
1000
0001
0011
0000
0000
0110
0000
0000
,  // measure 44
1100
0000
0000
0000
,  // measure 45
1000
0100
0001
0010
,  // measure 46
1000
0000
1000
0100
0000
0100
0001
0000
0000
0010
0000
0000
,  // measure 47
1000
0010
0001
0100
,  // measure 48
1000
0000
1000
0010
0000
0010
0001
0000
0000
0100
0000
0000
,  // measure 49
1000
0100
0001
0010
,  // measure 50
1000
0000
1000
0100
0000
0100
0001
0000
0000
0010
0000
0000
,  // measure 51
0011
0000
1010
1100
,  // measure 52
0101
0000
0000
0001
,  // measure 53
1100
0000
0000
0000
0002
0000
0000
0003
0110
0000
0000
0000
1000
0000
0000
0000
,  // measure 54
0011
0000
0000
0100
0000
1000
0100
0000
0100
0110
0000
0000
,  // measure 55
0101
0000
0000
0000
2000
0000
0000
3000
0110
0000
0000
0000
0001
0000
0000
0000
,  // measure 56
1010
0000
0000
0100
0000
0001
0010
0000
0010
0110
0000
0000
,  // measure 57
1001
0000
0000
0000
0020
0000
0000
0030
0110
0000
0000
0000
0100
0000
0000
0000
,  // measure 58
1001
0000
0000
0001
0000
0100
0010
0000
0010
1010
0000
0000
,  // measure 59
1001
0010
1100
0011
,  // measure 60
1001
0000
1000
0010
0100
0010
1001
0000
,  // measure 61
0011
0000
0000
0000
2000
0000
0000
3000
0110
0000
0000
0000
0001
0000
0000
0000
,  // measure 62
1100
0000
0000
0010
0000
0001
0010
0000
0010
0110
0000
0000
,  // measure 63
1010
0000
0000
0000
0002
0000
0000
0003
0110
0000
0000
0000
1000
0000
0000
0000
,  // measure 64
0101
0000
0000
0010
0000
1000
0100
0000
0100
0110
0000
0000
,  // measure 65
1001
0000
0000
0000
0200
0000
0000
0300
0110
0000
0000
0000
0010
0000
0000
0000
,  // measure 66
1001
0000
0000
1000
0000
0010
0100
0000
0100
0101
0000
0000
,  // measure 67
1001
0000
0000
0000
2000
0000
0000
3000
0101
0000
0000
0000
1010
0000
0000
0000
,  // measure 68
1001
0000
0000
0100
0000
0100
0010
0000
0000
0110
0000
0000
,  // measure 69
1001
0000
0000
0000
0200
0000
0000
0300
0011
0000
0000
0000
0101
0000
0000
0000
,  // measure 70
1001
0000
0000
0010
0000
0010
0100
0000
0000
0010
0000
0000
,  // measure 71
1010
0000
0000
0000
0200
0000
0000
0300
0011
0000
0000
0000
1000
0000
0000
0000
,  // measure 72
0101
0000
0000
0000
0000
0000
0000
0000
0000
0000
0000
0000
0010
0000
0000
0000
0000
0000
0000
1000
0000
0000
0000
0000
0001
0000
0000
0000
0000
0000
1000
0000
0000
0000
0000
0000
1100
0000
0000
0000
0000
0000
0000
0000
0000
0000
0000
0000
,  // measure 73
0011
0000
0000
0000
0002
0000
0000
0003
1100
0000
0000
0000
1010
0000
0000
0000
,  // measure 74
1001
0000
0000
1011
,  // measure 75
1011
0000
0000
0000
;
