#TITLE:Your Love ♡;
#SUBTITLE:;
#ARTIST:Cutopia♡;
#TITLETRANSLIT:;
#SUBTITLETRANSLIT:;
#ARTISTTRANSLIT:;
#GENRE:;
#CREDIT:;
#MUSIC:Your Love.ogg;
#BANNER:Your Love-bn.png;
#BACKGROUND:Your Love-bg.png;
#CDTITLE:;
#SAMPLESTART:45.396;
#SAMPLELENGTH:21.771;
#SELECTABLE:YES;
#OFFSET:0.716;
#BPMS:0.000=175.000
,100.000=87.500
,108.000=175.000
,186.000=87.500
,200.000=175.000
;
#STOPS:124.000=0.683;
#BGCHANGES:;
#FGCHANGES:;

//--------------- dance-single - FrozenRay ----------------
#NOTES:
     dance-single:
     FrozenRay:
     Easy:
     3:
     0,0,0,0,0:
0000
0000
0000
0000
,
0000
0000
0000
0000
,
0000
0000
0000
0000
,
0000
0000
0000
0000
,
0000
0000
0000
0000
,
0000
0000
0000
0000
,
0000
0000
0000
0000
,
0002
0003
0020
0030
,
0200
0300
2000
3000
,
0001
0000
0100
0000
,
0010
0000
0100
0000
,
1000
0000
0001
0000
,
0100
0000
1000
0000
,
0001
0000
0100
0000
,
0010
0000
1000
0000
,
0020
0000
0000
0030
,
2000
0000
0000
0000
,
3001
0000
1000
0000
,
0001
0000
0100
0000
,
0100
0000
0001
0000
,
0010
0000
0001
0000
,
0100
0000
1000
0000
,
0010
0000
1000
0000
,
0020
0000
0000
0000
,
0200
0000
0000
0000
,
0330
0000
0010
0001
,
0000
0000
0010
1000
,
0002
0000
0000
0003
,
0020
0000
0000
0030
,
0200
0000
0300
0000
,
2002
0000
0000
0000
,
3003
0000
0001
0000
,
0100
0000
0001
0000
,
0000
0000
0001
0000
,
0010
0000
1000
0000
,
0000
0000
0100
0000
,
1001
0000
0001
0000
,
0110
0000
0200
0300
,
2000
0000
0002
0000
,
3003
0000
1000
0000
,
0001
0000
0100
0000
,
0000
0000
0010
0000
,
1000
0000
0100
0000
,
0001
0000
1000
0000
,
0101
0000
0001
0000
,
1100
0000
0200
0000
,
0000
0000
0310
0000
,
0001
0100
0100
0000
,
1000
0010
0010
0000
,
1000
1010
0001
0011
,
0002
0003
0200
0300
,
0020
0000
0030
0000
,
0001
0000
0100
0000
,
0001
0000
0000
0000
,
0010
0000
0100
0000
,
0001
0000
0000
0000
,
1000
0000
0101
0000
,
0001
0000
1100
0000
,
0001
0000
1000
0000
,
0001
0000
0100
0000
,
0001
0000
0110
0000
,
1000
0000
0110
0000
,
2002
0000
0000
0000
,
3003
0000
0000
0000
,
0001
0000
1000
0000
,
0010
0000
0010
0000
,
1000
0000
0010
0000
,
0100
0000
0010
0000
,
1000
0000
0010
0000
,
1000
0000
0100
0000
,
0010
0000
0001
0000
,
0001
0000
0100
0000
,
0001
0000
1000
0000
,
0010
0000
1000
0000
,
0010
0000
0001
0000
,
0100
0000
1000
0000
,
0010
0000
1000
0000
,
0100
0000
1000
0000
,
0002
0003
0020
0030
,
0200
0300
2000
3000
,
0200
0300
0200
0300
,
0020
0030
0002
0003
,
0000
2002
0000
3003
;

//--------------- dance-single - FrozenRay ----------------
#NOTES:
     dance-single:
     FrozenRay:
     Medium:
     7:
     0,0,0,0,0:
0000
0000
0000
0000
,
0000
0000
0000
0000
,
0000
0000
0000
0000
,
0000
0000
0000
0000
,
0000
0000
0000
0000
,
0000
0000
0000
0000
,
0000
0000
0000
0000
,
0001
1000
0010
0100
,
0001
0100
0010
1000
,
0001
0000
0001
0000
0100
0000
0000
0010
,
0000
1000
0000
0010
0000
0010
0000
0000
,
1000
0000
0001
0000
0001
0000
0000
0010
,
0000
0100
0000
1000
0000
0100
0010
0000
,
0001
0000
0100
0000
0010
0000
0000
0001
,
0000
1000
0000
0100
0000
1000
0000
0100
,
0020
0000
0000
0030
0000
0001
0000
0100
,
0000
0001
0010
0000
0110
0000
0000
0000
,
1001
0000
0010
0000
1000
0000
0001
1000
,
0000
0100
0000
0010
0000
0010
0000
0000
,
0100
0000
1000
0000
0001
0000
0010
0100
,
0000
0001
1000
0000
,
0001
0000
1000
0010
0100
0000
0000
0000
,
0010
0000
1000
0001
0010
0000
0000
0000
,
0022
0000
0000
0030
,
2000
0000
0000
0000
0000
0000
0000
3003
,
1001
0200
0010
0301
,
1001
0200
0010
1300
,
0002
0000
0203
0000
,
0320
0000
2030
3000
,
0110
0000
0000
0000
1001
0000
0000
2002
,
0000
0000
0000
0000
,
3003
0000
0001
1000
,
0100
0000
0001
1000
0000
0000
0100
0000
,
1000
0010
0001
1000
,
0010
0000
1000
0001
0000
0000
0100
0000
,
0001
0100
1000
0101
,
0001
0000
0001
1100
,
1000
0000
0000
0000
0200
0000
0300
0020
,
0000
0030
0002
0000
0000
0000
0000
0000
,
0003
0000
1000
0001
,
1000
0000
0100
0010
0000
0000
0010
0000
,
0001
0000
0100
0000
0010
0010
0000
1000
,
1000
0000
0100
0100
0000
0000
0010
0000
,
0001
0010
1000
0101
,
0001
0000
0001
1100
,
1000
0000
0200
0000
,
0000
0300
2002
3003
,
0001
0100
0100
0000
,
1000
0010
1000
0000
,
0100
0011
0001
1010
,
2000
0000
3000
0002
0000
0003
0100
0000
,
0020
0000
0030
0000
,
0001
0000
1000
0000
0100
0000
0001
1000
,
0000
1000
0001
0100
,
0010
0010
0000
0100
0100
0000
0001
0001
,
0000
0001
0010
0010
,
1000
0101
0001
0010
,
0001
1100
1000
0010
,
0001
1000
0001
0010
,
0001
0100
0010
0000
,
0001
0110
0100
1000
,
0100
0110
0010
1000
,
2002
0000
0000
0000
,
3003
0000
0000
0000
,
0001
0100
1000
0000
,
0010
0000
1000
0000
0010
0100
0010
0000
,
1000
0100
0010
0000
,
0100
0000
0001
0000
0010
0100
0010
0000
,
0001
0100
0010
0000
,
0001
0000
0010
0000
0100
0010
0100
0000
,
1000
0100
0001
0000
,
0001
0000
0010
0000
0100
0010
0100
0000
,
0001
0100
1000
0000
,
0010
0000
0001
0000
1000
0001
1000
0000
,
0010
0100
0001
0000
,
0100
0000
0010
0000
0001
1000
0001
0000
,
0010
0100
1000
0000
,
1000
0000
0001
0000
0100
0001
0100
0000
,
0010
1000
0100
0010
,
0001
1000
0001
0010
,
0100
1000
0001
0010
,
0100
0010
0001
1000
,
0000
2002
0000
3003
;

//--------------- dance-single - FrozenRay ----------------
#NOTES:
     dance-single:
     FrozenRay:
     Hard:
     11:
     0,0,0,0,0:
0000
0000
0000
0000
,
0000
0000
0000
0000
,
0000
0000
0000
0000
,
0000
0000
0000
0000
,
0000
0000
0000
0000
,
0000
0000
0000
0000
,
0000
0000
0000
0000
,
0002
0023
0230
2300
,
3002
0203
0320
2030
,
3001
0000
0001
1000
0100
0000
0100
0010
,
0000
0001
0000
0010
0000
0010
0100
0010
,
0001
0000
0001
0010
0001
0000
0100
0010
,
0000
1000
0000
0001
0000
0100
0010
0000
,
1001
0000
0100
0010
1000
0000
0001
1000
,
0000
0001
0000
0100
0000
1000
0000
0100
,
0020
0000
1000
1030
0000
0001
0100
0001
,
0000
0001
0010
0000
0110
0000
0100
0000
,
1001
0000
0010
0100
0001
0000
0001
1000
,
0000
1000
0000
0100
0000
0010
0001
1000
,
0100
0000
0001
0100
0001
0000
0010
0100
,
0000
0001
1000
0100
0000
0100
0010
0000
,
0101
0000
0100
0010
0100
0000
0100
0010
,
0000
0001
1000
0001
0010
0100
1000
0000
,
0022
0000
0000
0030
,
2000
0000
0000
0000
0000
0000
0000
3003
,
1001
0000
0000
0000
0200
0000
0000
0010
0000
0001
0000
0010
0301
0000
0000
0000
,
1001
0000
0000
0000
0200
0000
0000
0010
0000
1000
0000
0010
1300
0000
0000
0000
,
0022
0030
0200
0303
,
2020
0030
0200
3300
,
0220
0000
0330
0000
2002
0000
3003
2002
,
0000
0000
0000
0000
,
3003
1000
0100
0010
0001
1000
0000
0010
,
0100
0000
0001
1000
0000
0001
0100
0010
,
1000
0010
0010
0000
0001
1000
0000
0100
,
0010
0000
1000
0001
0000
0001
0100
0010
,
1000
0010
0010
0000
1000
0000
0101
0000
,
0001
0100
0010
0100
0001
0000
1100
0000
,
1000
0010
0010
0000
1000
0001
0100
0010
,
0100
0001
2000
0020
0000
0000
0000
0000
,
3030
0001
0100
0010
1000
0001
0000
0001
,
1000
0000
0100
0010
0000
0000
0010
0000
,
1000
0010
0100
0010
1000
1000
0000
0001
,
0001
0000
0010
0010
0000
0000
0100
0000
,
1000
0010
0010
0000
1000
0000
0101
0000
,
0001
0100
0010
0100
0001
0000
1100
0000
,
1000
0100
0020
0200
0000
0000
0000
0000
,
0000
0000
0000
0000
0330
0000
0000
0000
2002
0000
3003
0000
0000
0001
0100
0010
,
1000
0001
0000
0010
0100
0000
1000
0001
0000
1000
0100
0000
0001
0010
0010
0100
,
1000
0001
0000
0100
0010
0000
0001
0010
0000
1000
0100
1000
0001
0010
0010
0000
,
0100
0000
0011
0000
0001
0010
0100
0010
0001
0000
1010
0000
1000
0010
0100
0010
,
2000
0000
0000
3002
0000
0000
0203
0000
,
0320
0000
0000
0000
0030
1000
0010
0100
,
0001
1000
0000
0010
0100
0000
0001
1000
,
0000
0000
1000
0000
0001
0010
0100
1000
,
0010
0010
0000
0100
0100
0000
0001
0001
,
0000
0000
0001
0000
0010
0100
0010
0001
,
1000
0000
0101
0000
0001
0100
1000
0100
,
0001
0000
1100
0000
1000
0100
0001
0100
,
0000
1000
0000
0010
0000
0100
0001
0010
,
0000
0100
0000
2001
0000
0010
3010
0000
,
0001
0000
0110
0000
0100
0010
0100
1000
,
0010
0000
0110
0000
0100
0001
0010
0100
,
2000
0001
0001
0002
,
3003
0100
0010
1000
0001
1000
0010
0100
,
0000
0001
0100
0001
1000
0000
0100
0010
,
0000
0001
1000
0100
0010
0001
1000
0001
,
0000
0010
0100
0010
0001
0000
0001
0100
,
0000
0010
1000
0100
0010
0001
1000
0001
,
0000
0010
0100
1000
0001
0000
0100
0001
,
0000
1000
0010
1000
0100
0010
0100
0010
,
0000
0001
0100
0001
1000
0000
1000
0001
,
0000
0001
0010
0100
1000
0001
0100
0010
,
0000
1000
0100
1000
0001
0000
0100
0010
,
0000
1000
0001
0100
0010
1000
0001
1000
,
0000
0010
0100
0010
1000
0000
1000
0100
,
0000
0010
0001
0100
0010
1000
0001
1000
,
0000
0010
0100
0001
1000
0000
0100
1000
,
0000
0001
0010
0001
0100
0010
0100
0010
,
1000
0000
0000
1000
0001
0000
0000
0001
0100
0000
0000
0100
0010
0000
0000
0010
,
1000
0000
0000
1000
0010
0000
0000
0010
0100
0000
0000
0100
0001
0000
0000
0001
,
1000
0000
0000
1000
0010
0000
0000
0100
0001
0000
0000
0001
0010
0000
0000
0010
,
0100
0000
0000
0100
0010
0000
0000
0010
0001
0000
0000
0001
1000
0000
0010
0000
,
0000
2002
0000
3003
;
