#TITLE:Wonder Wonder Trip;
#SUBTITLE:;
#ARTIST:Photon Maiden;
#TITLETRANSLIT:;
#SUBTITLETRANSLIT:;
#ARTISTTRANSLIT:;
#GENRE:;
#CREDIT:;
#MUSIC:Wonder Wonder Trip.ogg;
#BANNER:Wonder Wonder Trip.png;
#BACKGROUND:Wonder Wonder Trip-bg.png;
#CDTITLE:;
#SAMPLESTART:45.620;
#SAMPLELENGTH:11.779;
#SELECTABLE:YES;
#OFFSET:0.024;
#BPMS:0.000=163.000;
#STOPS:;
#BGCHANGES:;
#FGCHANGES:;

//--------------- dance-single - FrozenRay ----------------
#NOTES:
     dance-single:
     FrozenRay:
     Easy:
     5:
     0,0,0,0,0:
0000
0000
0000
0000
,
0000
0000
0000
0000
,
0000
0000
0000
0000
,
0000
0000
0000
0000
,
0000
0000
0000
0000
,
1000
0000
1000
0000
,
0100
0000
0001
0000
,
0100
0000
0100
0000
,
1001
0000
0100
0000
,
0001
0000
0001
0000
,
0110
0000
1010
0000
,
0100
0000
0010
0000
,
0100
0000
1000
0000
,
0001
0000
0100
0000
,
1000
0100
1000
0000
,
0100
0001
1000
0000
,
0100
0001
1000
0000
,
0101
0000
0001
0000
,
1000
0000
0100
0000
,
0011
0000
0010
0000
,
0001
0000
0001
0000
,
1100
0000
1000
0000
,
0001
0000
0100
0000
,
0010
0000
2000
0000
0000
3000
0000
0000
,
0001
0100
0010
0000
,
1000
0000
0202
0000
,
0303
0000
1000
0001
,
0000
0001
1000
0010
,
0100
0000
1010
0101
,
0000
1000
0001
0010
,
0100
0000
0011
1100
,
0001
0100
0000
0100
,
0000
0101
0000
1010
,
0000
2100
0000
3010
,
0000
0102
0000
0013
,
0001
0100
0001
0010
,
0000
0010
0000
0100
,
1001
0000
0110
0000
,
0001
0100
0000
0101
,
1001
0010
0000
1000
,
0000
0011
0000
0010
,
2001
0000
0000
0000
,
0000
0000
3010
0000
,
0200
0000
0000
0000
,
0302
0000
0003
0000
,
0010
0001
0100
0000
,
0001
0100
0010
0000
,
0100
0001
1000
0000
,
0010
1000
0001
0000
,
0010
0001
0100
0000
,
0010
0100
0001
0000
,
0010
0100
1000
0000
,
0010
1000
0001
0000
,
0021
0000
0200
0000
,
0000
0330
0000
0000
0010
0000
0100
0000
,
0022
0000
0000
0033
,
0220
0000
0000
0330
,
2002
0000
0000
0000
,
0000
3003
0010
1000
,
0001
0000
1010
0000
,
0100
0000
0011
1100
,
0100
0000
1010
0000
,
0100
0000
1010
0101
,
0001
0100
0000
0100
,
0010
1000
0000
0100
,
1000
0010
0000
1000
,
0001
0010
0100
1000
,
0100
0010
0000
0100
,
0010
0001
0000
0001
,
2002
0000
0000
3003
,
0220
0000
0000
0330
,
0001
0010
0000
0010
,
0100
1000
0000
1000
,
0001
0010
0000
1000
,
0001
0100
0010
0100
,
0001
1000
0000
0010
,
1000
0010
0000
1000
,
0010
1000
0001
0100
,
0010
0000
1010
0101
,
0010
0001
0010
0100
,
1000
0000
0101
1100
,
1000
0010
0000
0001
,
0000
0100
0000
0010
,
0000
2002
0000
0000
,
0000
0000
0000
0000
0000
3003
0000
0000
;

//--------------- dance-single - FrozenRay ----------------
#NOTES:
     dance-single:
     FrozenRay:
     Medium:
     7:
     0,0,0,0,0:
0000
0000
0000
0000
,
0000
0000
0000
0000
,
0000
0000
0000
0000
,
0000
0000
0000
0000
,
0000
0000
0000
0000
,
1000
1000
0000
0000
0001
0001
0000
0000
,
1000
0100
0010
0000
0001
0000
0000
0000
,
0100
0100
0000
0000
0010
0010
0000
0000
,
1001
0001
0100
0000
,
1000
1000
0000
0000
0001
0001
0000
0000
,
0110
0000
0101
0000
,
0100
0100
0000
0000
0010
0010
0000
0000
,
0100
0010
0100
1000
,
0100
0100
0000
0000
0010
0010
0000
0000
,
1000
0100
0001
0010
,
0100
0001
1000
0010
,
0100
0001
1000
0010
,
0101
0000
1000
0000
0000
0001
0100
0000
,
0000
1000
0100
0000
0000
1000
0001
0000
,
0011
0000
0010
0000
0000
0010
0001
0000
,
0000
0010
1000
0000
0000
1000
0001
0000
,
1100
0000
1000
0000
0000
1000
0100
0000
,
0000
0001
0100
0000
0000
1000
0001
0000
,
1010
0000
2002
0000
0000
3003
0000
0000
,
0001
0100
0010
0000
,
1000
0002
0200
0000
,
0303
0000
1001
0101
,
0000
0000
0001
0100
0001
0000
0010
0000
,
0100
0000
1010
0101
,
0000
0000
1000
0100
1000
0000
0010
0000
,
0100
0000
0011
1100
,
0001
0000
0100
0000
0010
0100
0001
0000
,
0000
0101
0000
1010
,
0000
2100
0000
3010
,
0000
0102
0000
0013
,
0001
0000
0100
0000
0001
0100
0010
0000
,
1000
0010
0000
0100
,
1001
0000
0110
0000
,
0001
0001
0100
0000
0010
0000
0101
0000
,
1001
0000
0010
0000
0000
0100
0010
0000
,
0000
0011
0000
0010
,
2001
0000
0000
0000
,
0000
0000
3020
0000
,
0230
0000
0000
0000
,
0302
0000
0003
0000
,
0010
0001
0100
0000
,
1000
0001
0100
0000
0010
0000
0000
0000
,
0100
0001
1000
0000
,
0010
0100
0001
0000
1000
0000
0000
0000
,
0010
1000
0100
0000
,
0010
0001
0100
0000
0001
0000
0000
0000
,
0010
0100
1000
0000
,
0010
1000
0001
0000
1000
0000
0000
0000
,
0021
0000
0200
0000
,
0000
0330
0000
0000
0010
0000
0100
0000
,
0022
0000
0000
0033
,
0220
0000
0000
0330
,
2002
0000
0000
0000
,
0000
3003
0010
1000
,
0101
0000
0000
0000
1010
0000
0000
0100
,
0000
0000
0011
1100
,
0000
0000
1000
0100
1000
0000
0010
0000
,
0100
0000
1010
0101
,
1001
0000
0100
0000
0000
1000
0100
0000
,
0010
0000
0001
0000
0000
0010
0100
0000
,
1000
0000
0010
0000
0000
0100
0001
0000
,
0001
0010
0100
1000
,
0100
0000
0001
0000
0000
1000
0100
0000
,
0010
0000
0001
0000
0000
0100
0001
0000
,
2002
0000
0000
3003
,
0220
0000
0000
0330
,
1001
0000
0010
0000
0000
0100
0010
0000
,
0100
0000
1000
0000
0000
0001
1000
0000
,
0100
0000
0010
0000
0000
0100
1000
0000
,
0001
0100
0010
0101
,
0001
0000
1000
0000
0000
0100
0010
0000
,
0001
0000
0010
0000
0000
0001
1000
0000
,
0010
0000
1000
0000
0000
0001
0100
0000
,
0010
0000
1010
0101
,
0010
0000
0001
0000
0000
1000
0100
0000
,
1000
0000
0101
1100
,
1001
0000
0010
0100
0010
0000
0001
0010
,
0000
0001
0000
0100
0000
0010
0000
2000
,
0000
0002
0000
0000
0000
0000
0000
0000
,
0000
0000
0000
0000
0000
3003
0000
0000
;

//--------------- dance-single - FrozenRay ----------------
#NOTES:
     dance-single:
     FrozenRay:
     Hard:
     11:
     0,0,0,0,0:
0000
0000
0000
0000
,
0000
0000
0000
0000
,
0000
0000
0000
0000
,
0000
0000
0000
0000
,
0000
0000
0000
0000
,
1000
1000
0000
0000
1000
1000
0000
0100
,
1000
0100
0010
0000
0010
0100
1000
0010
,
0100
0100
0000
0000
0100
0100
0000
0000
,
1001
0000
0001
0200
0000
0010
0310
0000
,
1000
1000
0000
0000
0001
0001
0100
0000
,
0110
0000
0010
0100
0001
0100
0001
1000
,
0100
1000
0000
0000
0100
1000
0000
0100
,
0000
0010
0000
0000
0100
0010
0001
0010
,
0100
0100
0000
0000
0010
0010
0000
0100
,
1000
0001
0100
0000
0001
1000
0001
0200
,
0000
0001
0000
0010
0000
1000
0000
0010
,
0000
0001
0000
0310
0000
1000
0010
0000
,
0101
0000
1000
0100
0000
1000
0100
0010
,
0000
1000
0100
0010
0000
1000
0100
0000
,
0011
0000
0010
0001
0000
0010
0001
1000
,
0000
0010
0001
1000
0000
0010
0001
0000
,
1100
0000
1000
0001
0000
1000
0100
0001
,
0000
1000
0100
0001
0000
1000
0001
0000
,
1010
0000
0002
2000
0000
3003
0000
0001
,
1000
0001
0010
0001
0000
0001
1000
0001
,
0000
0001
0200
0002
0000
0000
0000
0303
,
0000
0000
1001
0101
,
0000
0000
0001
0100
0001
0100
0010
0100
,
0000
0100
0010
0100
1010
0000
0101
0000
,
0000
0000
1000
0100
1000
0100
0010
0100
,
0000
0100
0010
0100
0011
0000
1100
0000
,
1001
0000
0100
0010
1000
0010
0100
0010
,
0000
0101
0000
0110
0000
1010
0000
1001
,
0000
2100
0000
0000
0010
0000
3001
0000
,
0002
0003
0020
0000
0130
1000
0001
1000
,
0100
0000
1000
0100
1000
0100
0010
0001
,
0000
0011
0000
0110
0000
0100
1000
0000
,
1001
0000
0110
0000
0100
1000
0001
1000
,
0001
0001
0100
0010
0000
0010
0101
0000
,
1001
0000
0010
0100
1000
0100
0010
0100
,
0000
0011
0000
0110
0000
1100
0000
2001
,
0000
0100
0000
0000
0000
0000
0000
0000
,
0000
0000
0020
3000
,
0200
0000
0000
0030
,
0002
0000
0303
0011
,
0010
0100
1000
0001
0100
1000
0001
0010
,
1000
0001
0100
1000
0001
0010
0100
0000
,
0100
0010
0001
1000
0100
0001
1000
0010
,
0001
1000
0100
0001
1000
0010
0001
0000
,
0010
0100
1000
0001
0100
1000
0001
0010
,
1000
0001
0100
1000
0001
0010
0100
1000
,
0010
0100
0001
1000
0100
0001
1000
0010
,
0001
1000
0100
0001
0000
0010
0100
0001
,
0000
0001
0200
0020
0000
0000
0000
0000
,
0000
0330
0101
2100
,
0020
0000
0000
3030
,
0220
0000
0000
0000
0000
0300
0230
0002
,
0300
0013
2000
0020
0000
0000
0000
0000
,
0000
0000
0000
0030
3020
0000
0002
0033
,
0101
0000
0001
0100
0001
0100
0010
0100
,
0000
0100
0010
0100
1010
0000
0101
0000
,
1100
0000
1000
0100
1000
0100
0010
0100
,
0000
0100
0010
0100
0011
0000
1100
0000
,
1001
0000
0100
0010
1000
0010
0100
0010
,
0000
0101
0000
0110
0000
1010
0000
1001
,
0000
2100
0000
0000
0010
0010
3001
0000
,
0002
0003
0020
0000
0130
1000
0001
1000
,
0100
0000
1000
0100
1000
0100
0010
0001
,
0000
0011
0000
0110
0000
0100
1001
0000
,
1000
1000
0100
0010
0000
1000
0001
1000
,
0001
0001
0100
0010
0000
0010
0101
0000
,
1001
0000
0010
0100
1000
0100
0010
0100
,
0000
0011
0000
0110
0000
1100
0000
1001
,
0100
0100
0010
1000
0000
0100
0010
1000
,
0001
0010
0001
0100
0010
0100
0101
0000
,
0001
0000
0001
0100
0010
0100
0010
1000
,
0000
0011
0000
0100
0000
0020
0200
0030
,
0310
0010
0001
1000
0001
0100
0010
0010
,
0000
0100
0010
0100
1010
0000
0101
0000
,
0010
0000
1000
0001
1000
0100
0010
0010
,
0000
0100
0010
0100
0011
0000
1100
0000
,
1001
0000
0001
0100
0001
0100
0001
0010
,
0000
1100
0000
0110
0000
0011
0000
0002
,
0000
2000
0000
0000
0000
0000
0000
0000
,
0000
0000
0000
0000
0000
3003
0000
0000
;
