#TITLE:Wish You Luck;
#SUBTITLE:;
#ARTIST:Peaky P-key;
#TITLETRANSLIT:;
#SUBTITLETRANSLIT:;
#ARTISTTRANSLIT:;
#GENRE:;
#CREDIT:;
#MUSIC:Wish You Luck.ogg;
#BANNER:Wish You Luck.png;
#BACKGROUND:Wish You Luck-bg.png;
#CDTITLE:;
#SAMPLESTART:28.338;
#SAMPLELENGTH:14.348;
#SELECTABLE:YES;
#OFFSET:-2.004;
#BPMS:0.000=95.000
,26.000=115.000
,214.000=109.000
,215.000=108.000
,216.000=104.000
,217.000=88.000
,218.000=87.000
,220.000=76.000
,223.000=53.000
;
#STOPS:;
#BGCHANGES:-2.004=Wish You Luck.mp4=1.000=0=0=1,
99999.000=-nosongbg-=1.000=0=0=0=StretchNoLoop====
;
#FGCHANGES:;

//--------------- dance-single - FrozenRay ----------------
#NOTES:
     dance-single:
     FrozenRay:
     Easy:
     4:
     0,0,0,0,0:
0000
0000
0000
0000
,
0000
0000
0000
0000
,
0000
0000
0000
0000
,
0000
0000
0000
0000
,
0000
0000
0000
0000
,
0000
0000
0000
0000
,
0000
0000
0000
0000
,
0100
0100
0010
0010
,
0000
0101
1000
1000
,
0000
1100
0010
0010
,
0000
0011
0100
0100
,
0000
0100
0220
0330
,
0202
0000
0303
0000
0002
0003
0020
0030
,
0200
0300
2000
0000
3000
0000
0100
0000
,
1001
0000
0001
1000
,
0000
0010
1000
0001
,
0000
0000
0001
1000
,
0000
0100
1000
0001
,
0000
0000
0010
0001
,
0100
0000
0010
0001
,
0100
0000
1001
0000
,
0110
0000
0001
0001
,
1000
0000
0001
1000
,
0010
0000
1000
0100
,
1000
0000
0001
0100
,
0001
0000
0220
0330
,
0010
1000
1100
1000
,
0100
0000
1000
0001
,
0100
0000
0100
0010
,
0100
0000
0202
0303
,
2020
3030
0001
0001
,
0100
0000
0010
0010
,
1000
0000
0001
0100
,
0010
0000
0100
0010
,
1000
0100
0220
0000
,
0000
0330
2002
0000
,
0000
3003
0001
0001
,
1000
1000
0200
0000
,
0300
0010
0202
0000
,
0000
0000
0303
0010
,
1000
0101
0001
0100
,
0001
0010
0001
0100
,
0010
0000
0001
0001
,
1000
0010
0100
0001
,
0010
0000
0001
1000
,
0010
0100
0001
1000
,
0100
0000
1000
0001
,
0100
0010
2002
0000
,
0000
3003
0001
0100
,
0010
0000
2200
0000
,
0000
3300
0002
0100
,
1003
0000
1000
0100
,
1000
0000
0001
1000
,
0001
0000
0100
0001
,
0100
0000
0010
0000
,
2000
0000
0000
0000
,
3001
0000
0000
0000
;

//--------------- dance-single - FrozenRay ----------------
#NOTES:
     dance-single:
     FrozenRay:
     Medium:
     7:
     0,0,0,0,0:
0000
0000
0000
0000
,
0000
0000
0000
0000
,
0000
0000
0000
0000
,
0000
0000
0000
0000
,
0000
0000
0000
0000
,
0000
0000
0000
0000
,
0000
0000
0001
1000
,
0110
0000
1001
0000
0100
0000
0100
1000
,
0000
0001
0001
1000
0100
0000
0100
1000
,
0000
0100
0000
0000
0010
0000
0010
1000
,
0000
0001
0001
1000
0010
0000
0010
1000
,
0010
0100
0110
0000
,
0101
0000
0011
0110
,
1100
1010
0010
0100
,
1001
0000
0000
0000
0001
0000
1000
0100
,
0000
0100
0010
0100
1000
0000
1000
0001
,
0000
0100
0000
0000
1000
0000
1000
0100
,
0000
0100
0100
0010
0001
0000
0001
1000
,
0000
0100
0000
0000
0010
0010
0001
0000
,
0100
0000
0011
0000
0010
0010
0001
0000
,
0100
0000
0101
0000
1000
1000
0100
0000
,
0100
0000
1001
0000
0010
0010
0001
0000
,
1000
0010
0100
0000
0001
0100
0001
0000
,
0010
0100
0010
0000
1000
0001
0100
0000
,
0100
0001
1000
0000
0001
1000
0100
0000
,
1000
0100
0010
0200
0020
0000
0330
0000
,
0110
0000
1001
0000
1000
0100
1000
0000
,
0100
1000
0100
0000
1000
0010
0100
0010
,
0100
0001
0100
0000
0100
0001
0010
0000
,
0100
0001
0010
0000
0101
0000
0100
0000
,
1010
0000
1000
0000
0001
1000
0001
1000
,
0100
0000
1000
0000
0100
0010
0100
0010
,
0001
0000
0100
0000
0100
0001
0100
0001
,
0010
0100
1000
0000
0100
0010
0010
0001
,
0001
1000
0100
0010
0001
0000
0000
0101
,
0000
0000
0110
0000
1000
0000
0000
1100
,
0000
0110
0001
0001
,
0100
0000
0100
0020
0100
0000
0100
0000
,
0130
0001
2001
0001
,
0001
0002
3003
0010
,
1100
0000
0011
0000
0001
1000
0100
0000
,
0001
1000
0010
0000
0001
1000
0100
0010
,
0000
0010
0100
1000
0001
0100
0001
0000
,
0010
0100
1000
0100
0020
0030
0002
0003
,
2000
3000
1001
0000
0001
1000
0010
0100
,
0010
0100
0001
0000
0100
0010
1000
0020
,
0100
0130
0001
1000
,
0100
0000
0010
0000
0002
2000
0000
0000
,
3003
0000
0001
0100
,
0010
0000
2200
0000
,
0000
0000
3300
0000
0002
0100
0100
1000
,
1003
0000
0000
0000
1000
0001
0100
0010
,
1000
0000
0001
0000
0010
0001
0100
0010
,
1000
0000
0100
0000
0010
0001
0100
0001
,
0010
0000
0100
1000
0100
0000
0010
0001
,
0001
0100
0010
1000
0001
0000
0000
1000
,
0100
1000
0000
0000
0000
0000
0000
0000
;

//--------------- dance-single - FrozenRay ----------------
#NOTES:
     dance-single:
     FrozenRay:
     Hard:
     10:
     0,0,0,0,0:
0000
0000
0000
0000
,
0000
0000
0000
0000
,
0000
0000
0000
0000
,
0000
0000
0000
0000
,
0000
0000
0000
0000
,
0000
0000
0000
0000
,
0000
0000
0000
0000
0000
0000
0000
0000
0001
1000
0000
1000
0001
0000
0100
0000
,
0110
0000
0000
0000
1001
0000
0000
0000
0100
0000
0000
0010
0100
0010
1000
0000
,
0000
0000
0001
0000
0001
0000
1000
0010
0100
0000
0000
0010
0100
0010
1000
0000
,
0000
0000
0100
0000
0000
0000
0000
0000
0010
0000
0000
0100
0010
0100
1000
0000
,
0000
0000
0001
0000
0001
0000
1000
0100
0010
0000
0000
0100
0010
0100
1000
0000
,
0010
0000
0010
0000
0100
0001
0100
0000
0110
0000
0000
0100
0000
0000
0100
0000
,
0101
0000
0001
0000
0000
0001
0000
0000
0011
0000
0000
0000
0110
0000
0000
0000
,
1100
0000
1010
0000
0010
0100
0100
0001
,
1001
0000
0000
0000
0000
0000
0000
0000
0001
0000
0000
1000
0001
0100
0001
0000
,
0000
0000
0100
0000
0100
0000
0100
0010
1000
0000
0000
0001
1000
0100
1000
0000
,
0000
0000
0100
0000
0000
0000
0000
0000
1000
0000
0000
0001
1000
0100
1000
0000
,
0000
0000
0100
0000
0100
0000
0100
0010
0001
0000
0000
1000
0001
0100
0001
0000
,
0000
0000
0100
0000
0000
0000
0000
0000
0010
0000
0010
0000
0000
1000
0000
0000
,
0100
0000
0000
0000
0011
0000
0000
0000
0010
0100
0010
0000
0000
0001
0000
0000
,
0001
0000
0000
0000
0101
0000
0000
0000
1000
0000
1000
0000
0000
0001
0000
0000
,
0100
0000
0000
0000
1001
0000
0000
0000
0010
0100
0010
0000
0000
0100
0000
0000
,
1000
0000
0010
0000
0100
0000
0001
0100
0001
0000
0100
0000
0001
0000
0100
0000
,
0010
0000
0100
0010
0000
0000
0100
0010
1000
0001
1000
0000
0100
0000
0010
0000
,
0100
0000
1000
0001
0000
0000
0100
0000
0001
0000
1000
0100
0000
0000
1000
0000
,
0001
0000
0100
0000
0010
0000
0200
0002
0000
0000
0000
0000
0303
0000
0000
0000
,
0110
0000
0000
0000
1001
0000
0000
0000
1000
0000
0100
0000
1000
0000
0001
1000
,
0100
0000
1000
0100
0000
0000
0010
0000
0001
0000
0010
0000
0100
0000
0010
0000
,
0100
0000
1000
0001
0000
0000
0100
0010
0100
0000
0001
1000
0000
0000
0000
0000
,
0100
0000
0010
0001
0000
0000
0000
0000
0202
0000
0303
0000
0220
0000
0330
0000
,
2020
3030
2200
3300
0001
1000
0001
1000
,
0100
1000
0001
0000
0100
0010
0100
0010
,
1000
0010
0100
0000
0100
0001
0100
0001
,
0010
0000
0100
0000
1000
0000
0000
0000
0100
0000
0010
0001
0010
0000
0010
0000
,
0100
0000
1000
0000
0100
0000
0010
0000
0001
0000
0000
0001
0000
0000
0101
0000
,
0000
0000
0100
0000
0110
0000
0000
0000
1000
0000
0000
1000
0000
0000
1100
0000
,
0000
0100
0110
0000
0001
0000
0001
0000
,
0100
0000
0000
0000
0100
0000
0020
0200
0000
0000
0000
0000
0000
0000
0000
0000
,
0330
0000
0000
0000
0000
0000
0001
0000
0010
0000
0100
0000
2000
0000
0000
0001
0000
0000
0000
0000
0000
0001
0000
0000
,
0000
0002
0000
0000
3003
0000
0010
0000
,
1100
0000
0000
0000
0011
0000
0000
0000
0001
0000
1000
0001
0000
0000
0100
0000
,
0001
0000
0100
0000
0010
0000
0100
0000
0001
0000
1000
0000
0100
0000
0010
0001
,
0000
0001
0010
0000
0100
0000
1000
0000
0001
0000
0100
0000
0001
0000
0100
0000
,
0010
0000
0100
0001
0000
0001
0100
0000
0202
0000
0303
0000
0220
0000
0330
0000
,
2020
0000
3030
0000
2002
0000
3003
0000
0001
0000
1000
0001
0000
0000
0100
0000
,
0010
0000
0100
0000
0001
0000
1000
0000
0100
0000
0010
0000
0001
0000
0020
0200
,
0000
0330
0000
1000
1000
0000
0001
0100
,
0010
0100
0001
1000
0002
2000
0000
0000
,
3003
0000
0000
0000
0000
0000
0100
0010
0100
0000
0010
0000
0010
0000
0001
0000
,
0001
0000
0000
0000
0000
0000
0000
0000
1200
0000
1000
0000
0000
1000
0000
0010
,
0000
0000
0010
0000
0300
0010
0000
0000
0002
0000
0100
0000
0100
0000
1000
0000
,
1003
0000
0000
0000
0000
0000
1000
0100
1000
0000
0001
0000
0100
0000
0010
0000
,
1000
0000
0000
0000
1000
0100
0010
0001
0010
0000
0001
0000
0100
0000
0010
0000
,
1000
0000
0000
0000
0000
0000
1000
0100
0010
0000
0001
0000
0100
0000
0001
0000
,
0010
0000
0000
0000
0000
0000
0001
1000
0100
0000
0000
0000
0010
0000
0001
0010
,
0001
0000
0100
0000
0010
0000
1000
0000
0001
0000
0000
0000
0000
0000
1000
0001
,
0100
0001
1000
0000
0000
0000
0000
0000
0000
0000
0000
0000
0000
0000
0000
0000
;
