#TITLE:S.T.O.P.!;
#SUBTITLE:;
#ARTIST:Merm4id;
#TITLETRANSLIT:;
#SUBTITLETRANSLIT:;
#ARTISTTRANSLIT:;
#GENRE:;
#CREDIT:;
#MUSIC:S.T.O.P.ogg;
#BANNER:S.T.O.P.png;
#BACKGROUND:S.T.O.P-bg.png;
#CDTITLE:;
#SAMPLESTART:76.743;
#SAMPLELENGTH:25.946;
#SELECTABLE:YES;
#OFFSET:-0.530;
#BPMS:0.000=148.000;
#STOPS:24.000=0.405
,25.000=0.135
,25.333=0.135
,25.667=0.135
,26.000=0.405
,27.000=0.135
,27.333=0.135
,27.667=0.135
,28.000=0.405
,29.000=0.135
,29.333=0.135
,29.667=0.135
,146.000=0.811
,176.000=0.135
,176.333=0.135
,176.667=0.135
,177.500=0.135
,177.667=0.270
,258.000=0.405
,259.000=0.135
,259.333=0.135
,259.667=0.135
,260.000=0.405
,261.000=0.135
,261.333=0.135
,261.667=0.135
,262.000=0.405
,263.000=0.135
,263.333=0.135
,263.667=0.135
;
#BGCHANGES:;
#FGCHANGES:;

//--------------- dance-single - FrozenRay ----------------
#NOTES:
     dance-single:
     FrozenRay:
     Easy:
     4:
     0,0,0,0,0:
0000
0000
0000
0000
,
0000
0000
0000
0000
,
0000
0000
0000
0000
,
0000
0000
0000
0000
,
0000
0000
0000
0000
,
0000
0000
0000
0000
,
1001
0000
0110
0000
,
1100
0000
0000
0000
,
0000
0011
0001
0001
,
2000
3000
0002
0003
,
1000
0010
1000
1000
,
0010
0100
0010
0000
,
1010
0000
0001
0010
,
0002
0003
1000
0010
,
2000
3000
0001
0010
,
0001
1000
0100
1000
,
0100
0110
0200
0300
,
2000
3000
0202
0000
,
0000
0303
0000
0000
0010
0000
1000
0000
,
0001
0000
0010
0001
,
1000
0000
0001
0010
,
0010
0000
0100
0000
2002
0000
0000
3003
,
0000
1000
0001
0000
,
0110
0000
0000
0000
2002
0000
0000
3003
,
0000
1100
0100
1000
,
0001
0000
0001
1000
,
0010
0000
0010
1000
,
0100
0000
0100
1000
,
0001
0010
0011
0000
,
0001
0010
0001
0000
,
1000
0010
1000
0000
,
0100
1000
0001
1000
,
0010
0000
0100
0000
0002
0000
0000
0003
,
2000
0000
0000
3000
0200
0000
0000
0300
,
0020
0030
0001
0100
,
0010
0100
0001
0010
,
0001
0000
2200
3300
,
0001
0100
0001
0000
,
1000
0100
1000
0000
,
0001
0010
1000
0010
,
1010
0000
0220
0330
,
1000
0001
0010
0000
,
0022
0000
0033
1000
,
0001
0000
1001
0000
,
0010
0000
0110
1000
,
0001
0000
0010
0100
,
0010
0000
0001
0010
,
0100
0000
0100
1000
,
0010
0000
2020
0000
,
0000
3030
0000
0000
2002
0000
0000
0000
,
0000
3003
0000
0000
0220
0000
0000
0000
,
0000
0000
0330
0000
,
1000
0100
2100
0000
,
3010
0000
0210
0000
,
0301
0000
0102
0000
,
0013
0000
0210
0000
,
1300
0000
2000
0000
,
3001
0000
0002
0000
,
0103
0000
0200
0000
,
0310
0000
0000
0000
,
0000
0000
2001
0000
,
3001
0000
0210
0000
,
0310
0000
1002
0000
,
1003
0000
0220
0000
,
0000
0330
1001
0000
,
0110
0000
1100
0000
,
0000
0001
0202
0000
,
0303
0000
0000
0000
;

//--------------- dance-single - FrozenRay ----------------
#NOTES:
     dance-single:
     FrozenRay:
     Medium:
     7:
     0,0,0,0,0:
0000
0000
0000
0000
,
0000
0000
0000
0000
,
0000
0000
0000
0000
,
0000
0000
0000
0000
,
0000
0000
0000
0000
,
0000
0000
0000
0000
,
1000
0000
0000
0001
0010
0001
1000
0000
0000
0001
1000
0001
,
0100
0000
0000
1000
0100
1000
0000
0100
0010
0100
0010
0200
,
0020
0330
0000
0000
0001
0000
0100
0010
,
2000
0000
3100
0000
0002
0000
0103
0010
,
1000
0100
0010
0000
1000
0000
0001
1000
,
0010
0100
0010
0101
,
1010
0000
0000
0000
1001
0000
0010
0100
,
0002
0000
1003
0000
2000
0000
3010
0100
,
0001
0010
0001
0000
0001
0000
0010
0000
,
1000
0000
0010
0000
0100
0010
1000
0010
,
0100
0000
1010
0000
0101
0000
0100
0001
,
0100
0010
0202
0000
,
0000
0303
0000
0000
1010
0000
1000
0000
,
0001
0000
0000
0000
0010
0001
1000
0000
,
0010
0000
0101
0000
0001
0000
0010
0001
,
0010
0000
0100
0000
2002
0000
0000
3003
,
0000
1000
0101
0000
,
0110
0000
0000
0000
2002
0000
0000
3003
,
0000
0000
1100
0000
0100
1000
0100
0000
,
1000
0000
0100
0000
0010
0000
0001
0000
0000
1001
0000
0000
,
0010
0000
0000
0000
0001
0000
0000
0000
1000
0000
0000
0000
0010
0000
0000
0000
0000
0000
1000
0000
0000
0100
0000
0000
,
0010
0000
0000
0000
0001
0000
0000
0000
0010
0000
0000
0000
0001
0000
0000
0000
0000
0000
1000
0000
0000
0100
0000
0000
,
0000
0100
0010
0000
0101
0000
0100
0000
,
0001
0000
0100
0000
0010
0000
1000
0000
0000
1001
0000
0000
,
0010
0000
1000
0000
0001
0000
0010
0000
0000
1000
0000
0000
,
0001
0000
0000
0000
0100
0000
0000
0000
0010
0000
0000
0000
1000
0000
0000
0000
0000
0000
1000
0000
0000
0100
0000
0000
,
0000
0100
0010
0000
0002
0000
0000
0003
,
2000
0000
0000
3000
0200
0000
0000
0300
,
0020
0030
0001
0100
,
1000
0100
0001
0010
,
0001
0000
0202
0303
,
0001
0100
0001
0000
,
1000
0100
1000
0000
,
0001
0100
0010
0000
1000
0100
0010
0000
,
1001
0110
2002
3003
,
1000
0001
0010
0101
,
2020
0000
0000
3030
0000
0000
1000
0000
,
0101
0000
1001
0000
,
0010
0000
0100
0000
1000
0000
0000
0000
0000
0100
1000
0000
0001
0000
0000
0000
0000
0000
1000
0000
0000
0000
0000
0000
,
0001
0000
0010
0100
,
0010
0000
1100
0010
,
0101
0000
0000
0000
1000
0100
0000
0010
,
0000
0001
0001
0000
2020
0000
0000
0000
,
0000
3030
0000
0000
2002
0000
0000
0000
,
0000
3003
0000
0000
0220
0000
0000
0000
,
0000
0000
0330
0000
,
0100
0010
0100
0000
1000
0000
0000
0001
,
0000
1000
0000
0010
0100
0000
0000
0001
,
0000
1000
0000
0100
0010
0000
0000
0100
,
0000
1000
0000
0001
0100
0000
0000
0001
,
0000
0010
0000
0100
1000
0000
0000
0001
,
0000
1000
0000
0010
0100
0000
0000
0001
,
0000
1000
0000
0100
0010
0000
0000
0100
,
0000
1000
0000
0001
0000
1010
0000
0010
,
0000
0101
0000
0010
2000
0010
0000
0020
,
0000
3030
0000
0000
0200
0001
0000
0002
,
0000
0303
0000
0000
0002
1000
0000
2000
,
0000
3003
0000
0000
0220
0000
0000
0000
,
0000
0000
0000
0330
0000
0000
1000
0000
0000
0001
0010
0001
,
1000
0000
0000
0001
1000
0001
0100
0000
0000
1000
0100
1000
,
0000
0100
0010
0100
0010
0200
0020
0000
0000
0000
0000
0000
,
0330
0000
0000
0000
;

//--------------- dance-single - FrozenRay ----------------
#NOTES:
     dance-single:
     FrozenRay:
     Hard:
     11:
     0,0,0,0,0:
0000
0000
0000
0000
,
0000
0000
0000
0000
,
0000
0000
0000
0000
,
0000
0000
0000
0000
,
0000
0000
0000
0000
,
0000
0000
0000
0000
,
1001
0000
0000
1001
0011
1001
1100
0000
0000
1001
1010
1001
,
0101
0000
0000
1001
0110
1001
0000
0100
0010
1000
0100
0020
,
0002
0033
2200
3300
1001
0000
0100
0010
,
2000
0000
3100
0010
0002
0000
0103
0010
,
1000
0100
0010
0100
1000
0000
0001
1000
,
0010
0000
0100
0020
0000
0130
0001
0100
,
0010
0000
0101
0000
1001
0000
0010
0100
,
0002
0000
0013
0100
2000
0000
3010
0100
,
0001
0010
0100
0010
0001
0000
0010
0001
,
1000
0000
0010
0200
0000
0310
1000
0010
,
0100
0000
1010
0000
0101
0000
0100
0001
,
0100
0000
0100
1000
0100
0000
0100
0001
,
0010
0000
0100
0000
0011
0000
0010
0001
,
0010
0000
0010
1000
0010
0000
0001
1000
,
0010
0000
0101
0000
1000
0100
0010
0001
,
0010
0100
2001
0001
,
3001
1000
0100
1000
0000
1000
0100
0010
,
0000
0010
0001
0100
0020
0000
0000
0030
,
0000
0000
1001
0000
0100
1000
0100
1000
,
1000
0000
0000
0000
0000
0000
0000
0000
0100
0000
0000
0000
0000
0000
0000
0000
0010
0000
0000
0000
0000
0000
0000
0000
0001
0000
0000
0000
0000
0000
0000
0000
0000
0001
0000
0000
0010
0000
0000
0000
0000
0000
0001
0000
0000
0000
0000
0000
,
0001
0000
0000
0000
0000
0000
0000
0000
0100
0000
0000
0000
0000
0000
0000
0000
0010
0000
0000
0000
0000
0000
0000
0000
1000
0000
0000
0000
0000
0000
1000
0000
0000
0001
0000
0000
1000
0000
0000
0000
0000
0000
0100
0000
0000
0000
0000
0000
,
0010
0000
0000
0000
0000
0000
0000
0000
0001
0000
0000
0000
0000
0000
0000
0000
0010
0000
0000
0000
0000
0000
0000
0000
0001
0000
0000
0010
0000
0000
0000
0000
0000
0100
0000
0000
1000
0000
0000
0000
0000
0000
0100
0000
0000
0010
0000
0000
,
0000
0001
0100
0000
0010
0000
1000
0000
0001
0000
0001
0000
0100
0000
0001
0000
,
0100
0000
0000
0000
0000
0000
0000
0000
0010
0000
0000
0000
0000
0000
0000
0000
1000
0000
0000
0000
0000
0000
0000
0000
0010
0000
0000
0000
0000
0000
0001
0000
0000
1000
0000
0000
0001
0000
0000
0000
0000
0000
1000
0000
0000
0000
0000
0000
,
0010
0000
0000
0000
0000
0000
0000
0000
0100
0000
0000
0000
0000
0000
0000
0000
0001
0000
0000
0000
0000
0000
0000
0000
0010
0000
0000
0000
0000
0000
1000
0000
0000
0001
0000
0000
1000
0000
0000
0000
0000
0000
0001
0000
0000
0000
0000
0000
,
0100
0000
0000
0000
0000
0000
0000
0000
0010
0000
0000
0000
0000
0000
0000
0000
0100
0000
0000
0000
0000
0000
0000
0000
0001
0000
0000
0100
0000
0000
0000
0000
0000
0010
0000
0000
1000
0000
0000
0000
0000
0000
0100
0000
0000
0010
0000
0000
,
0000
0001
0100
0000
0001
0000
0010
0000
0200
0000
0000
0000
1300
0000
0000
0000
,
2000
3010
0200
0301
,
0002
0013
2000
3200
,
0302
0203
2300
3020
,
0230
0000
0000
0000
0000
0000
0000
0000
0000
0000
0000
0000
0000
0000
0000
0000
0000
0000
0000
0000
0000
0000
0000
0000
0000
0000
0000
0000
0000
0000
0000
0000
0000
0000
0000
0000
0000
0000
0000
0000
0000
0000
0000
0000
0000
0000
0000
0000
0300
0000
0000
0000
0000
0000
0000
0000
0000
0000
0000
0000
0000
0000
0000
0000
0000
0000
0000
0000
0000
0000
0000
0000
0000
0000
0000
0000
0000
0000
0000
0000
0000
0000
0000
0000
0000
0000
0000
0000
0000
0000
0000
0000
0000
0000
0000
0000
0202
0000
0000
0000
0000
0000
0000
0000
0000
0000
0000
0000
0000
0000
0000
0000
0000
0000
0000
0000
0000
0000
0000
0000
0000
0000
0000
0000
0000
0000
0000
0000
0000
0000
0000
0000
0000
0000
0000
0000
0000
0000
0000
0000
0000
0000
0000
0000
0000
0000
0000
0000
0000
0000
0000
0000
0000
0000
0000
0000
0000
0000
0000
0000
0000
0000
0000
0000
0000
0000
0000
0300
0003
0000
0000
0000
0000
0000
0000
0000
0000
0000
0000
0000
0000
0000
0000
0000
0000
0000
0000
0000
0000
0000
0000
0000
,
0001
1000
0100
1000
0001
1000
0100
0000
,
1000
0010
0100
0010
1000
0100
0010
0000
,
0001
0100
0010
0000
1000
0100
0010
0000
,
1001
0000
0110
0000
2002
0000
0000
3003
,
1000
0001
0100
0001
1000
0000
0101
0000
,
2020
0000
0000
3030
0000
0010
1000
0100
,
0000
0010
0001
0100
0000
0010
1000
0100
,
0010
0000
0100
0000
1000
0000
0000
0000
0000
1100
0101
0000
1002
0000
0000
0000
0000
0000
0103
0000
0000
0000
0000
0000
,
2001
0000
3100
1000
0010
0100
0000
0001
,
0000
0010
0010
0000
2100
0000
3010
0000
,
0102
0000
0013
0100
1000
0100
0000
0010
,
0000
0001
0001
0100
0020
0000
1000
0000
,
0100
0030
1000
0100
0020
0000
0001
0000
,
0100
0030
0001
0100
0020
0200
0000
0000
,
0000
0000
0000
0000
0330
0110
0000
1001
,
0100
0000
0010
0000
0100
0000
0000
0000
0010
0000
0000
0100
0000
0000
0001
0000
,
0000
0000
1000
0000
0000
0000
0010
0000
0100
0000
0000
0010
0000
0000
0001
0000
,
0000
0000
1000
0000
0000
0000
0100
0000
1000
0000
0000
0010
0000
0000
0100
0000
,
0000
0000
1000
0000
0100
0000
0000
0000
0011
0000
0000
1000
0000
0000
0001
0000
,
0000
0000
0010
0000
0000
0000
0100
0000
1000
0000
0000
0001
0000
0000
1000
0000
,
0000
0000
0010
0000
0000
0000
1000
0000
0001
0000
0000
1000
0000
0000
0001
0000
,
0000
0010
0000
0100
1000
0010
0100
0001
,
1000
0100
1000
0001
0010
0100
0000
1001
,
0000
0101
0000
0110
2000
0010
0000
0010
,
0000
3010
1000
0010
0200
0001
0000
0001
,
0300
0002
0000
0103
0002
1000
0000
1000
,
0003
1000
0100
0010
2002
0000
0000
0000
,
0000
0000
0000
3003
0000
0000
1001
0000
0000
1001
0011
1001
,
1100
0000
0000
1001
1010
1001
0101
0000
0000
1001
0110
1001
,
0000
0100
0010
1000
0100
0020
0002
0000
0000
0000
0000
0000
,
0033
0000
0000
0000
;
