#TITLE:Pining for the Moon;
#SUBTITLE:;
#ARTIST:Lyrical Lily;
#TITLETRANSLIT:;
#SUBTITLETRANSLIT:;
#ARTISTTRANSLIT:;
#GENRE:;
#CREDIT:;
#MUSIC:Pining for the Moon.ogg;
#BANNER:Pining for the Moon.png;
#BACKGROUND:Pining for the Moon-bg.png;
#CDTITLE:;
#SAMPLESTART:48.994;
#SAMPLELENGTH:15.652;
#SELECTABLE:YES;
#OFFSET:-0.298;
#BPMS:0.000=138.000;
#STOPS:;
#BGCHANGES:;
#FGCHANGES:;

//--------------- dance-single - FrozenRay ----------------
#NOTES:
     dance-single:
     FrozenRay:
     Easy:
     4:
     0,0,0,0,0:
0000
0000
0000
0000
,
0000
0000
0000
0000
,
0000
0000
0000
0000
,
0000
0000
0000
0000
,
0000
0000
0000
0000
,
1000
0001
2200
3300
,
0001
1000
0100
1000
,
0001
1000
0202
0303
,
0001
0100
0010
0010
,
2002
0000
0000
3003
,
0010
0100
0010
0001
,
2002
0000
0000
3003
,
0010
0100
1000
0010
,
1000
0001
1000
0000
,
0001
0100
0001
0000
,
1000
0010
1000
0000
,
0001
0100
0001
0000
,
1000
1000
0001
0001
,
1000
0100
0001
0100
,
0010
0010
0100
0100
,
2000
0000
3001
0101
,
0100
0001
0100
0000
,
0001
0100
0001
0001
,
0010
0100
0010
0000
,
0100
0010
0100
1000
,
0010
0100
0100
0000
,
0001
0010
0010
0000
,
2200
0000
0000
3300
,
1001
0000
0110
0000
,
1000
0001
1000
0000
,
1000
0010
0100
0000
,
0001
0100
0010
0000
,
0001
0000
0100
0010
,
1000
0100
0100
0010
,
0010
0001
0001
0100
,
0001
0202
0000
0000
,
0303
0100
0010
0100
,
0001
1000
0001
0220
,
0330
1000
0001
1000
,
0100
0001
0100
0000
,
0002
0000
0100
0103
,
1000
0100
0001
0000
,
1000
0100
1000
0000
,
0100
1000
0002
0000
,
1003
1000
0100
1000
,
1001
0000
0002
0000
2000
0000
0000
3003
,
0000
1000
0001
0100
,
0001
0010
1000
0000
,
0010
1000
0100
0000
,
1000
0001
0100
0000
,
0100
0001
0010
0000
,
0001
0100
0001
0010
,
0001
2002
0000
3003
,
2000
0000
3100
0000
,
0002
0000
0103
0200
,
0000
0000
0000
0301
,
1000
0001
2200
3300
,
1000
0100
0001
1000
,
0001
0100
0202
0303
,
0001
0100
1000
1000
,
0220
0000
0330
0000
,
0022
0000
0033
0000
,
1000
0100
0001
0000
,
2002
0000
0000
0000
,
0000
3003
0000
0000
;

//--------------- dance-single - FrozenRay ----------------
#NOTES:
     dance-single:
     FrozenRay:
     Medium:
     7:
     0,0,0,0,0:
0000
0000
0000
0000
,
0000
0000
0000
0000
,
0000
0000
0000
0000
,
0000
0000
0000
0000
,
0000
0000
0000
0000
,
1000
0000
0001
0000
2200
0000
3300
0001
,
0000
1000
0001
0000
1000
0000
0101
0000
,
1000
0100
0001
0100
,
1000
0100
0010
1100
,
2002
0000
0000
3003
0000
0100
0000
0100
,
0020
0130
0010
1000
,
0120
0000
0130
0000
0000
0000
0001
0100
,
0020
0130
1000
0011
,
1000
0001
1000
0000
,
0001
1000
0100
0000
0001
0000
0000
0000
,
1000
0100
0010
0000
0001
0000
0000
0000
,
0001
0010
0100
0000
1000
0000
0000
0000
,
1000
0100
1000
0000
0001
0000
0001
0000
,
1000
0001
0100
0000
0001
0000
0100
0000
,
0010
0100
0001
0000
0100
0000
0001
1000
,
0200
0000
0000
0310
0000
0010
0100
0000
,
1000
0100
0010
0000
0100
0010
0001
0000
,
0100
0000
0000
0010
0100
0000
0001
1000
,
0000
0001
0001
0000
0001
0100
0000
0010
,
0000
1000
0001
0000
0001
0000
1100
0000
,
0000
1000
0001
0000
0100
0000
1000
0010
,
0000
0100
0001
0000
0001
0100
0001
0020
,
0100
0200
0000
0330
,
1001
1001
0110
1001
,
1000
0001
1000
0000
1000
0000
0100
0010
,
0000
0100
0010
0000
0001
0000
1100
0000
,
1000
0100
0001
0000
0001
0100
1000
0000
,
0000
0010
0010
0000
0101
0000
1010
0000
,
1000
0100
0010
0000
1000
0000
0010
0000
,
0001
0100
0010
0000
0001
0000
0010
0000
,
0001
2000
0002
0000
0000
0000
0000
0000
,
3003
0100
0011
1100
,
1000
0001
0100
0000
0001
0000
2020
0000
,
3030
1000
0001
1000
,
0100
0010
0001
0000
0100
1000
0100
0000
,
0002
0100
0000
0103
,
1000
0100
0001
0010
,
1000
0100
1000
0010
,
0100
0001
0100
0000
0001
0000
0000
0000
,
1000
0100
1000
0000
0100
0000
1001
0000
,
0001
0100
0002
0000
2000
0000
0000
3003
,
0000
1000
0001
0100
,
0001
0100
0010
0000
1000
0010
0100
0000
,
0010
1000
0100
0000
,
1000
0101
0001
1100
,
0100
0011
0001
1010
,
0001
0000
0100
0000
0001
0000
0010
0001
,
0000
0002
2000
0000
0000
3003
0000
0000
,
2000
0000
3100
0000
,
0002
0000
0000
0000
0103
0000
2000
0002
,
0000
0000
3003
0001
,
1000
0000
0101
0000
1100
0000
0000
0001
,
0000
1000
0100
0000
0001
0000
1100
0000
,
0001
0000
0100
0000
0001
0000
0100
0020
,
0000
0130
1000
1100
,
0001
0000
1000
0000
0101
0000
0000
1000
,
0000
0001
0100
0000
1000
0000
0101
0000
,
1000
0000
0100
0000
1000
0001
0100
0020
,
2000
0000
0030
0000
0000
0001
0002
0000
,
0000
3003
0000
0000
;

//--------------- dance-single - FrozenRay ----------------
#NOTES:
     dance-single:
     FrozenRay:
     Hard:
     9:
     0,0,0,0,0:
0000
0000
0000
0000
,
0000
0000
0000
0000
,
0000
0000
0000
0000
,
0000
0000
0000
0000
,
0000
0000
0000
0000
,
1000
1000
0001
0000
2200
0000
3300
0001
,
0000
1000
0100
0000
1001
0000
1100
0000
,
0001
0001
0100
0000
0001
1000
0100
0020
,
0001
0100
0031
1100
,
2001
0000
0001
0000
3001
0100
0001
0100
,
0020
0000
0130
0010
0100
0000
1010
0000
,
0120
0000
1000
0000
0130
0010
1000
0100
,
0020
0000
0130
0010
0100
0000
0011
0000
,
1000
0001
0100
0000
1000
0000
0101
0000
,
0001
1000
0100
0000
0001
0000
1100
0000
,
1000
0100
0010
0000
1000
0000
0101
0000
,
0001
0010
0100
0000
0001
0000
1100
0000
,
1000
0100
1000
0000
0001
0100
0001
0000
,
1000
0001
0100
0000
0001
1000
0100
0000
,
0010
0100
1000
0100
1000
0001
1000
0010
,
0200
0000
0001
0301
0000
0100
0010
0000
,
1000
0100
0010
0000
0010
0100
1000
0001
,
0100
0000
0100
0001
0010
0100
1000
0001
,
0100
0000
0011
0000
0001
0100
0000
0010
,
1000
0010
0100
0010
0100
0001
0010
0000
,
0100
1000
0002
0000
0100
0000
1003
0010
,
0200
0000
0301
0000
0010
0100
1000
0020
,
0100
0200
0000
0330
,
1001
1001
0110
1001
,
1000
0001
0100
0000
1000
0001
0100
0000
,
1000
0100
1000
0001
0100
0001
1000
0000
,
1000
0100
0001
0100
1000
0001
0100
0020
,
0000
0100
0130
0000
0101
0000
1001
0000
,
1000
0100
0010
0000
1000
0100
0010
0001
,
0001
0000
0001
0100
0010
1000
0010
0100
,
0001
2000
0001
0000
0100
0000
0001
0000
,
3100
0110
0011
1100
,
1000
0001
0200
0000
0301
0000
2020
0000
,
0000
3030
1000
0000
0001
1000
1000
0000
,
0100
0010
0001
0010
0100
1000
0100
0020
,
0001
0100
0001
0130
,
1000
0100
0001
0010
,
1000
0100
1000
0010
,
0100
0001
0100
0000
0001
0010
0001
0001
,
0000
0100
0100
0000
0110
0000
1001
0000
,
0001
0100
0001
0000
2020
0000
0000
0000
,
3030
0000
2000
0000
0001
0000
0100
3000
,
0001
0100
0010
1000
0010
0100
0001
0100
,
0020
1000
0130
1000
,
1000
0001
0100
0000
0001
1000
0100
0000
,
0100
0010
0001
0000
0001
0100
0010
0000
,
1000
0001
0200
0000
0001
0000
0310
1000
,
0000
0002
2000
0000
0000
0000
3003
0000
,
2000
0000
3100
0000
,
0002
0000
0000
0000
0103
0000
1000
0002
,
1000
0000
1000
0000
1000
0003
1000
0010
,
1000
1000
0100
0000
2200
0000
3300
0001
,
0000
1000
0100
0000
1001
0000
1100
0000
,
2001
0001
0100
0000
3001
1000
0100
0020
,
0001
0100
0031
1100
,
0001
0001
0100
0000
0202
0000
0303
1000
,
0000
0001
0100
0000
1001
0000
0101
0000
,
1002
1000
0100
0000
1003
0001
0100
0020
,
1000
0000
0100
0030
1000
0002
0200
0000
,
0000
0303
0000
0000
;
