#TITLE:Photon Melodies;
#SUBTITLE:;
#ARTIST:Photon Maiden;
#TITLETRANSLIT:;
#SUBTITLETRANSLIT:;
#ARTISTTRANSLIT:;
#GENRE:;
#CREDIT:;
#MUSIC:Photon Melodies.ogg;
#BANNER:Photon Melodies-bn.png;
#BACKGROUND:Photon Melodies-bg.png;
#CDTITLE:;
#SAMPLESTART:50.313;
#SAMPLELENGTH:15.000;
#SELECTABLE:YES;
#OFFSET:-3.907;
#BPMS:0.000=128.000
,36.000=64.000
,50.000=128.000
;
#STOPS:;
#BGCHANGES:;
#FGCHANGES:;

//--------------- dance-single - FrozenRay ----------------
#NOTES:
     dance-single:
     FrozenRay:
     Hard:
     9:
     0,0,0,0,0:
0000
0000
0000
0000
,
0000
0000
0000
0000
,
0000
0000
0000
0000
,
0000
0000
0000
0000
,
0000
0000
0000
0000
,
0000
0000
0000
0000
,
0000
0000
0000
0000
,
0000
0000
0000
0000
,
0000
0000
0000
0000
,
1002
0000
0000
0100
0200
0000
0000
0000
0303
0000
0000
0010
1000
0001
1000
0100
,
0020
0000
0030
0002
0000
0000
2000
0000
0000
0000
0000
0000
3003
0000
0000
0000
,
0210
0000
0000
1000
2000
0000
0000
0000
3300
0000
0000
0100
1000
0001
0010
0100
,
0020
0000
0030
0002
0000
0000
2000
0000
0000
0000
0000
0000
0000
0000
3003
0000
,
0001
0000
1100
0000
0001
0100
0001
0000
,
0001
1000
0100
0000
0001
0100
0010
1000
,
0001
0000
0101
0000
1000
0100
1000
0000
,
1000
0001
0010
0000
0100
1000
0010
0100
,
0001
0000
1100
0000
1000
0010
0100
0000
,
0100
0001
1000
0000
1000
0001
0100
0001
,
0010
0010
2100
0100
,
3001
0000
0000
0001
0000
0000
1000
0000
0010
0000
0000
0010
0000
0000
0020
0000
,
0030
0000
0000
0000
2002
0000
3000
2003
,
0002
0000
0000
0000
3000
0000
0200
0000
2003
0000
0300
0002
3000
0000
2000
0000
,
0000
0000
3003
0000
2200
0000
0300
0002
,
3020
0000
0000
0000
0003
0000
2030
0000
0002
0000
3000
2000
0003
0000
0002
0000
,
0000
0000
3003
0000
2020
0000
3000
2030
,
0002
0000
0000
0000
3000
0000
0200
0000
2003
0000
0300
0002
3000
0000
2000
0000
,
0000
0000
3003
0000
0022
0000
0030
2003
,
0002
0000
0000
0000
3000
0000
0200
0000
2003
0000
0300
0002
3000
0000
2000
0000
,
0000
0000
3003
0000
0100
1000
0100
0100
,
0001
0010
0000
0000
0100
0001
0100
0010
,
1000
1000
0001
0001
1000
0010
0010
0001
,
0100
0010
0000
0000
0100
0001
1000
0001
,
0010
0010
0001
0001
1000
0100
0100
0001
,
0010
0001
0000
0000
0001
1000
0001
0010
,
0001
0001
1000
1000
0100
0010
0010
1000
,
0001
0010
0000
0000
0004
0000
0000
0000
,
0003
0000
0000
0000
0110
0000
0000
0000
0020
0000
0002
0033
0020
0030
0020
0000
,
2030
3200
0310
0000
0020
2030
3020
0230
,
0302
0000
0023
0000
0032
0000
2003
0000
3002
0000
0203
0000
0020
0300
2030
0000
,
3020
0000
0230
0000
0301
0000
0000
0000
2020
0000
0000
3030
0002
0000
2003
0000
,
3200
0320
0032
2003
3002
0203
0310
0002
,
2003
3200
0310
0000
2000
3002
2003
3200
,
0320
0030
2000
0000
3002
0000
0203
0000
2300
3000
0200
0300
0200
0300
0002
0000
,
2003
0000
3200
0000
0301
0000
0000
0000
0202
0303
0000
0220
0330
0000
2020
3030
,
0000
2002
3003
0000
0220
0000
0330
0000
0010
0000
0001
0000
0010
0000
0010
0000
,
1000
0100
0000
0000
0010
1000
0010
0100
,
0001
0001
1000
1000
0001
0100
0100
1000
,
0010
0100
0000
0000
0010
1000
0001
1000
,
0100
0100
1000
1000
0000
0000
0010
1000
,
0100
1000
0000
0000
1000
0001
1000
0100
,
1000
1000
0001
0001
0010
0100
0100
0001
,
1000
0000
0100
0000
0000
0000
0000
0000
2020
3030
0000
0220
0330
0000
0202
0303
,
0000
2002
3003
0000
0220
0000
0330
0000
0000
0000
0000
0000
0000
0000
0000
0000
;
