#TITLE:Photon Melodies (TAKU INOUE Remix);
#SUBTITLE:;
#ARTIST:Photon Maiden;
#TITLETRANSLIT:;
#SUBTITLETRANSLIT:;
#ARTISTTRANSLIT:;
#GENRE:;
#CREDIT:;
#MUSIC:Photon Melodies (TAKU INOUE Remix).ogg;
#BANNER:Photon Melodies (TAKU INOUE Remix).png;
#BACKGROUND:Photon Melodies (TAKU INOUE Remix)-bg.png;
#CDTITLE:;
#SAMPLESTART:98.430;
#SAMPLELENGTH:14.222;
#SELECTABLE:YES;
#OFFSET:-1.097;
#BPMS:0.000=135.000;
#STOPS:;
#BGCHANGES:;
#FGCHANGES:;

//--------------- dance-single - FrozenRay ----------------
#NOTES:
     dance-single:
     FrozenRay:
     Hard:
     12:
     0,0,0,0,0:
0000
0000
0000
0000
,
0000
0000
0000
0000
,
0000
0000
0000
0000
,
0000
0000
0000
0000
,
0000
0000
0000
0000
0000
0000
0001
1000
,
0200
0300
0000
0010
0002
0003
0000
0100
,
0001
0000
0000
1000
0000
0000
0202
0000
0000
0000
0303
0000
0000
0000
0000
0000
,
2200
3300
0000
0001
2000
3000
0000
0010
,
1000
0000
0000
0001
0000
0000
0220
0000
0000
0000
0330
0000
0001
0000
1000
0000
,
0102
0000
0000
0100
0000
0000
0100
0000
0000
0100
0000
0000
0103
0000
0000
0000
,
2010
0000
0000
0010
0000
0000
0010
0000
0000
0010
0000
0000
3010
0000
0000
0000
,
0021
0000
0000
0001
0000
0000
0001
0000
0000
0001
0000
0000
0031
0000
0000
0000
,
1200
0000
0000
1000
0000
0000
0010
0300
0000
0110
0000
0000
0010
0000
0100
0000
,
1000
0000
0000
0001
0000
0000
1000
0000
0000
0001
0000
0000
1000
0000
0001
1000
,
0010
0000
0000
0100
0000
0000
0010
0000
0000
0100
0000
0000
0010
0000
0100
0001
,
1000
0000
0000
0100
0000
0000
0010
0000
0000
0100
0000
0000
1000
0000
0100
1000
,
0001
0000
0000
0100
0000
0000
0010
0000
0000
0100
0000
0000
0001
0000
0010
0000
,
0100
0000
1000
0100
0000
1000
0100
0000
1000
0100
0000
1000
0100
0000
1000
0100
,
0010
0000
0001
0010
0000
0001
0010
0000
0001
0010
0000
0001
0010
0000
0001
1000
,
0010
0000
1000
0010
0000
1000
0010
0000
1000
0010
0000
1000
0010
0000
1000
0010
,
0100
0000
0001
0100
0000
0001
0100
0000
0001
0100
0000
0001
0100
0000
0001
0100
,
0010
0000
0100
0010
0000
0100
0010
0000
0100
0010
0000
0100
0010
0000
0100
0010
,
1000
0000
0010
1000
0000
0010
1000
0000
0010
1000
0000
0010
1000
0000
0010
1000
,
0002
0000
0003
0010
0200
0000
0300
1000
,
0001
0000
0000
0101
0000
0000
0110
0000
0000
0000
0000
0000
0100
0000
0010
0000
,
0100
0000
0001
0100
0000
0010
0100
0000
0001
0100
0000
0010
0100
0000
0001
1000
,
0100
0000
1000
0001
0000
1000
0100
0000
1000
0001
0000
1000
0100
0000
0010
0001
,
1000
0000
0100
0010
0000
0100
1000
0000
0100
0010
0000
0100
1000
0000
0100
0010
,
0001
0000
1000
0001
0000
0010
0100
0000
1000
0001
0000
0010
0100
0000
0001
1000
,
0010
0000
0100
0010
0000
1000
0010
0000
0100
0010
0000
1000
0010
0000
0100
0001
,
1000
0000
0001
0100
0000
0001
1000
0000
0001
0100
0000
0001
1000
0000
0100
0010
,
0001
0000
1000
0100
0000
0010
0100
0000
1000
0100
0000
0010
0100
0000
1000
0000
,
0010
0000
0000
0200
0000
0000
0002
0000
0000
0000
0303
0000
0000
0001
1000
0010
,
0200
0000
0300
0010
0000
0100
0010
0000
0100
0010
0000
0100
0010
0000
0100
0001
,
1000
0000
0001
1000
0000
0001
1000
0000
0001
1000
0000
0001
1000
0000
0001
1000
,
0100
0000
1000
0100
0000
1000
0100
0000
1000
0100
0000
1000
0100
0000
1000
0100
,
0010
0000
0001
0010
0000
0001
0100
0000
0001
0100
0000
0001
1000
0000
0001
1000
,
0010
0000
0100
0001
0000
0100
0010
0000
0100
0001
0000
0100
0010
0000
0100
0001
,
1000
0000
0100
0010
0000
0100
1000
0000
0100
0010
0000
0100
1000
0000
0001
1000
,
0010
0000
0100
0010
0000
0100
0001
0000
1000
0010
0000
1000
0001
0000
0100
0000
,
0010
0000
0000
2000
0000
0000
0002
0000
0000
0000
0000
0000
3003
0000
0000
0000
,
0000
0000
0000
0000
,
0000
0000
0000
0000
,
0000
0000
0000
0000
,
1000
1000
0001
0001
,
1000
0000
0001
0100
0010
0000
0010
1000
,
0100
1000
0001
1000
,
0010
0000
0100
0001
0010
0000
0100
1000
,
0010
0100
0001
0100
,
0010
0000
0100
0010
1000
0000
0100
0010
,
0001
0100
1000
0100
,
0001
0010
0100
1000
,
2002
0000
3003
0020
0200
0000
0330
0001
,
2000
0000
0000
0010
0000
0000
0020
0000
0000
0000
0000
0000
0000
0000
0000
0000
,
3030
0000
0000
0000
0000
0000
0010
0100
,
0010
0000
1000
0010
0000
0100
0010
0000
1000
0010
0000
0100
0010
0000
1000
0001
,
0010
0000
0001
1000
0000
0001
0010
0000
0001
1000
0000
0000
0000
0000
0100
0000
,
0001
0000
0010
0100
0000
0010
0001
0000
0010
0100
0000
0010
0001
0000
0010
0100
,
1000
0000
0001
1000
0000
0100
0010
0000
0001
1000
0000
0100
0010
0000
1000
0001
,
0100
0000
0010
0100
0000
0001
0100
0000
0010
0100
0000
0001
0100
0000
0010
1000
,
0001
0000
1000
0010
0000
1000
0001
0000
1000
0010
0000
1000
0001
0000
0010
0100
,
1000
0000
0001
0010
0000
0100
0010
0000
0001
0010
0000
0100
0010
0000
0001
0000
,
0100
0000
0000
0020
0000
0000
2000
0000
0000
0000
3030
0000
0000
1000
0001
0100
,
0020
0000
0030
0100
0000
0010
1000
0000
0010
0100
0000
0010
1000
0000
0010
1000
,
0001
0000
1000
0010
0000
1000
0001
0000
1000
0010
0000
1000
0001
0000
1000
0001
,
0010
0000
0001
1000
0000
0001
0010
0000
0001
1000
0000
0001
0010
0000
0001
0010
,
0100
0000
1000
0100
0000
1000
0010
0000
1000
0010
0000
1000
0001
0000
1000
0001
,
0100
0000
0010
1000
0000
0010
0100
0000
0010
1000
0000
0010
0100
0000
0010
1000
,
0001
0000
0010
0100
0000
0010
0001
0000
0010
0100
0000
0010
0001
0000
1000
0001
,
0100
0000
0010
0100
0000
0010
1000
0000
0001
0100
0000
0001
1000
0000
0010
0000
,
0100
0000
0000
0002
0000
0000
2000
0000
0000
0000
0000
0000
3003
0000
0000
0000
;
