#TITLE:Petit Prince;
#SUBTITLE:;
#ARTIST:Lyrical Lily;
#TITLETRANSLIT:;
#SUBTITLETRANSLIT:;
#ARTISTTRANSLIT:;
#GENRE:;
#CREDIT:;
#MUSIC:Petit Prince.ogg;
#BANNER:Petit Prince.png;
#BACKGROUND:Petit Prince-bg.png;
#CDTITLE:;
#SAMPLESTART:50.010;
#SAMPLELENGTH:16.615;
#SELECTABLE:YES;
#OFFSET:-2.010;
#BPMS:0.000=130.000;
#STOPS:;
#DISPLAYBPM:130.000;
#BGCHANGES:;
#FGCHANGES:;

//--------------- dance-single - FrozenRay ----------------
#NOTES:
     dance-single:
     FrozenRay:
     Easy:
     4:
     0,0,0,0,0:
0000
0000
0000
0000
,
0000
0000
0000
0000
,
0000
0000
0000
0000
,
0000
0000
0000
0000
,
0000
0000
0000
0000
,
2000
0000
0000
3000
,
0020
0000
0000
0030
,
0200
0000
0000
0300
,
0002
0000
1003
0000
,
0200
0000
1300
1100
,
0001
0001
1000
0000
,
0010
0010
0100
0000
,
0001
0001
1000
0000
,
1000
0010
0001
0000
,
0100
0000
0100
0001
,
1000
0000
0010
1000
,
0100
0000
0001
0001
,
1000
0100
0001
0100
,
0202
0303
0002
0103
,
0200
0310
0020
0130
,
0200
0310
0020
1030
,
2000
3100
0200
0310
,
0001
0010
0001
0000
,
0100
0010
1000
0000
,
1000
0100
0001
0100
,
1000
0001
2002
0000
,
3003
0000
0000
0000
,
1000
0001
0010
1000
,
0010
0001
0000
0000
,
0001
0100
0010
0100
,
0001
0010
0000
0000
,
0001
0100
0110
0000
,
1000
0100
0110
0000
,
2002
0000
0000
3003
,
0100
0000
0001
0001
,
1000
0010
0001
0010
,
1000
0010
0000
0000
,
0010
1000
0100
1000
,
0010
0100
0000
0000
,
1000
0100
0110
0000
,
0001
0100
0110
0000
,
2002
0000
0000
3003
,
0200
0300
0020
0030
,
2020
0000
0000
3030
,
0001
1000
0101
0000
,
1000
1000
0001
0000
,
0010
0010
0100
0000
,
1000
1000
0001
0000
,
0001
0010
1000
0000
,
0100
0000
0100
1000
,
0001
0000
0010
0001
,
0100
0000
1000
1000
,
0001
0100
1000
0100
,
2200
3300
2000
3100
,
0200
0310
0020
0130
,
0200
0310
0020
0031
,
0002
0103
0200
0310
,
1000
0010
1000
0000
,
0100
0010
0001
0000
,
0002
0103
0200
0301
,
0002
0013
0020
0031
,
0002
0103
0200
0310
,
0020
0130
0200
0301
,
0002
1003
2000
3100
,
0200
1300
2000
3010
,
0100
2002
0000
0000
,
0000
0000
0000
0000
,
3003
0000
0000
0000
;

//--------------- dance-single - FrozenRay ----------------
#NOTES:
     dance-single:
     FrozenRay:
     Medium:
     7:
     0,0,0,0,0:
0000
0000
0000
0000
,
0000
0000
0000
0000
,
0000
0000
0000
0000
,
0000
0000
0000
0000
,
0000
0000
0000
0000
,
1000
0000
1000
0000
1000
0000
1000
0100
,
0010
0000
0010
0000
0010
0000
0010
0001
,
0100
0000
0100
0000
0100
0000
0100
0010
,
1000
0000
1000
0000
0001
0010
0100
1000
,
0100
0000
0100
1100
,
0001
0000
0001
0000
1000
0100
1000
0000
,
0010
0000
0010
0000
0100
0001
0100
0000
,
0001
0000
0001
0000
1000
0010
1000
0000
,
1000
0100
0010
0001
0001
0010
0100
0000
,
1100
0000
1000
0000
0100
0010
0001
0000
,
1000
0000
0001
0000
0010
0100
1000
0000
,
1000
0100
1000
0000
0001
0100
0001
0000
,
1000
0001
0100
0010
0100
0010
1000
0000
,
0101
0000
0000
0100
0001
0000
0001
0100
,
0000
0001
0100
1000
0000
1000
0100
0001
,
0000
0001
0010
1000
0000
1000
0010
0001
,
0000
0001
0010
0100
0000
1000
0000
1000
,
0001
0100
0010
1000
0000
0100
0001
0100
,
0000
0001
0010
0001
0000
0000
0010
2000
,
0000
0200
0000
0000
0000
3300
0000
0001
,
1000
0000
2000
0002
0000
0000
3003
0000
,
0100
1010
0100
0011
,
1000
0000
0001
0100
0010
0000
1000
0100
,
0010
0000
0001
0010
0000
0010
0001
0100
,
0010
0000
0100
0001
0010
0000
0100
1000
,
0010
0000
0100
0001
0000
0001
0100
0001
,
0100
0000
0000
0010
0100
0000
0000
0000
0110
0000
0000
0000
0000
0000
0000
0000
,
1000
0000
0000
0001
1000
0000
0000
0000
1001
0000
0000
0000
0000
0000
0000
0000
,
1000
0100
0000
0010
0000
0001
0000
1000
,
0100
1000
0001
0010
0000
0010
0001
1000
,
0001
0000
1000
0100
0010
0000
0001
0100
,
0010
0000
1000
0010
0000
0010
1000
0100
,
0010
0000
0100
1000
0010
0000
0100
0001
,
0010
0000
0100
1000
0000
1000
0100
1000
,
0100
0000
0000
0010
0100
0000
0000
0000
0110
0000
0000
0000
0000
0000
0000
0000
,
0001
0000
0000
1000
0001
0000
0000
0000
1001
0000
0000
0000
0000
0000
1000
0000
,
0001
0100
0000
0010
0000
1000
0000
0001
,
0100
0000
0000
0001
0000
0000
1000
0000
0010
0000
0000
1000
0000
0000
0020
0000
,
0200
0000
0000
0330
,
0001
1010
0101
0000
,
1000
0000
1000
0000
0001
0100
0001
0000
,
0010
0000
0010
0000
0100
1000
0100
0000
,
1000
0000
1000
0000
0001
0010
0001
0000
,
0001
0100
0010
1000
1000
0010
0100
0000
,
0101
0000
0001
0000
0100
0010
1000
0000
,
0001
0000
1000
0000
0010
0100
0001
0000
,
0001
0100
0001
0000
1000
0100
1000
0000
,
0001
1000
0100
0010
0100
0010
0001
0000
,
1100
0000
0000
0100
1000
0000
1000
0100
,
0000
1000
0100
0001
0000
0001
0100
1000
,
0000
1000
0010
0001
0000
0001
0010
1000
,
0000
1000
0010
0100
0000
0001
0000
0001
,
1000
0100
0010
0001
0000
0100
1000
0100
,
0000
1000
0010
1000
0000
0000
0010
0002
,
0000
0200
0000
0000
0303
0000
1000
0002
,
0000
2000
0000
0000
3003
0000
1000
0001
,
0000
0001
0100
0010
0000
0010
1000
0100
,
0000
0100
1000
0010
0000
0010
0100
0001
,
0000
0001
0100
0010
0000
0010
0100
0001
,
0000
0001
1000
0100
0000
0100
1000
0100
,
0000
0022
0000
0000
0000
0000
0000
0000
,
0000
0000
0000
0033
;

//--------------- dance-single - FrozenRay ----------------
#NOTES:
     dance-single:
     FrozenRay:
     Hard:
     9:
     0,0,0,0,0:
0000
0000
0000
0000
,
0000
0000
0000
0000
,
0000
0000
0000
0000
,
0000
0000
0000
0000
,
0000
0000
0000
0000
,
0001
0001
1000
0000
0001
0000
1000
0000
,
0100
0100
0010
0000
0100
0000
0010
0000
,
0001
0001
0100
0000
0001
0000
0100
0000
,
0010
0010
0100
0000
0010
0100
0001
2000
,
0002
3003
0100
1010
,
1000
0010
1000
0000
1000
0000
0101
0000
,
0010
0001
0010
0000
0100
0000
1100
0000
,
1000
0001
0100
0000
1000
0000
0101
0000
,
0100
0001
0010
0100
1000
0100
0010
0000
,
1000
0100
1000
0100
0010
0001
0010
0000
,
0001
1000
0010
0100
0001
1000
0100
0000
,
1000
0100
0010
1000
0001
0100
0010
0000
,
0010
0010
1000
0001
0010
0100
1000
0001
,
2002
0000
3003
0100
1000
0100
0010
0001
,
0000
0010
0100
1000
0000
0010
0100
0001
,
0000
0001
0100
1000
0000
1000
0100
0001
,
0000
0001
0010
0100
0000
0100
0000
0100
,
1000
0100
0010
0001
0000
0001
0010
0001
,
0000
1000
0010
1000
0000
1000
0100
2000
,
0000
0002
0000
0000
0000
3003
0000
0000
,
0101
0110
1010
2100
,
0002
3000
0013
0200
0000
1300
0010
0100
,
0002
0000
0013
0100
2000
0000
3001
0100
,
0000
0010
0000
2000
0000
3100
0010
0001
,
0200
0000
0310
1000
0002
0000
1003
0100
,
0000
0010
0000
0002
0000
0103
0010
0100
,
0001
0000
0100
0001
0000
0100
0002
0000
0000
0000
1003
0000
0000
0000
0100
0000
,
0010
0000
0001
0010
0000
0001
0020
0000
0000
0000
0130
0000
0000
0000
1000
0000
,
0010
0100
0000
2020
0000
0000
3030
0001
,
0100
0010
0100
0001
0000
0001
0010
0100
,
2000
0000
3010
0100
0002
0000
1003
0100
,
0000
0010
0000
0002
0000
0103
0010
1000
,
0200
0000
0310
0001
2000
0000
3001
0100
,
0000
0010
0000
2000
0000
3100
0010
0100
,
1000
0000
0100
1000
0000
0100
2000
0000
0000
0000
3001
0000
0000
0000
0100
0000
,
0010
0000
1000
0010
0000
1000
0020
0000
0000
0000
0130
0000
0000
0000
0001
0000
,
0010
0100
0000
0020
0000
0000
0030
1000
,
0100
0000
0000
0010
0000
0000
1000
0000
0100
0000
0000
0010
0000
0000
0002
0000
,
2000
0000
0000
0000
0000
0000
0000
3003
,
0001
0000
0000
0100
0000
0000
0010
0000
0200
0000
0000
0000
0000
0000
0300
0000
,
0001
1000
0001
0000
0001
0100
0001
0000
,
0001
1000
0010
1000
0100
1000
0100
0000
,
1000
0001
0100
0010
1000
0100
0010
0000
,
0100
1000
0010
0100
0001
0100
2020
3030
,
0001
0100
0001
0100
0010
1000
0010
0000
,
0010
1000
0001
1000
0100
0010
0100
0100
,
1000
0100
0010
0001
1000
0100
0010
0000
,
0010
0010
0001
1000
0010
0100
0001
1000
,
2002
0000
3003
0100
0001
0100
0010
1000
,
0000
0010
0100
0001
0000
0010
0100
1000
,
0000
1000
0100
0001
0000
0001
0100
1000
,
0000
1000
0010
0100
0000
0100
0000
0100
,
0001
0100
0010
1000
0000
1000
0010
1000
,
0000
0001
0010
0001
0000
1000
0001
0100
,
0000
0010
1000
0200
0300
0010
0100
2000
,
3000
0010
0100
0002
0003
0010
0100
2000
,
3000
1000
0010
0200
0300
0001
0100
0020
,
0030
1000
0100
0002
0003
0001
0100
2000
,
3000
1000
0010
0001
0000
0001
0010
2000
,
3000
0100
0010
0200
0300
1000
0100
0011
,
0000
0000
0000
0000
0000
0000
0000
0000
0000
0000
0000
0000
0000
0000
0000
0000
0000
0000
0000
0000
0000
0000
0000
0000
2200
0000
0000
0000
0000
0000
0000
0000
0000
0000
0000
0000
0000
0000
0000
0000
0000
0000
0000
0000
0000
0000
0000
0000
0000
0000
0000
0000
0000
0000
0000
0000
0000
0000
0000
0000
0000
0000
0000
0000
0000
0000
0000
0000
0000
0000
0000
0000
0000
0000
0000
0000
0000
0000
0000
0000
0000
0000
0000
0000
0000
0000
0000
0000
0000
0000
0000
0000
0000
0000
0000
0000
0000
0000
0000
0000
0000
0000
0000
0000
0000
0000
0000
0000
0000
0000
0000
0000
0000
0000
0000
0000
0000
0000
0000
0000
0000
0000
0000
0000
0000
0000
0000
0000
0000
0000
0000
0000
0000
0000
0000
0000
0000
0000
0000
0000
0000
0000
0000
0000
0000
0000
0000
0000
0000
0000
0000
0000
0000
0000
0000
0000
0000
0000
0000
0000
0000
0000
0000
0000
0000
0000
0000
0300
0000
0000
0000
0000
0000
0000
0000
0000
0000
0000
0000
0000
0000
0000
0000
0000
0000
0000
0000
0000
0000
0000
0000
0000
,
0001
0001
0001
3001
,
1000
0001
1000
0000
0001
0000
0000
0000
1000
0000
0000
0000
0001
1000
0000
0001
,
0000
0001
0100
0000
0001
0000
1000
0000
0001
0100
0010
1000
0001
0100
0010
1000
;
