#TITLE:Petit Mix Party Night!;
#SUBTITLE:;
#ARTIST:D4DJ ALL STARS;
#TITLETRANSLIT:;
#SUBTITLETRANSLIT:;
#ARTISTTRANSLIT:;
#GENRE:;
#CREDIT:;
#MUSIC:Petit Mix Party Night.ogg;
#BANNER:Petit Mix Party Night.png;
#BACKGROUND:Petit Mix Party Night-bg.png;
#CDTITLE:;
#SAMPLESTART:69.110;
#SAMPLELENGTH:10.941;
#SELECTABLE:YES;
#OFFSET:-2.757;
#BPMS:0.000=170.000
,144.000=85.000
,156.000=170.000
;
#STOPS:;
#BGCHANGES:;
#FGCHANGES:;

//--------------- dance-single - FrozenRay ----------------
#NOTES:
     dance-single:
     FrozenRay:
     Easy:
     7:
     0,0,0,0,0:
0000
0000
0000
0000
,
0000
0000
0000
0000
,
0000
0000
0000
0000
,
0000
0000
0000
0000
,
0000
0000
0000
0000
,
1000
0001
1000
0100
,
0010
0001
1100
0000
,
0001
0010
0001
0000
,
0001
1000
0100
0000
,
0010
0100
0010
0001
,
1000
0001
1000
0000
,
1000
0001
0101
1010
,
1000
0001
0100
0010
,
1000
0001
0010
0010
,
0100
1000
0001
1000
,
2200
0000
0000
3300
,
0001
1000
0010
0100
,
0001
1000
0010
0010
,
1000
0001
0010
0100
,
2002
0000
0000
3003
,
1100
0000
1000
0001
,
0101
0000
1000
0010
,
1010
0000
0001
0010
,
0011
0100
1100
0000
,
1000
0000
0001
0010
,
0100
1000
1000
0001
,
0010
0100
1000
0000
,
0001
0100
1000
0100
,
0001
0010
0100
0000
,
1000
0100
0010
0110
,
1000
1000
0100
0000
,
0101
0000
1010
0000
,
0100
0001
0100
0000
,
1000
0010
1000
0000
,
0110
0000
0101
0000
,
1000
0010
0202
0303
,
1000
0010
1000
0001
,
1000
0001
0100
0010
,
1000
0010
0100
0010
,
0101
1000
0100
1100
,
0001
1000
0010
0101
,
0010
0001
1000
0010
,
0100
0000
0001
0000
0202
0000
0000
0303
,
0001
0000
0110
1001
,
0001
1000
0001
0100
,
0010
0010
1000
0000
,
1000
0001
0001
0010
,
0100
0000
0010
0000
2002
0000
0000
3003
,
1000
0001
1000
0010
,
0100
0100
0001
0000
,
1010
0010
0100
0000
,
0011
0100
1000
1001
,
0001
1000
0001
0100
,
0010
0100
0010
1000
,
0001
1000
0010
0100
,
0010
0000
1000
0000
2002
0000
0000
3003
,
0001
0100
0001
0010
,
0001
0010
0100
1000
,
0100
1000
0010
0000
,
0100
0001
1000
0000
,
1000
0100
0001
0100
,
2000
0000
0000
3000
,
1000
0001
0110
1001
,
1000
0100
0010
0001
,
1000
0100
0010
0001
,
0010
0010
0001
0100
,
0220
0000
0000
0330
,
0001
0100
0010
1000
,
0001
0100
0010
1000
,
0100
0100
0010
0001
,
2002
0000
0000
3003
,
0010
0010
0001
1000
,
0010
0010
0100
0001
,
0100
0010
1000
0001
,
2200
0000
0000
3300
,
1000
1000
0100
0010
,
0001
0001
0010
0001
,
0101
0101
1010
1010
,
2002
0000
0000
3003
,
0220
0000
0000
0000
0000
0000
0000
0330
0000
0000
0000
0000
0000
0000
0000
0000
;

//--------------- dance-single - FrozenRay ----------------
#NOTES:
     dance-single:
     FrozenRay:
     Medium:
     9:
     0,0,0,0,0:
0000
0000
0000
0000
,
0000
0000
0000
0000
,
0000
0000
0000
0000
,
0000
0000
0000
0000
,
0000
0000
0000
0000
,
1000
0001
1000
0100
,
0010
0000
0001
0000
1100
0000
0000
1000
,
0000
0100
0010
0000
0001
0000
0000
0100
,
0000
0010
1000
0000
0100
0000
0000
1000
,
0000
0001
0100
0000
0001
0000
1000
0000
,
0010
0010
0010
0010
,
1000
0001
0101
1010
,
1000
0000
0001
0000
1000
0010
1000
0000
,
1000
0000
0001
0000
0010
0100
0010
0000
,
0100
1000
0001
1000
,
1100
0010
0001
0101
,
0001
0000
1000
0000
0001
0100
0001
0000
,
1000
0000
0001
0000
0010
0100
0010
0000
,
1000
0001
0010
0100
,
1001
0010
0100
0001
,
1100
0000
0000
0100
1000
0000
1000
0000
,
0101
0000
0000
0001
1000
0000
0010
0000
,
1010
0000
0000
1000
0001
0000
0010
0100
,
0010
0000
0100
0000
1000
0000
0000
1000
,
1000
0000
0000
0001
0001
0000
0010
0000
,
0100
0000
1000
0100
0000
0010
0001
0000
,
0010
0000
0100
0010
0000
0000
0000
0000
,
0001
0010
0001
0000
1100
0000
0000
0000
,
0001
0100
0001
0000
0100
0000
0000
0000
,
0001
1000
0100
0000
0010
0000
0110
0000
,
1000
0100
1000
0000
0100
0000
0000
0000
,
0101
0000
1010
0000
,
0100
0001
0100
0000
,
1000
0010
1000
0000
,
0110
0000
0101
0000
,
1000
0010
0202
0303
,
1000
0100
0010
0001
0001
0100
0010
1000
,
1000
0001
0001
1000
0100
0010
0010
0000
,
0001
0100
0010
1000
1000
0100
0010
0001
,
0001
1000
0100
1100
,
0001
1000
0010
0101
,
0010
0001
1000
0010
,
0100
0000
0001
0000
0202
0000
0000
0303
,
0001
0000
0110
1001
,
0001
1000
0001
0100
,
0010
0100
0010
0000
1000
0000
0001
0000
,
1000
0000
0001
0010
0001
0000
0010
0000
,
0100
0000
0010
0000
2002
0000
0000
3003
,
1000
0001
1000
0010
,
0100
0010
0100
0000
0001
0000
0000
0000
,
1010
0010
0100
0000
,
0011
0100
1000
1001
,
0001
1000
0001
0100
,
0010
0100
0010
1000
,
0001
1000
0010
0100
,
0010
0000
1000
0000
2002
0000
0000
3003
,
0001
0100
0001
0010
,
0001
0010
0100
1000
,
0100
0010
0100
0000
1000
0000
0000
0010
,
0000
0000
0100
0010
0100
0000
0000
0001
,
0000
0000
0010
0100
0010
0000
0010
0002
,
2000
0000
0000
3003
,
1000
0001
0110
1001
,
1000
0100
0010
0001
,
1000
0100
0010
0001
,
0010
0100
0010
0000
0001
0000
0100
0000
,
0010
0000
1000
0100
1000
0000
1001
0000
,
0001
0100
0010
1000
,
0001
0100
0010
1000
,
0100
0010
0100
0000
0010
0000
0001
0000
,
1000
0000
0001
0100
0001
0000
1001
0000
,
0010
0100
0010
0000
0001
0000
1000
0000
,
0010
0100
0010
0000
0100
0000
0001
0000
,
0100
0010
1000
0001
,
1000
0000
0001
0100
0001
0000
1001
0000
,
1000
0100
1000
0000
0100
0000
0010
0000
,
0001
0010
0001
0000
0010
0000
0001
0000
,
0101
0101
1010
1010
,
1000
0000
0001
1000
0001
0000
1001
0000
,
0220
0000
0000
0000
0000
0000
0000
0330
0000
0000
0000
0000
0000
0000
0000
0000
;

//--------------- dance-single - FrozenRay ----------------
#NOTES:
     dance-single:
     FrozenRay:
     Hard:
     12:
     0,0,0,0,0:
0000
0000
0000
0000
,
0000
0000
0000
0000
,
0000
0000
0000
0000
,
0000
0000
0000
0000
,
0000
0000
0000
0000
,
1000
0001
1000
0100
,
0010
0000
0001
0000
1100
0000
0000
1000
,
0000
0000
0100
0000
0010
0000
0001
0000
1000
0000
0000
0001
0000
0000
0100
0000
,
0000
0000
0010
0000
1000
0000
0010
0000
0100
0000
0000
0001
0000
0000
0100
0000
,
0000
0001
0100
0010
1000
0100
1000
0200
,
0010
0010
0020
0330
,
1100
0011
0101
0010
,
1000
0100
1000
0010
1000
0100
1000
0010
,
1000
0100
0010
0100
0010
0100
1000
0010
,
0100
0010
0100
0001
0010
0100
1000
0100
,
1100
0000
0000
0000
0010
0000
1000
0000
0001
0000
0001
1000
0000
0000
0000
0000
,
0001
0100
0001
0010
0001
0100
0001
0010
,
0001
0100
0010
0100
0010
0100
0001
0010
,
0100
0010
0100
1000
0010
0100
0001
0100
,
0101
0000
0000
0000
0010
0000
0001
0000
1000
0000
1000
0001
0000
0000
0000
0000
,
1100
0000
0000
0000
0000
0000
0100
0000
1000
0000
0000
1000
0000
0000
0000
0000
,
0101
0000
0000
0000
0000
0000
0001
0000
1000
0000
0000
0010
0000
0000
0000
0000
,
1010
0000
0000
0000
0000
0000
1000
0000
0001
0000
0000
0010
0000
0000
0100
0000
,
0010
0000
0000
0100
0000
0000
1000
0000
1000
0000
0000
0000
0000
0000
1000
0100
,
1000
0000
0000
0001
0001
0010
0000
0100
,
0000
1000
0000
0100
0000
0010
0001
0000
,
0010
0100
1000
0010
0000
0000
0000
0100
,
0001
0010
0001
0010
0000
1100
0000
0000
,
0001
0000
0100
0000
0001
0000
0100
0000
0010
0000
0100
0010
0000
0000
0100
0000
,
0001
1000
0100
0010
0100
0000
0110
0000
,
1000
0000
0100
0000
1000
0000
0010
0000
0100
0000
0001
0100
0000
0000
0001
0000
,
0101
1010
0110
0101
,
0100
0010
0100
0001
0100
0010
1000
0010
,
0100
0000
0001
0000
0010
0000
0100
0000
1000
0000
0000
0000
0000
0000
0010
0100
,
0010
0000
0000
0000
0000
0000
0001
0100
0001
0000
0000
0000
1001
0000
0000
0000
,
1000
0000
0000
0010
0000
0000
0202
0000
0000
0000
0000
0000
0000
0303
0000
0000
,
1000
0000
1000
0100
0000
0000
0010
0000
0010
0001
0000
0000
0001
0000
0001
0100
0000
0000
0010
0000
0010
1000
0000
0000
,
1000
0000
1000
0001
0000
0000
0001
0000
0001
1000
0000
0000
0100
0000
0100
0010
0000
0000
0010
0100
1000
0010
0000
0000
,
0001
0000
0001
0100
0000
0000
0010
0000
0010
1000
0000
0000
1000
0000
1000
0100
0000
0000
0010
0000
0010
0001
0000
0000
,
0011
0000
0000
0100
0000
0000
1000
0000
0100
0000
0000
1100
0000
0000
0010
0000
,
0001
0000
0000
0100
0000
0000
0010
0000
1000
0000
0000
1000
0000
0000
0100
0000
,
0010
0001
0100
0010
0100
0010
1000
0100
,
0010
0000
1001
0000
0202
0000
0000
0303
,
1000
0000
0000
0001
0000
0000
0010
0000
0010
0000
0000
0000
1001
0000
0000
0000
,
0001
0010
0001
0010
0001
0010
0100
1000
,
0100
0010
0100
1000
0010
0100
0001
0010
,
1000
0010
0001
0010
1000
0010
0001
0100
,
0010
0000
0000
0100
0000
0000
0101
0000
0000
0000
2002
0000
0000
0000
3003
0000
,
1000
0100
1000
0100
1000
0100
0010
0001
,
0010
0100
0010
0001
0100
0010
1000
0100
,
0010
0100
1000
0100
1100
0000
0000
0011
,
0000
0001
0100
0010
1000
0000
1001
0000
,
0001
0010
0001
0010
0001
0010
0100
1000
,
0100
0010
0100
1000
0010
0100
0001
0010
,
1000
0010
0001
0010
1000
0010
0001
0100
,
0010
0000
0000
1000
0000
0000
0101
0000
0000
0000
2002
0000
0000
0000
3003
0000
,
0001
0100
0001
0100
0001
0100
0010
1000
,
0010
0100
0010
1000
0100
0010
0001
0100
,
0000
0000
0100
0000
0010
0000
1000
0000
0001
0000
0000
1000
0000
0000
0010
0000
,
0000
0000
1000
0000
0100
0000
0010
0000
0001
0000
0000
0100
0000
0000
0001
0000
,
0000
0001
0010
0100
1000
0100
0010
0002
,
1000
1000
1000
1003
,
1100
0101
1001
0110
,
1000
0010
1000
0100
1000
0010
1000
0100
,
1000
0010
0100
0010
0100
0010
1000
0100
,
0010
0100
0010
0001
0100
0010
1000
0000
,
1000
0000
0001
0000
1000
0000
0100
0000
1000
0000
0001
1000
0000
0000
0000
0000
,
0001
0010
0001
0100
0001
0010
0001
0100
,
0001
0010
0100
0010
0100
0010
0001
0100
,
0010
0100
0010
1000
0100
0010
0001
0000
,
0001
0000
1000
0000
0001
0000
0100
0000
0001
0000
1000
0001
0000
0000
0000
0000
,
0001
0100
0001
0010
0001
0100
0001
0010
,
0001
0100
0010
0100
0010
0100
0001
0010
,
0100
0010
0100
1000
0010
0100
0001
0000
,
0001
0000
1000
0000
0001
0000
0100
0000
0001
0000
1000
0001
0000
0000
0000
0000
,
1000
0100
1000
0010
1000
0100
0020
0030
,
0001
0000
0010
0000
0001
0000
1000
0000
0100
0000
0000
0010
0000
0000
0001
0000
,
0100
0001
0100
0001
0100
0000
0000
0000
0001
1000
0001
1000
0001
0000
0000
0000
,
1000
0000
0001
0000
0010
0000
0001
0000
1000
0000
0001
1000
0000
0000
0000
0000
,
0220
0000
0000
0000
0000
0000
0000
0330
0000
0000
0000
0000
0000
0000
0000
0000
;
