#TITLE:Panoramarium;
#SUBTITLE:;
#ARTIST:Happy Around!;
#TITLETRANSLIT:;
#SUBTITLETRANSLIT:;
#ARTISTTRANSLIT:;
#GENRE:;
#CREDIT:;
#MUSIC:Panoramarium.ogg;
#BANNER:Panoramarium.png;
#BACKGROUND:Panoramarium-bg.png;
#CDTITLE:;
#SAMPLESTART:59.159;
#SAMPLELENGTH:22.826;
#SELECTABLE:YES;
#OFFSET:-0.463;
#BPMS:0.000=184.000
,52.000=92.000
,100.000=184.000
,312.000=92.000
;
#STOPS:;
#BGCHANGES:;
#FGCHANGES:;

//--------------- dance-single - FrozenRay ----------------
#NOTES:
     dance-single:
     FrozenRay:
     Hard:
     11:
     0,0,0,0,0:
0000
0000
0000
0000
,
0000
0000
0000
0000
,
0000
0000
0000
0000
,
0000
0000
0000
0000
,
0000
0000
0000
0000
,
0101
0000
0001
1000
0010
0000
0001
0100
,
0010
0000
0001
1000
0010
0000
1010
0000
,
1100
0000
1000
0001
0010
0000
1000
0001
,
0100
0000
1000
0001
0010
0000
0011
0000
,
0110
0000
1000
0100
0001
0000
1000
0010
,
0001
0000
1000
0100
0001
0000
0101
0000
,
1100
0000
0100
1000
0010
0000
0100
0001
,
0010
0000
0100
1000
0010
0000
0101
0000
,
0002
0000
1000
1000
0000
0003
0010
0020
0000
0000
0100
0100
0000
0031
0000
0000
,
1000
0000
0010
0100
0000
0000
0202
0000
0000
0000
0303
0000
0000
1000
0001
0100
,
0000
0000
0010
0020
0000
0000
1030
2000
0000
3000
0100
0010
0000
0100
0010
0002
,
0000
0000
0000
0003
0000
0100
0010
2000
0000
0000
0000
3000
0000
0001
0100
0001
,
2000
0000
0001
0001
0000
3000
0010
0020
0000
0000
0100
0130
0000
1000
0000
0000
,
0001
0000
0010
0100
0000
0000
2200
0000
0000
0000
3300
0000
0000
0001
1000
0100
,
0010
0000
0010
0020
0000
0001
0032
0000
0103
0100
0000
0010
1000
0100
0010
0001
,
1000
0000
0001
0100
0000
0001
2000
0200
0000
0000
0000
0000
3300
0000
0000
0000
,
0022
0000
0033
0000
0000
0000
0000
0000
0000
0000
0011
0000
0000
0110
0000
0000
,
2002
0000
3003
0000
0000
0000
0000
0000
0000
0000
1001
0000
0000
0110
0000
0000
,
0202
0000
0303
0000
0000
0000
0000
0000
0000
0000
0101
0000
0000
0110
0000
0000
,
2020
0000
3030
0000
0000
0000
0000
0000
0000
0000
1010
0000
0000
1100
0000
0000
,
1000
0000
1000
0001
1000
0000
1000
0100
,
1000
0000
1000
0010
0100
0010
0100
0001
,
0101
0000
1000
0001
0100
0000
0100
0001
,
0010
0000
1000
0100
1000
0010
0100
0010
,
0110
0000
1000
0001
0010
0000
0010
0100
,
0000
1000
0001
0010
0000
0001
0000
1000
,
0010
0000
0010
0001
0000
0020
0200
0000
,
0000
0000
0000
0000
0000
0330
0000
0000
,
2200
0000
3300
0022
0000
0033
2200
0000
,
3300
0001
0100
0001
0001
0100
0101
0000
,
1001
0000
0100
0000
0001
0010
0001
0100
,
0000
0101
0000
0010
0100
0001
0000
1000
,
0100
0000
0001
0100
0000
1000
0010
0001
,
0000
0001
0010
1000
0100
0010
0100
1000
,
1001
0000
0100
0000
0011
0000
0100
1000
,
0000
0100
0000
1000
0100
0020
0000
0031
,
0002
0000
0103
0200
0300
0010
1000
0200
,
0001
0000
0000
1000
0000
0000
1300
0000
,
0100
1010
0100
0011
,
0100
1010
0100
0011
,
0010
1100
0010
0101
,
0010
1100
0110
0011
,
1001
0000
0100
0000
0010
0000
0100
0001
,
0000
1000
0000
0001
0100
0020
0000
1030
,
2000
0000
3100
0200
0300
0010
0001
0200
,
0000
0000
1000
0301
,
1100
0000
1000
0001
0010
0000
1000
0100
,
0010
0000
1000
0001
0010
0000
0011
0000
,
0101
0000
0001
1000
0010
0000
0001
1000
,
0100
0000
0001
1000
0010
0000
1010
0000
,
0110
0000
0001
0100
1000
0000
0001
0010
,
1000
0000
0001
0100
1000
0000
0110
0000
,
0101
0000
0100
0001
0010
0000
0100
1000
,
0010
0000
0100
0001
0010
0000
1100
0000
,
0010
0101
0010
1100
,
0010
1001
0010
1001
,
0100
1100
0010
0011
,
0100
1010
0101
1010
,
0202
0000
0303
0000
0000
0000
0000
0110
,
0000
2020
0000
3030
0000
0000
0110
0000
,
0001
0000
1000
0100
0000
0010
1000
0001
,
0100
0000
0001
0100
0000
1000
0001
0100
,
0110
0000
0010
0000
1000
0000
0010
0100
,
0000
0001
0000
0010
0001
0100
0000
0100
,
0100
0000
0001
0001
0000
0010
0200
2000
,
0000
0000
0000
3300
0000
1000
0001
0100
,
0010
1100
0010
0101
,
0010
1100
0010
0101
,
0100
1010
0100
0011
,
0100
1010
0110
0101
,
1001
0000
0010
0000
0100
0000
0010
1000
,
0000
0010
0000
0001
0010
0200
0000
1300
,
2000
0000
3010
0020
0030
0100
0020
0200
,
0000
0000
0000
0000
0330
0000
0000
0000
0101
0000
0001
0001
0000
0000
0010
0020
,
0000
0000
0100
0130
0000
0001
0000
0000
0001
0000
0010
0100
0000
0000
2200
0000
,
0000
0000
3300
0000
0000
0001
1000
0100
0000
0000
0010
0020
0000
0000
0001
0002
,
0030
0003
0100
0010
0000
0100
0010
2000
0000
0000
0000
3000
0000
0100
0020
0002
,
0000
0000
0000
0033
2002
0000
0000
0000
,
0000
0000
3003
0000
;
