#TITLE:PARTY☆NIGHT;
#SUBTITLE:;
#ARTIST:Happy Around!;
#TITLETRANSLIT:;
#SUBTITLETRANSLIT:;
#ARTISTTRANSLIT:;
#GENRE:;
#CREDIT:;
#MUSIC:PARTYNIGHT.ogg;
#BANNER:PARTYNIGHT.png;
#BACKGROUND:PARTYNIGHT-bg.png;
#CDTITLE:;
#SAMPLESTART:89.215;
#SAMPLELENGTH:12.973;
#SELECTABLE:YES;
#OFFSET:-0.026;
#BPMS:0.000=148.000;
#STOPS:;
#BGCHANGES:-0.026=PARTYNIGHT.mp4=1.000=0=0=1,
99999.000=-nosongbg-=1.000=0=0=0=StretchNoLoop====
;
#FGCHANGES:;

//--------------- dance-single - FrozenRay ----------------
#NOTES:
     dance-single:
     FrozenRay:
     Hard:
     10:
     0,0,0,0,0:
0000
0000
0000
0000
,
0000
0000
0000
0000
,
0000
0000
0000
0000
,
1000
0000
0001
0000
0100
0001
0000
0100
,
0000
0010
0100
0010
1000
0000
0101
0000
,
2000
0010
0010
3010
,
0100
0000
0100
1000
0000
0001
0000
0000
,
0020
0001
0001
0031
,
0100
0000
0100
0020
0000
0000
0030
1000
,
0100
0010
0000
0002
0000
0000
0003
0100
,
0010
1000
0000
0200
0000
0000
0300
0010
,
0100
1000
0000
0020
0000
0000
1030
0000
,
0001
0000
2000
0002
0000
0000
3003
0000
,
0201
0001
0001
0301
,
1001
0000
1000
0001
0000
0100
0000
0000
,
1020
1000
1000
1030
,
1001
0000
0000
0000
0001
0000
1000
0000
0100
0000
0000
0010
0100
0000
0100
0000
,
1000
0010
0000
1000
0000
1010
0000
0100
,
0001
0010
0000
0001
0000
1100
0000
0100
,
1000
0001
0000
0100
0000
0110
0100
0000
,
0001
0000
1000
0020
0000
0100
0130
0000
,
2001
0000
3100
0000
,
1002
0000
0103
0000
,
0021
0000
0130
0000
,
1020
0000
0130
0000
,
2100
0000
3010
0000
,
0102
0000
0000
0000
0013
0000
0000
0001
,
1000
0100
1000
0000
1000
0000
1000
0010
,
1000
0100
0010
0000
0010
0000
0011
0000
,
1000
0100
1000
0100
1000
0001
1000
0002
,
2000
0000
0000
3003
,
0110
0000
1000
0001
0000
0010
0110
0000
,
0001
0000
0101
0000
0001
0101
0000
0000
,
0110
0000
1000
0001
1000
0000
0011
0000
,
1000
0000
0011
0000
0100
0110
0000
0000
,
2002
0000
0000
3003
1001
0000
0110
0000
,
0010
0100
1100
0000
1000
1100
0000
0000
,
0001
0010
0100
0010
0001
0010
0100
0010
,
0100
1000
0010
0100
0010
1000
0010
0000
,
0102
0100
0100
0103
,
2010
0010
0010
3010
,
0010
1000
0010
0100
0001
1000
0000
0001
,
0000
0010
0100
1000
0001
0000
0001
0000
,
2100
0100
0100
3100
,
0012
0010
0010
0013
,
0010
0001
0010
0100
1000
0001
0000
1000
,
0000
0010
0100
0001
0000
0011
0000
0001
,
2001
0001
0001
3001
,
0102
0000
0000
0000
0100
0000
0000
0000
0103
0000
0000
0001
0100
0000
0010
0000
,
1000
0100
1000
0010
1000
0001
0000
0011
,
0000
0001
0010
0100
1000
0000
1100
0000
,
0001
0100
0001
0100
0010
0100
0010
0100
,
0001
1000
0001
1000
0010
1000
0010
0000
,
1000
0100
1000
0100
0010
0001
0000
0001
,
0000
0020
0200
0000
0000
0000
0330
0000
,
1100
0000
0000
0100
1000
0000
0000
1000
0100
0000
0000
0100
0001
0000
0000
0001
,
0100
0000
0000
0100
1000
0000
0000
1000
0010
0000
0000
0010
0100
0000
0000
0100
,
0001
0000
0000
0001
0100
0000
0000
0100
1000
0000
0000
1000
0100
0000
0000
0100
,
0001
0000
0000
0001
0010
0000
0000
0010
0001
0000
0000
0001
1000
0000
0000
0000
,
0110
0000
0000
0100
1000
0000
0000
1000
0010
0000
0000
0010
0100
0000
0000
0100
,
0001
0000
0000
0001
1000
0000
0000
0010
0100
0000
0000
0100
0001
0000
0000
0000
,
1000
0001
0010
0001
0010
0100
0000
1000
,
0000
0001
0100
0010
0000
0101
0000
1010
,
0000
0000
0000
0000
1001
0000
0000
0001
1000
0000
0000
1000
0001
0000
0000
0001
,
0100
0000
0000
0100
1000
0000
0000
1000
0001
0000
0000
0001
0010
0000
0000
0010
,
1000
0000
0000
1000
0001
0000
0000
0001
1000
0000
0000
1000
0100
0000
0000
0100
,
0001
0000
0000
0001
1000
0000
0000
1000
0010
0000
0000
0010
0001
0000
0000
0000
,
1001
0000
0000
0001
1000
0000
0000
1000
0001
0000
0000
0001
0100
0000
0000
0100
,
0010
0000
0000
0010
1000
0000
0000
1000
0010
0000
0000
0010
0100
0000
0000
0100
,
0001
0100
0010
1000
0010
1000
0000
0100
,
0000
0020
0002
0000
0000
0000
0033
0000
,
0001
0000
1000
0000
0100
0100
0000
0010
,
0000
0001
0100
0010
1000
0000
0001
0000
,
1100
0000
0000
0000
;
