#TITLE:Open! GO MY WAY★;
#SUBTITLE:;
#ARTIST:Happy Around!;
#TITLETRANSLIT:;
#SUBTITLETRANSLIT:;
#ARTISTTRANSLIT:;
#GENRE:;
#CREDIT:;
#MUSIC:Open GO MY WAY.ogg;
#BANNER:Open GO MY WAY.png;
#BACKGROUND:Open GO MY WAY-bg.png;
#CDTITLE:;
#SAMPLESTART:96.807;
#SAMPLELENGTH:10.667;
#SELECTABLE:YES;
#OFFSET:0.526;
#BPMS:0.000=90.000
,24.000=180.000
,76.000=90.000
,92.000=180.000
,124.000=90.000
,132.000=180.000
;
#STOPS:;
#BGCHANGES:;
#FGCHANGES:;

//--------------- dance-single - FrozenRay ----------------
#NOTES:
     dance-single:
     FrozenRay:
     Hard:
     10:
     0,0,0,0,0:
0000
0000
0000
0000
,
0000
0000
0000
0000
,
0000
0000
0000
0000
,
0000
0000
0000
0000
,
0001
0000
0000
0000
0000
0000
0010
0000
0000
0100
0000
0000
1000
0000
0000
0000
0000
0000
0001
0000
1000
0000
0100
0000
,
0010
0000
0001
0100
0010
0000
1000
0000
,
1001
0000
0001
1000
0001
0000
0001
0000
,
0110
0000
0100
0010
0100
0000
0100
0000
,
1000
0100
1000
0100
1000
0100
0010
0002
,
0020
0000
0000
0000
0000
0000
0000
0033
,
1000
1010
0001
0011
,
1000
1010
0001
0011
,
2000
0000
3100
0010
0001
0000
1000
0000
,
0002
0000
0013
0100
1000
0000
0001
0000
,
1000
0101
0001
1100
,
1000
0101
0001
1100
,
1000
0100
0010
0001
0010
0100
0010
0001
,
0000
0000
0001
0000
0000
0000
0001
0100
0001
0000
0100
0000
0010
0000
0000
0000
,
0110
0000
0110
0000
1000
0010
1000
0000
,
0100
0000
0000
0010
0001
0000
0001
0010
0000
0001
0010
0100
0000
0000
0001
0000
,
1100
0000
0000
1000
0100
0000
0100
1000
0000
1000
0000
0010
0100
0000
1010
0000
,
0002
0000
0000
0003
2000
0000
0000
0100
3100
0000
0000
0000
0011
0000
0000
0010
,
0100
0000
1000
0100
1000
0000
1000
0001
1000
0000
0001
0010
0001
0000
1001
0000
,
0010
0000
1000
0100
0000
0001
0010
0001
,
0100
0100
0010
0100
0000
0010
1000
0100
,
0000
0100
1000
0001
0000
0001
0100
0010
,
0000
0100
0010
0100
0001
0000
0101
0000
,
0100
0000
0001
0100
0000
0001
0100
0001
,
0100
0100
0010
0100
0000
0010
0100
0001
,
1000
0000
0000
0010
0010
1000
0000
1100
,
0000
0001
0010
0100
0010
0000
1100
0000
,
2002
0000
0000
3000
0000
0000
0003
0000
0000
1000
0000
0000
0001
0000
0000
0000
0000
0000
0100
0000
0000
0001
0000
0000
0100
0000
0000
0000
0010
0000
0000
0000
0100
0000
0000
0000
1001
0000
0000
0000
0000
0000
0001
0000
0000
0000
0000
0000
,
0100
1000
0100
0010
0001
0010
0100
0000
0001
0100
0010
0100
0010
0000
1000
0000
,
0001
1000
0010
1000
0010
0100
0001
0001
,
0010
0100
0010
0100
1000
0000
0011
0000
,
0001
0100
0001
0100
0010
1000
0010
2000
,
0002
0000
0000
0000
0000
0000
0000
3003
,
1000
1000
0100
1000
0000
0010
0000
0001
,
0100
0000
0000
0001
0000
0000
1000
0000
0000
0010
0000
0000
0000
0000
0000
1000
0000
0000
0000
0000
0100
0000
0000
0000
,
0012
0000
0000
0000
0010
0000
0000
0000
0010
0000
0000
0000
0013
0000
0001
0100
,
0002
0000
0100
0000
0100
0000
0100
0003
,
0202
0000
0303
2020
0000
3030
0220
0000
,
0330
0010
0010
0000
0000
1000
0100
0010
,
0001
0000
1100
0000
1000
0100
0000
1000
,
0000
0100
0010
0002
1000
0000
1000
0003
,
0101
0000
1010
0000
0001
0100
0000
0010
,
0000
0100
0001
0100
0020
0000
1030
0000
,
1000
0100
1000
0100
1000
0001
0000
0101
,
0000
0001
0100
0020
0000
0000
0030
1000
,
0100
0001
1100
0001
,
2100
0000
0000
0001
3001
0000
0000
0000
,
1000
0000
0101
0000
0001
0100
0000
0001
,
0000
0100
0010
2000
0001
0000
3001
1000
,
0200
1300
2000
3001
,
0010
0100
1000
0100
0020
0000
0031
0000
,
0001
0100
0001
0100
0001
1000
0000
1100
,
0000
1000
0100
0010
0000
1000
0000
0001
,
2000
0010
0010
3010
,
0102
0000
0100
0003
0210
0000
0020
0300
,
0000
0100
0200
0000
0000
0000
0000
0330
,
1000
0001
1000
0002
2000
0000
0000
3003
,
1000
1010
0001
0011
,
1000
1010
0001
0011
,
2000
0000
3100
0010
0001
0000
1000
0000
,
0002
0000
0013
0100
1000
0000
0001
0000
,
1000
0101
0001
1100
,
1000
0101
0001
1100
,
1000
0100
0010
0001
0010
0100
0010
0001
,
0000
0000
0001
0000
0000
0000
0001
0100
0001
0000
0100
0000
0010
0000
0000
0000
,
1000
1100
0001
0101
,
1000
1100
0001
0101
,
2000
0000
3010
0100
0001
0000
1000
0000
,
0002
0000
0103
0010
1000
0000
0001
0000
,
1000
0011
0001
1010
,
1000
0011
0001
1010
,
1000
0010
0100
0001
0100
0010
0100
0001
,
0000
0000
0001
0000
0000
0000
0001
0010
0001
0000
0010
0000
0100
0000
0000
0000
,
0010
0100
0000
1000
0001
2000
0001
0000
,
0200
0000
0000
0000
,
0000
0000
0000
0000
0000
0000
0000
3300
;
