#TITLE:Let's do the 'Big-Bang!';
#SUBTITLE:;
#ARTIST:Peaky P-key;
#TITLETRANSLIT:;
#SUBTITLETRANSLIT:;
#ARTISTTRANSLIT:;
#GENRE:;
#CREDIT:;
#MUSIC:Let's do the 'Big-Bang!'.ogg;
#BANNER:Let's do the 'Big-Bang!'.png;
#BACKGROUND:Let's do the 'Big-Bang!'-bg.png;
#CDTITLE:;
#SAMPLESTART:13.684;
#SAMPLELENGTH:20.757;
#SELECTABLE:YES;
#OFFSET:-3.306;
#BPMS:0.000=185.000;
#STOPS:;
#BGCHANGES:;
#FGCHANGES:;

//--------------- dance-single - FrozenRay ----------------
#NOTES:
     dance-single:
     FrozenRay:
     Hard:
     11:
     0,0,0,0,0:
0000
0000
0000
0000
,
0000
0000
0000
0000
,
0000
0000
0000
0000
,
0000
0000
0000
0000
,
1000
0001
0100
0001
0000
0001
0010
0000
,
0100
1000
0001
1000
0000
1000
0100
0000
,
0010
0001
0100
0010
0000
1000
0100
0000
,
0010
0001
0010
0100
0000
0100
1000
0000
,
0001
0010
0100
0010
0001
0010
0100
1000
,
0000
1000
1000
0000
0001
0100
0010
0100
,
0000
0010
1000
0000
1000
0100
0010
0100
,
0000
0010
0001
0000
1100
0000
0011
0000
,
0001
0010
0100
0010
0001
0010
0100
1000
,
0000
1000
0001
0000
0001
0100
0010
1000
,
0000
0100
1000
0000
1000
0100
0010
0001
,
0000
0100
0001
0000
0101
0000
1010
0000
,
1000
0010
0100
0010
1000
0010
0100
0001
,
0000
0001
1000
0000
1000
0010
0100
0001
,
0000
0010
0100
0000
0010
0100
1000
0010
,
0000
0100
0001
0000
0101
0000
1010
0000
,
0100
0010
0100
0001
0010
0100
1000
0100
,
0010
0100
1000
0100
0010
0001
0100
0010
,
0000
0100
0001
0000
0100
0010
0100
0010
,
0000
0000
0000
1000
0000
0000
0001
0000
0000
0000
0000
0000
1000
0000
0000
0000
0001
0000
0000
0000
1000
0000
0000
0000
,
0200
0020
0000
0000
0000
0000
0000
0000
,
0000
0000
0330
0000
0001
0100
0010
2000
,
0000
0010
0000
0001
0000
0000
0100
0000
,
0001
0000
3100
0000
1000
0100
0010
0002
,
0000
0010
0000
1000
0000
0000
0100
0000
,
1000
0100
0010
0103
,
0001
0100
0001
0100
0001
1000
0001
1000
,
0000
0001
0100
0000
1000
0010
1000
0000
,
0000
0000
0001
0100
0010
0000
0100
0000
0010
0000
0100
0000
0001
0000
1000
0000
,
0000
0001
0100
0000
1000
0010
1000
0000
,
1100
0000
0100
0010
0100
1000
0010
0100
,
0000
0001
0100
0000
0001
0010
0100
1000
,
0001
0010
0100
1000
0100
1000
0010
0100
,
0000
0100
0001
0000
1000
0001
1000
0000
,
1000
0100
0001
0100
1000
0100
0001
0100
,
0000
1000
0010
0000
0001
1000
0001
0000
,
0001
0100
1000
0100
0001
0100
1000
0100
,
0000
0001
0010
0000
0001
1000
0010
0000
,
0101
0000
1002
0000
0000
1003
0000
1000
,
0000
0010
0100
0001
0100
0010
1000
0100
,
0010
0000
0001
0000
0010
0001
0000
0100
,
0010
0000
0000
1000
0000
0000
0001
0000
0100
0000
0010
0000
,
1000
0000
0001
0000
0010
0000
0001
0000
0100
0000
0001
0000
,
0020
0100
0130
0100
,
1010
0100
0011
0100
,
0001
1010
1000
0011
,
0100
1010
0101
1010
,
0200
0010
0310
0010
,
1001
0110
1001
0110
,
1000
0101
0001
1100
,
1000
1100
0011
1100
,
2001
0000
0001
0000
3001
1000
0001
1000
,
0002
1000
1000
1003
,
0120
0000
0100
0030
0100
0001
0100
0010
,
0200
0001
0001
0301
,
0120
0000
0100
0030
0100
0010
1000
0010
,
0200
0001
1000
0301
,
0101
0000
0000
0000
0010
0000
0000
1100
,
0000
0100
1000
0000
0100
1000
0010
0000
,
0101
0000
0000
0000
0001
0000
0000
0110
,
0000
0100
0001
0100
0001
0100
0001
1000
,
0000
1000
0001
1000
0000
0100
0010
0100
,
0000
0100
0010
0001
0000
0001
0010
0100
,
1000
0010
0100
0010
1000
0010
0100
0001
,
0000
1000
1000
0000
0001
0100
0010
0100
,
0000
0010
1000
0000
1000
0100
0010
0100
,
0000
0010
0001
0000
1100
0000
0011
0000
,
0001
0010
0100
0010
0001
0010
0100
1000
,
0001
1000
0001
0010
0001
0100
0010
1000
,
0000
0100
1000
0000
1000
0100
0010
0001
,
0000
0100
0001
0000
0101
0000
1010
0000
,
1000
0010
0100
0010
1000
0010
0100
0001
,
1000
0001
1000
0100
1000
0010
0100
0001
,
0000
0010
0100
0000
0010
0100
1000
0010
,
0000
0100
0001
0000
0101
0000
1010
0000
,
1000
0010
0100
0001
0010
0100
1000
0100
,
0010
0000
0100
0000
1000
0000
0100
0000
0010
0000
0001
0000
0100
0000
0010
0100
,
0010
0100
0000
0100
0001
0100
0000
0100
,
0010
1000
0000
1000
0100
1000
0000
1000
,
0100
0010
0002
0010
0000
0013
0100
2000
,
0001
0001
0001
3001
,
0001
0100
0010
1000
0000
1000
0100
0020
,
0100
0100
0100
0130
,
1000
0000
0100
0000
0010
0000
0001
0000
0000
0000
0001
0000
0010
0000
0002
0003
,
0000
0000
0200
0300
0000
0000
0020
0030
0000
0000
0200
0300
0000
0000
0002
0003
,
0000
0000
0020
0030
0000
0000
0200
0300
0000
0000
2000
3000
0000
0000
2200
3300
;
