#TITLE:Let us sing "Peaky!!";
#SUBTITLE:;
#ARTIST:Peaky P-key;
#TITLETRANSLIT:;
#SUBTITLETRANSLIT:;
#ARTISTTRANSLIT:;
#GENRE:;
#CREDIT:;
#MUSIC:Let us sing Peaky!!.ogg;
#BANNER:Let us sing Peaky!!.png;
#BACKGROUND:Let us sing Peaky!!-bg.png;
#CDTITLE:;
#SAMPLESTART:70.145;
#SAMPLELENGTH:13.286;
#SELECTABLE:YES;
#OFFSET:-0.502;
#BPMS:0.000=140.000;
#STOPS:;
#BGCHANGES:-0.502=Let us sing Peaky!!.mp4=1.000=0=0=1,
99999.000=-nosongbg-=1.000=0=0=0=StretchNoLoop====
;
#FGCHANGES:;

//--------------- dance-single - FrozenRay ----------------
#NOTES:
     dance-single:
     FrozenRay:
     Hard:
     10:
     0.573443,0.678666,0.643285,0.377394,0.351663,468,393,75,44,0,0,0.573443,0.678666,0.643285,0.377394,0.351663,468,393,75,44,0,0:
0000
0000
0000
0000
,
0000
0000
0000
0000
,
0000
0000
0000
0000
,
0000
0000
0000
0000
,
0010
0000
0000
0001
0000
0000
1000
0000
0000
0000
0000
0000
0000
0000
1000
0010
,
1000
0000
0000
0001
0000
0000
0010
0000
0000
0000
0100
0000
0000
0000
0000
0000
,
1100
0000
0000
0010
0000
0000
0011
0000
0000
0000
0000
0000
0001
0000
0000
0000
,
0010
0000
0000
0010
0000
0000
0010
0000
0100
0000
0100
1000
0100
0000
0010
0000
,
0001
0000
0000
1000
0000
0000
2020
0000
0000
0000
0000
0000
3030
0000
0000
0000
,
0010
0000
0000
1000
0000
0000
0022
0000
0000
0000
0000
0000
0033
0000
0000
0000
,
1000
0000
0000
0100
0000
0000
0022
0000
0000
0000
0033
0000
0002
0000
0010
0000
,
0000
0010
0010
0010
1000
1000
1003
0010
,
0001
0000
0000
1000
0000
0000
2020
0000
0000
0000
0000
0000
3030
0000
0000
0000
,
0010
0000
0000
1000
0000
0000
0002
0000
0000
0000
0103
0000
0000
0000
0000
0000
,
1000
0000
0000
0000
0000
0000
0000
0000
0000
0000
0000
0000
0000
0000
0000
0000
0000
0000
0000
0000
0000
0000
0000
0000
0000
0000
0000
0000
0000
0000
0000
0000
0000
0000
0000
0000
0100
0000
0000
0000
0000
0000
0000
0000
0000
0000
0000
0000
0000
0000
0000
0000
0000
0000
0000
0000
0000
0000
0000
0000
0000
0000
0000
0000
0000
0000
0000
0000
0000
0000
0000
0000
0022
0000
0000
0000
0000
0000
0000
0000
0000
0000
0000
0000
0000
0000
0000
0000
0000
0000
0000
0000
0000
0000
0000
0000
0000
0000
0000
0000
0000
0000
0000
0000
0000
0000
0000
0000
0000
0000
0000
0000
0000
0000
0000
0000
0000
0000
0000
0030
0003
0000
0000
0000
0000
0000
0000
0000
0000
0000
0000
0000
0000
0000
0000
0000
0000
0000
0000
0000
0000
0000
0000
0000
0002
0000
0000
0000
0000
0000
0000
0000
0000
0000
0000
0000
0000
0000
0000
0000
0000
0000
0000
0000
0000
0000
0000
0000
0000
0000
0000
0000
0000
0000
0000
0000
0000
0000
0000
0000
0000
0000
0000
0000
0000
0000
0000
0000
0000
0000
0000
0000
,
0100
0100
0100
0100
1000
1003
0100
0000
,
1000
0000
0000
0100
1000
0000
0100
0010
0000
0000
0001
0000
0001
0000
1000
0000
,
1000
0000
0000
0010
1000
0000
0010
0100
0000
0000
0001
0000
1000
0000
0010
0000
,
0000
0000
0010
0000
1000
0000
0001
0000
0010
0000
0100
0010
0000
0000
0001
0000
,
0001
0000
0010
0000
0100
0000
0010
0000
0001
0000
0100
0010
0000
0000
0001
0000
,
1000
0000
0010
0100
0000
0000
1000
0000
0010
0000
0100
0001
0000
0000
0001
0000
,
0010
0000
0001
0010
0000
0000
0100
0000
1000
0000
0000
0000
0110
0000
0000
0000
,
0000
1000
0000
0100
0010
0000
1000
0100
,
0001
0000
0000
0000
1000
0000
0010
0000
0001
0000
0001
0010
0000
0000
0000
0000
,
1000
0010
0100
0000
0001
0100
1000
0000
,
1000
0000
0000
0100
0000
0000
1000
0000
0001
0000
0000
0000
0101
0000
0000
0000
,
0010
0000
0000
0001
0000
0010
0000
0000
0100
0000
0010
0001
0000
1000
0000
0010
,
0100
0000
0010
0000
0001
0000
0001
0010
0100
0010
0001
0000
1000
0000
0000
0000
,
0100
0000
0000
0001
0000
0010
0001
0000
0010
0000
0001
1000
0000
0001
0000
0010
,
0100
0000
0010
0100
0000
1000
0000
0000
0001
0000
0100
0000
0010
0000
0000
0000
,
1000
0000
0000
0001
0000
0000
0001
0100
0001
0000
0010
0000
0100
0000
0100
0000
,
1000
0000
0000
1000
0000
0000
0001
0010
0000
0001
0000
1000
0100
0000
1000
0000
,
0010
0000
0000
0001
0000
0000
1000
0000
0100
0000
0000
1000
0000
0000
1000
0000
,
0002
0000
0000
0000
0000
0000
1000
0000
0100
0000
0000
0010
0000
0000
0010
0000
,
2000
0000
0000
0000
3003
0000
0100
0010
0001
0000
0000
0000
0101
0000
0000
0000
,
1001
0000
0000
0001
0100
0000
0010
0000
1000
0000
0000
0000
0101
0000
0000
0000
,
1001
0000
0000
1000
0100
0000
0010
0000
0001
0000
0000
1000
0000
0000
0100
0000
,
0010
0000
0001
0000
0010
0000
0001
0000
0010
0000
0010
0001
0000
0000
0011
0000
,
0000
0000
0001
1000
0001
0000
0001
1000
0001
0000
0001
0100
0000
0000
0110
0000
,
0000
1000
0100
1000
1000
0100
0010
0100
,
0010
0000
0001
0010
0000
0000
0001
0000
1000
0000
1000
0000
0100
0000
0010
0000
,
0001
0000
0001
0010
0100
0000
0001
0010
,
1000
0000
0000
1000
0000
0000
0010
0000
0001
0000
1000
0000
0100
0000
0000
0000
,
0011
0000
0000
0100
0000
0000
0100
0000
1000
0000
0000
0000
1100
0000
0000
0000
,
2002
0000
0000
0000
0003
3000
0001
2000
0002
0000
0000
3003
0000
0000
1000
0000
,
0010
0000
0000
1000
0100
0000
0010
0001
,
0001
0000
0000
0010
0000
0000
0100
0000
0010
0000
0000
0000
1100
0000
0000
0000
,
1000
0000
0100
1000
0000
0000
1000
0000
0010
0000
1000
0001
0000
0000
0001
0000
,
0100
0000
0000
0000
0000
0000
0000
0000
0001
0000
0100
0010
0000
0000
1000
0000
,
0001
0000
0000
0001
1000
0000
0010
0000
1000
0000
0000
0000
1000
0000
0100
0000
,
1000
0000
0010
0100
0000
0000
0001
0000
0001
0000
0100
0000
0100
0000
0000
0000
,
1000
0000
0010
1000
0000
0000
0100
0000
1000
0000
0000
0000
1100
0000
0000
0000
,
0022
0000
0000
0000
0033
0000
0001
0020
0002
0000
0000
0033
0000
0000
0001
0000
,
1000
0000
0000
0001
1000
0000
0010
0000
1000
0000
0000
0001
0010
0000
0001
0000
,
1000
0000
0000
0010
0000
0000
0100
0000
0001
0000
0000
0000
1001
0000
0000
0000
,
0001
0100
0001
0100
0001
0010
0001
0010
,
0011
0000
0000
0000
1100
0000
0000
0000
0001
0000
1000
0100
0000
0000
0010
0000
,
0001
0000
0010
0001
0010
0000
0100
0000
0010
0000
0002
0020
0000
0000
0033
0000
,
0000
0000
0010
1000
0010
0000
0100
0000
0010
0000
2000
0020
0000
0000
3030
0000
,
0000
0000
0100
0001
0100
0000
0010
0000
0100
0000
0001
0100
0000
0000
0010
0000
,
1000
0010
1000
0010
1000
0001
1000
0001
,
0000
0000
0010
0001
0010
0000
0100
0000
0010
0000
0002
0020
0000
0000
0033
0000
,
0000
0000
0010
1000
0010
0000
0100
0000
0010
0000
2000
0020
0000
0000
3030
0000
,
0101
0000
0000
1010
0000
0000
2001
0000
0000
0000
0000
0000
3001
0000
0000
0000
,
0100
0000
0010
0000
0100
0000
0010
0000
0100
0000
0000
0001
0000
0000
0100
0000
,
0101
0000
0000
0000
0001
0000
1100
0000
0000
0000
1000
0000
0101
0000
0020
0030
;
