#TITLE:Journey through the Decade;
#SUBTITLE:;
#ARTIST:RONDO;
#TITLETRANSLIT:;
#SUBTITLETRANSLIT:;
#ARTISTTRANSLIT:;
#GENRE:;
#CREDIT:;
#MUSIC:Journey through the Decade.ogg;
#BANNER:Journey through the Decade.png;
#BACKGROUND:Journey through the Decade-bg.png;
#CDTITLE:;
#SAMPLESTART:48.639;
#SAMPLELENGTH:16.457;
#SELECTABLE:YES;
#OFFSET:-2.010;
#BPMS:0.000=175.000;
#STOPS:;
#BGCHANGES:;
#FGCHANGES:;

//--------------- dance-single - FrozenRay ----------------
#NOTES:
     dance-single:
     FrozenRay:
     Hard:
     11:
     0,0,0,0,0:
0000
0000
0000
0000
,
0000
0000
0000
0000
,
0000
0000
0000
0000
,
0000
0000
0000
0000
,
0000
0000
0000
0000
,
0021
0001
0001
0031
,
1200
1000
1000
1300
,
0100
1000
1000
0010
1000
1000
0001
1000
,
1000
0010
0100
0100
0001
0010
0100
1000
,
0001
0100
0100
0010
0100
0100
0001
1000
,
0010
0000
1000
0010
0000
0100
0000
0001
,
1000
0100
0100
0010
0100
0100
1000
0001
,
0010
0000
0001
0010
0000
0100
0000
1000
,
0001
0010
0010
0100
0010
0010
0001
1000
,
0100
0000
1000
0100
0000
0010
0000
0001
,
1000
0010
0010
0100
0010
0010
1000
0001
,
0100
0000
0001
0100
0010
0000
0101
0000
,
0110
0000
0000
0100
0001
1000
0000
0001
,
0100
0000
0000
0100
1000
0001
0000
1000
,
0010
0000
0000
0010
0001
1000
0000
0001
,
0010
0000
0000
0010
1000
0001
0100
0001
,
2000
0000
0000
0001
0002
0000
0000
0000
,
3003
0000
0000
0001
0000
0010
0000
0100
,
1000
0000
0000
2000
0200
0000
0000
0000
,
0000
0000
0000
3300
0000
0000
0000
1000
,
0001
0000
0000
0001
1000
0000
0000
1000
,
0100
0000
0000
0100
0000
0000
0100
0000
0010
0000
0000
0010
0000
0000
0001
0000
,
1000
0000
0000
0200
0020
0000
0000
0000
,
0000
0000
0000
0330
0000
0000
0000
0001
,
1000
0000
0000
1000
0001
0000
0000
0001
,
0100
0000
0000
0100
0000
0000
0100
0000
0010
0000
0000
0010
0000
0000
1000
0000
,
0001
0000
0000
0000
0000
0000
0100
0010
0100
0000
0000
0000
0000
0000
0000
0000
,
0001
0000
0100
0000
0010
0000
0100
0000
0001
0000
1000
0000
,
0001
0000
0000
0000
0010
0000
0000
0000
0100
0000
0000
0000
2000
0000
0000
0000
0000
0000
0000
0000
0000
3000
0000
0000
,
0001
0000
0001
0100
0000
0100
1000
0001
,
0000
0000
0001
0010
0000
0010
0100
1000
,
0001
0000
0001
0100
0000
0001
1000
0000
,
0000
0000
0000
0100
0000
0010
0100
1000
,
0100
0000
0100
1000
0000
1000
0000
0001
,
0000
0100
0000
0010
0000
0100
0010
0100
,
0002
0000
0000
2000
0000
0000
0000
0000
,
3003
0000
0000
0001
0000
0010
0000
0100
,
1000
0000
1000
0010
0000
0010
0100
0010
,
1000
0000
0001
0100
0000
0100
2000
0002
,
0000
0000
0000
3003
0000
0001
0020
0200
,
0000
0000
0000
0000
0000
0330
0000
0000
,
1000
0000
0100
0000
0010
0100
1000
0001
,
0010
0000
0010
0100
1000
0010
0100
0010
,
0100
0000
0100
0001
0000
0001
0100
0010
,
0100
0010
1000
0001
0100
0010
0100
0001
,
1000
0000
1000
0100
0000
0000
0001
0010
,
0000
0100
1000
0100
0000
0010
0001
0010
,
0001
1000
1000
0100
0010
0010
0100
1000
,
1000
0010
0100
0001
1000
0000
1001
0000
,
0001
0000
0100
0001
0000
0001
0010
0100
,
1000
0000
0000
1000
0000
0000
1000
0000
0000
0000
0100
0000
0010
0000
0100
0000
,
1000
0000
1000
0001
0000
0001
0020
0002
,
0000
0000
0033
0000
0000
1000
0100
0010
,
0001
0000
0001
1000
0000
0000
0000
1000
,
0001
0010
0000
0001
0000
0010
0000
0100
,
1000
0001
0001
0100
0010
0010
1000
0001
,
0001
0100
0010
0010
1000
0001
0100
0010
,
0200
0000
0000
0000
,
0302
0000
0000
0000
,
2003
0000
0000
0000
0000
0000
0000
3000
,
0001
1000
0020
0000
0100
0000
0130
0000
,
2000
0000
0000
0000
,
3002
0000
0000
0000
,
0203
0000
0000
0000
,
0320
0000
0000
0030
,
2002
0000
0000
0000
,
0000
0000
0000
3003
,
0220
0000
0000
0330
,
0001
0010
0100
1000
0100
1000
0001
0010
,
0000
0000
0110
0000
0001
0010
0001
0010
,
0100
0010
0100
1000
0000
1000
0001
0010
,
0100
0010
0100
1000
0001
0100
0010
1000
,
0010
0100
0001
0100
0001
0010
0100
0010
,
0100
0000
0010
0001
1000
0001
0100
0001
,
0100
0010
0100
0001
1000
0100
0010
0001
,
1000
0100
0100
0010
0001
0001
1000
0010
,
0010
0100
0001
0001
0100
0000
0101
0000
,
2020
0000
0000
3030
,
0102
0000
0000
0100
0000
0000
0200
0000
0000
0000
0000
0000
0303
0000
0000
0000
,
2002
0000
0000
3003
,
0220
0000
0000
0000
0000
0330
0000
0010
,
0100
0000
2000
0002
0000
3003
0000
0001
,
1000
0010
0000
0100
0000
0001
0000
0010
,
0100
1000
1000
0010
1000
1000
0001
1000
,
1000
0010
0100
0100
0001
0010
0100
1000
,
0010
1000
1000
0100
1000
1000
0001
1000
,
1000
0100
0010
0010
0001
0100
0010
1000
,
0010
1000
1000
0100
1000
1000
0001
1000
,
1000
0100
0010
0010
0001
0100
0010
1000
,
0100
1000
1000
0010
1000
1000
0001
1000
,
1000
0010
0100
0100
0001
0010
0100
1000
;
