#TITLE:Infinite∞REBIRTH;
#SUBTITLE:;
#ARTIST:RONDO;
#TITLETRANSLIT:;
#SUBTITLETRANSLIT:;
#ARTISTTRANSLIT:;
#GENRE:;
#CREDIT:;
#MUSIC:InfiniteREBIRTH.ogg;
#BANNER:InfiniteREBIRTH.png;
#BACKGROUND:InfiniteREBIRTH-bg.png;
#CDTITLE:;
#SAMPLESTART:66.848;
#SAMPLELENGTH:10.105;
#SELECTABLE:YES;
#OFFSET:-1.164;
#BPMS:0.000=95.000
,31.000=190.000
,64.000=95.000
,96.000=190.000
;
#STOPS:31.000=0.316;
#BGCHANGES:;
#FGCHANGES:;

//--------------- dance-single - FrozenRay ----------------
#NOTES:
     dance-single:
     FrozenRay:
     Hard:
     11:
     0,0,0,0,0:
0000
0000
0000
0000
,
0000
0000
0000
0000
,
0000
0000
0000
0000
,
0000
0000
0000
0000
,
1000
0000
0001
0100
0000
0001
0000
1000
0000
0100
0000
0010
0000
0001
0000
0001
,
0010
0000
0010
0100
0000
0100
0000
1000
0000
0000
0000
0000
0000
0000
0100
0010
,
0001
0000
0001
1000
0000
1000
0000
0001
0100
0000
0100
0000
0001
0000
0001
0000
,
0010
0100
2000
0020
0000
3030
0000
0010
,
0000
0100
0001
1000
0000
0100
0010
0001
,
0000
0001
0010
0100
0010
0100
1000
0001
,
0000
1000
0100
1000
0001
1000
0100
0000
,
0001
0010
0100
0010
0001
0010
0100
1000
,
0000
1000
0001
0100
0000
1000
0100
0010
,
0000
0001
0010
0100
0010
0100
1000
0100
,
0000
0010
0100
2000
0000
0000
0000
3000
,
0000
0001
0001
0000
1000
1000
0000
0110
,
0000
0000
1000
0000
0100
0000
0100
0000
0010
0100
0000
1000
0000
0010
0000
0001
,
0000
0000
0100
0001
0100
0010
0100
0001
1000
0010
0000
1000
0000
0100
0000
0010
,
0000
0000
0100
0010
0100
0000
0010
0100
1000
0100
0000
1000
0000
0100
1000
0001
,
0010
0001
0000
0100
0000
0000
0000
0000
0001
0000
0001
0100
0000
0010
0000
0101
,
0000
0000
0010
0000
1010
0000
1000
0000
1100
0000
0100
0010
0000
0001
0000
0010
,
0000
0000
0100
1000
0100
0000
1000
0001
0000
0000
0010
0000
0100
0000
0010
0000
,
0001
0000
0001
1000
0000
1000
0100
0000
0000
0010
0000
0000
0001
0010
0001
0000
,
0010
0000
0000
0001
0000
0000
1000
0000
0010
0000
0000
0100
0001
0000
0001
0000
,
1000
0010
0100
0001
0100
0001
0100
0010
,
0000
0010
0100
0001
1000
0001
0010
0001
,
1000
0001
1000
0100
1000
0100
1000
0001
,
0100
0010
1000
0001
0100
0010
1000
0100
,
1000
0010
0100
0001
0100
0001
0100
0001
,
0000
0001
0010
0001
0010
0100
0010
0100
,
1000
0000
0000
0001
0000
0000
0010
0000
,
0000
0000
0000
0100
,
1001
0000
1100
0000
,
0011
0000
0101
0000
,
0100
0000
0100
0001
0000
0020
0000
0200
,
0000
0330
0010
0001
,
1000
0000
0001
0100
0000
0001
0000
1000
,
0000
0100
0000
0010
0000
0001
0000
0001
,
0010
0000
0010
0100
0000
0100
0000
1000
,
0000
0000
0000
0000
0000
0000
0100
0010
,
0001
0000
0001
1000
0000
1000
0000
0001
,
0100
0100
0001
0001
,
0010
0100
1000
0001
,
0010
0100
1000
0001
0000
0001
1000
0000
,
0001
0000
1000
0010
0000
1000
0000
0001
,
0000
0010
0000
0100
0000
1000
0000
1000
,
0100
0000
0100
0010
0000
0010
0000
0001
,
0000
0000
0000
0000
0000
0000
0010
0100
,
1000
0000
1000
0001
0000
0001
0000
1000
,
0010
0010
0100
0001
,
2000
0000
0000
0000
3001
0000
0020
0200
,
0000
0330
0000
0000
1000
0000
0100
0000
,
1000
0000
0101
0000
1000
0000
0100
1000
,
0000
0010
0000
1000
0000
0001
0000
0000
,
0001
0000
1100
0000
0001
0000
0100
0001
,
0000
0100
0001
0100
0001
0010
0100
0000
,
1000
0000
0101
0000
1000
0000
0100
1000
,
0000
0001
0000
0100
0000
1000
0000
0000
,
0001
0000
0100
0000
0010
0000
1000
0010
,
0000
0100
0001
1000
0000
0100
0010
0001
,
0000
0001
0010
0100
0010
0100
1000
0001
,
0000
1000
0100
1000
0001
1000
0100
0000
,
0001
0010
0100
0010
0001
0010
0100
1000
,
0000
1000
0001
0100
0000
1000
0100
0010
,
0000
0001
0010
0100
0010
0100
1000
0100
,
0000
0010
0100
2000
0000
3000
0000
0002
,
0000
0003
0000
2000
0000
3000
0000
0220
,
0000
0000
0000
0000
,
0000
0000
0000
0000
,
0330
0000
0000
0000
;
