#TITLE:ING;
#SUBTITLE:;
#ARTIST:Merm4id;
#TITLETRANSLIT:;
#SUBTITLETRANSLIT:;
#ARTISTTRANSLIT:;
#GENRE:;
#CREDIT:;
#MUSIC:ING.ogg;
#BANNER:ING.png;
#BACKGROUND:ING-bg.png;
#CDTITLE:;
#SAMPLESTART:76.549;
#SAMPLELENGTH:21.818;
#SELECTABLE:YES;
#OFFSET:-3.822;
#BPMS:0.000=132.000;
#STOPS:;
#BGCHANGES:;
#FGCHANGES:;

//--------------- dance-single - FrozenRay ----------------
#NOTES:
     dance-single:
     FrozenRay:
     Easy:
     4:
     0,0,0,0,0:
0000
0000
0000
0000
,
0000
0000
0000
0000
,
0000
0000
0000
0000
,
0000
0000
0000
0000
,
2000
0000
0000
0000
,
3200
0000
0000
0000
,
0320
0000
0000
0000
,
0032
0000
0003
1100
,
1000
0001
0200
0300
,
0001
1000
0001
0010
,
0100
0010
0002
0003
,
1000
0001
0100
1000
,
0010
1000
0020
0030
,
0100
0010
0100
0001
,
0100
0010
0200
0300
,
0010
1000
0010
1010
,
0100
0100
0001
0100
,
0010
0010
1000
0010
,
1000
1000
0001
1000
,
0200
0000
0000
0300
0000
0000
0000
0000
,
1000
1000
0001
1000
,
0010
0010
0100
0001
,
1000
1000
0001
0010
,
0200
0000
0000
1300
,
0100
1000
1100
0000
,
0100
0010
0110
0000
,
0001
0010
0011
0000
,
0001
1000
0010
0000
,
1000
0001
1100
0000
,
0001
1000
0101
0000
,
0100
0010
1001
0000
,
0001
0100
0010
0000
,
1000
0010
1000
0000
,
0010
0100
0100
0000
,
0010
0100
0001
0000
,
2000
0000
3001
0000
,
0100
0001
0100
0000
,
1000
0100
1000
0000
,
0010
0100
0100
0000
,
2020
0000
0000
3030
,
1010
0110
2020
3030
,
0100
0100
0001
0100
,
0110
0101
0110
0101
,
0001
0010
0002
0003
,
1100
0110
2200
3300
,
0010
0100
0010
0001
,
1001
0110
1001
0110
,
2002
0000
3003
0000
,
0010
0100
1000
0000
,
0001
0100
1000
0000
,
0002
0000
2003
0000
,
3002
0000
2003
3000
,
0001
1000
0200
0300
,
1000
0001
1000
0010
,
0100
0010
2000
3000
,
0001
1000
0100
0001
,
0010
0001
0020
0030
,
0100
0010
0100
1000
,
0100
0010
0200
0300
,
0010
0100
1000
0001
,
0200
0300
0002
0003
,
0020
0030
0002
0003
,
2000
3000
0020
0030
,
0200
0000
0300
0010
;

//--------------- dance-single - FrozenRay ----------------
#NOTES:
     dance-single:
     FrozenRay:
     Medium:
     8:
     0,0,0,0,0:
0000
0000
0000
0000
,
0000
0000
0000
0000
,
0000
0000
0000
0000
,
0000
0000
0000
0000
,
2000
0000
0000
0000
,
0200
0000
0000
3000
,
0020
0000
0000
0300
,
0002
0000
0033
1100
,
0010
0100
1000
0000
0002
0000
0103
0000
,
1000
0010
1000
0000
0001
0000
0011
0000
,
0100
1000
0010
0000
2000
0000
3100
0000
,
1000
0100
1000
0000
0002
0000
1003
0000
,
0100
0000
0000
0001
0010
0001
1000
0000
,
0001
0000
0000
1000
0010
1000
0001
0000
,
0100
0000
0000
0001
0100
0001
1000
0000
,
1100
0000
0011
0000
,
0001
1100
0001
0100
,
0010
1010
0100
0010
,
0100
1001
0010
1000
,
0220
0000
0000
0330
0000
0000
0000
0000
,
1000
0000
0000
0000
0001
0000
0000
0010
0000
0100
0000
0000
1000
0000
0000
0000
,
1000
0000
0100
0000
0010
0000
0000
0100
0000
1000
0000
0000
0100
0000
0000
0000
,
0001
0000
0010
0000
0100
0000
0000
1000
0000
0000
0100
0000
0010
0000
0000
0000
,
0100
0000
1000
0000
0100
0010
0000
0000
0001
0000
0000
0000
1001
0000
0000
0000
,
0100
0010
1000
0000
0100
0000
1100
0000
,
0100
0010
0001
0000
0001
0000
1100
0000
,
0100
0010
0001
0000
0001
0000
0110
0000
,
0010
0100
1000
0000
0010
0000
0101
0000
,
1000
0000
0010
0100
0000
0000
0000
0000
1000
0000
0000
0000
0101
0000
0000
0000
,
0001
0000
0010
0100
0000
0000
0000
0000
0001
0000
0000
0000
1100
0000
0000
0000
,
1000
0000
0010
0100
0000
0000
0000
0000
1000
0000
0000
0000
0101
0000
0000
0000
,
0001
0000
0010
0000
0100
0000
1000
0100
0000
0000
0000
0000
0011
0000
0000
0000
,
1000
0000
0100
0000
1000
0020
1030
0000
,
0010
0000
1000
0000
0001
0020
0031
0000
,
0010
0000
0100
0000
1000
0020
1030
0000
,
1000
0001
0100
0000
0101
0000
1001
0000
,
0100
1000
0100
0110
,
1001
0100
0010
0101
,
1010
0000
0001
0000
1001
0000
1000
0001
,
1000
0000
0002
0000
0000
0000
2000
0000
0000
0000
0000
3003
0000
0000
0000
0000
,
1001
0000
0110
0000
0011
0000
0000
0010
,
0100
1000
0100
0000
0001
0000
1100
0000
,
1001
0110
1010
0100
,
0001
0010
0100
0010
0100
1000
0000
0000
,
1100
0000
0110
0000
0011
0000
0000
0100
,
0010
1000
0100
0000
0001
0000
0110
0000
,
1001
0101
0110
1000
,
0100
0010
0001
0200
0000
0300
0001
0000
,
0010
1100
0011
0001
,
1010
0000
0101
0000
1010
0000
1000
0020
,
0200
0000
0000
0000
0000
0330
0000
0000
,
2000
0000
0002
3000
2000
3003
0000
0000
,
0010
0100
0001
0000
2000
0000
3100
0000
,
0001
0010
0001
0000
1000
0000
1010
0000
,
0100
0001
0010
0000
0002
0000
0103
0000
,
0001
0100
0001
0000
2000
0000
3001
0000
,
0100
0000
0000
1000
0010
1000
0001
0000
,
1000
0000
0000
0001
0010
0001
1000
0000
,
0100
0000
0000
1000
0100
1000
0001
0000
,
0101
0000
1010
0000
,
1000
0020
1030
0000
0001
0020
0031
0000
,
0001
0020
0130
0000
0100
0020
0130
0000
,
0001
0020
0031
0000
1000
0020
1030
0000
,
0001
0020
0031
0000
0001
0020
0200
0330
;

//--------------- dance-single - FrozenRay ----------------
#NOTES:
     dance-single:
     FrozenRay:
     Hard:
     11:
     0,0,0,0,0:
0000
0000
0000
0000
,
0000
0000
0000
0000
,
0000
0000
0000
0000
,
0000
0000
0000
0000
,
2000
0000
0000
0000
,
0200
0000
0000
3000
,
0020
0000
0000
0300
,
0002
0000
0000
0000
0000
0033
1100
0000
,
0011
0000
0100
1000
0000
0100
0000
0010
0000
0000
0001
0000
0100
0000
0010
0000
,
1000
0000
0010
1000
0000
0100
0000
0010
0000
0000
0010
0000
0001
0000
0001
0000
,
0100
0000
0010
1000
0000
0010
0000
1000
0000
0000
1000
0000
0100
0000
0010
0000
,
0001
0000
0001
0100
0000
0010
0000
1000
0000
0000
0010
0000
1000
0000
0001
0000
,
0001
0000
0010
0001
0000
0010
0000
0100
0000
0000
1000
0000
0010
0000
0100
0000
,
0001
0000
0100
0001
0000
0010
0000
0100
0000
0000
0100
0000
1000
0000
1000
0000
,
0010
0000
0100
0001
0000
0100
0000
0001
0000
0000
0001
0000
0010
0000
0100
0000
,
1000
0000
1000
0010
0000
0100
0000
0001
0000
0000
0100
0000
0001
0000
1000
0000
,
0100
0000
1000
0000
0010
0000
0000
1000
0000
0100
0000
1000
0100
0000
1000
0000
,
0100
0000
1000
0000
0010
0000
0000
0100
0000
0001
0000
0100
0001
0000
0100
0000
,
0010
0000
1000
0000
0010
0000
0000
0100
0000
0001
0000
1000
0010
0000
0100
0000
,
0001
0000
0010
0000
0001
0000
0020
0002
0000
0033
0000
0000
1000
0100
1000
0100
,
1000
0000
0010
0000
0001
0000
0000
0010
0000
0100
0000
1000
0100
0000
0100
0000
,
0010
0000
0001
0000
0010
0000
0000
0100
0000
1000
0000
0100
0010
0000
0001
0000
,
0010
0000
0100
0000
1000
0000
0000
0100
0000
0000
0010
0000
0001
0000
0010
0000
,
0100
0000
1000
0000
0100
0010
0000
0001
0000
0000
0000
0000
2002
0000
3003
0000
,
0100
0010
1001
0000
0100
0010
0101
0000
,
0100
0010
1001
0000
0100
0010
1100
0000
,
0100
0000
0010
0000
1001
0000
0000
0000
0100
0000
0010
0000
0101
0000
0000
0100
,
0010
0000
0100
0000
0001
0100
0000
0001
0000
0000
0010
0000
1100
0000
0000
0000
,
1000
0000
0010
0100
0000
0000
0001
0000
1000
0000
0010
0000
0101
0000
0000
0000
,
0001
0000
0010
0100
0000
0000
1000
0000
0001
0000
0010
0000
1100
0000
0000
0000
,
1000
0000
0010
0100
0000
0000
0001
0000
1000
0000
0010
0000
0101
0000
0000
0000
,
0001
0000
0010
0000
0100
0000
1000
0100
0000
0000
0000
0000
0011
0000
0001
0010
,
0001
0010
0100
1000
0100
2000
3010
0100
,
0001
0000
0010
0001
0010
0000
0100
0000
1000
0000
0002
0000
0103
0000
0020
0000
,
1030
0010
0100
0010
0100
0001
0100
0010
,
0100
0000
0010
1000
0010
0000
0000
0000
0101
0000
0000
0000
1001
0000
0000
1000
,
0100
0000
0010
0100
1000
0000
0000
0000
1100
0000
0000
0000
0110
0000
0000
0000
,
0001
0000
1000
0010
0100
0000
0000
0000
0010
0000
0000
0000
0101
0000
0000
0000
,
1000
0000
0010
1000
0001
0000
0000
0000
1001
0000
0000
0000
2000
0000
0001
0000
,
0100
0000
3002
0000
0000
0000
2000
0000
0000
0000
0000
3003
0000
0000
0000
0000
,
1001
0100
0110
0010
0011
0002
0000
0013
,
0100
1000
0100
1000
0001
0010
0100
0000
,
1001
0100
0110
0010
1010
1000
0100
0010
,
0001
0010
0100
0010
0100
2000
0000
3100
,
1100
0100
0110
0010
0011
0002
0000
0103
,
0010
1000
0100
0010
0001
0100
0010
0000
,
1001
0001
0101
0100
0110
0010
1000
0001
,
0100
0010
1000
0200
0000
1300
0000
1000
,
0010
0000
1100
0000
0011
0000
0001
0100
,
1010
0000
0101
0000
1010
0000
1000
0020
,
0100
0000
0100
0000
1000
0030
1000
0001
,
2000
0000
0002
3000
2000
0003
3002
0003
,
0011
0000
0100
1000
0000
0100
0000
0010
0000
0000
0001
0000
0100
0000
0010
0000
,
1000
0000
0010
1000
0000
0100
0000
0010
0000
0000
0010
0000
0001
0000
0001
0000
,
0100
0000
0010
1000
0000
0010
0000
1000
0000
0000
1000
0000
0100
0000
0010
0000
,
0001
0000
0001
0100
0000
0010
0000
1000
0000
0000
0010
0000
1000
0000
0001
0000
,
1000
0000
1000
0001
0000
0010
0000
0100
0000
0000
1000
0000
0010
0000
0100
0000
,
0001
0000
0100
0001
0000
0010
0000
0100
0000
0000
0100
0000
1000
0000
1000
0000
,
0010
0000
0100
0001
0000
0100
0000
0001
0000
0000
0001
0000
0010
0000
0100
0000
,
1000
0000
1000
0010
0000
0100
0000
0001
0000
0000
0100
0000
0001
0000
1000
0000
,
1000
0000
0020
0000
0130
0000
0010
0100
0000
0001
0020
0000
0130
0000
0010
0100
,
0000
1000
0020
0000
0130
0000
0010
0100
0000
0001
0020
0000
0130
0000
0010
0100
,
0000
1000
0020
0000
0130
0000
0010
0100
0000
0001
0020
0000
0130
0000
0010
0100
,
1000
0000
0010
0100
0010
0100
0001
0000
0100
0001
0010
0100
2000
0000
3000
0000
;
