#TITLE:Hikari;
#SUBTITLE:;
#ARTIST:Photon Maiden;
#TITLETRANSLIT:;
#SUBTITLETRANSLIT:;
#ARTISTTRANSLIT:;
#GENRE:;
#CREDIT:;
#MUSIC:Hikari.ogg;
#BANNER:Hikari.png;
#BACKGROUND:Hikari-bg.png;
#CDTITLE:;
#SAMPLESTART:0.775;
#SAMPLELENGTH:20.870;
#SELECTABLE:YES;
#OFFSET:-0.775;
#BPMS:0.000=92.000;
#STOPS:;
#BGCHANGES:;
#FGCHANGES:;

//--------------- dance-single - FrozenRay ----------------
#NOTES:
     dance-single:
     FrozenRay:
     Hard:
     9:
     0,0,0,0,0:
0000
0000
0000
0000
,
0000
0000
0000
0000
,
0000
0000
0000
0000
,
0000
0000
0000
0000
,
2000
0000
3002
0203
0302
0000
2003
3020
,
0230
0302
0023
2030
3020
0032
0203
0320
,
2030
0000
0002
3000
0020
0003
0200
0030
,
2300
0000
0000
0000
0000
3000
0101
0000
,
0100
0000
0010
1000
0100
0000
1000
0001
,
0010
0100
0001
0100
1000
0001
0100
0010
,
1000
0000
1100
1000
0100
0000
0010
0001
,
0100
0010
0100
1000
0100
0001
1000
0000
,
0011
0000
0010
0100
2000
0000
3001
0100
,
1000
0100
0001
0010
0100
0001
0100
0010
,
0002
0003
0200
0000
0320
0030
1000
0000
,
0022
0000
0000
0000
0000
0033
0100
0000
,
1000
0000
0100
1000
0100
0000
1000
0001
,
0100
0010
0100
0001
1000
0100
0010
0100
,
1000
0000
0101
0000
0010
0000
0100
1000
,
0001
0000
0100
0001
0010
0001
1000
0100
,
0011
1001
0001
1001
0101
1001
0001
0011
,
1100
1000
1001
1010
1001
1100
1000
1100
,
1001
1000
0001
1000
0010
1000
0010
1000
,
0001
0100
0001
0100
0010
0100
0010
0100
0001
1000
0001
1000
0200
0000
0300
0000
,
1000
0100
0010
0100
1000
0001
0200
0000
0000
0000
0310
0000
0000
0000
2010
0000
,
0000
0100
0100
3100
0000
1001
0000
0100
,
0012
1000
1000
1003
0000
0110
0000
2010
,
0000
0001
0001
3002
0100
0010
0010
0013
,
0001
1000
0001
0100
0010
0100
0020
0000
0000
0000
2030
0000
0000
0000
3200
0000
,
0000
0320
0230
0302
,
2003
0000
0000
0020
0000
3000
0032
0000
,
1003
0101
0110
1001
,
1100
0000
0000
0000
,
0000
0000
0000
0000
,
0000
0000
0000
0000
,
0000
0000
0000
0000
0000
0000
0001
1000
,
0101
0001
1001
0001
0101
0001
0011
0001
,
1100
1000
1001
1000
1010
1000
1100
1000
,
0110
0010
0011
0010
0110
0010
1010
0010
,
0110
0100
0101
0100
0110
0100
1100
0100
,
0000
0000
0002
0000
2003
0000
3020
0030
,
0100
0000
0001
0010
0100
0000
0001
0100
0010
0000
0001
0000
1000
0000
0001
0000
,
0100
0000
1000
0100
0010
0000
1000
0100
0010
0000
0001
0000
0010
0000
0100
0000
,
1000
0000
0100
1000
0001
0000
0100
0001
1000
0000
0010
0000
0100
0000
0001
0000
,
0010
0000
0001
1000
0010
0000
1000
0001
0010
0000
0100
0000
1000
0000
0001
0000
,
0100
0001
0100
0010
0100
0001
2000
0000
0000
0000
3100
0000
0000
0000
0022
0000
,
0000
0033
0200
0000
2300
0000
3200
0300
,
2002
0000
3000
0200
0000
0300
0023
0000
,
0200
0030
2300
0000
3200
0000
0302
0003
,
0101
0000
0000
0000
;
