#TITLE:High tension BPM;
#SUBTITLE:;
#ARTIST:Merm4id;
#TITLETRANSLIT:;
#SUBTITLETRANSLIT:;
#ARTISTTRANSLIT:;
#GENRE:;
#CREDIT:;
#MUSIC:High tension BPM.ogg;
#BANNER:High tension BPM-bn.png;
#BACKGROUND:High tension BPM-bg.png;
#CDTITLE:;
#SAMPLESTART:66.793;
#SAMPLELENGTH:11.034;
#SELECTABLE:YES;
#OFFSET:0.794;
#BPMS:0.000=174.000;
#STOPS:128.000=0.690;
#BGCHANGES:0.794=High tension BPM.mp4=1.000=0=0=1,
99999.000=-nosongbg-=1.000=0=0=0=StretchNoLoop====
;
#FGCHANGES:;

//--------------- dance-single - FrozenRay ----------------
#NOTES:
     dance-single:
     FrozenRay:
     Hard:
     11:
     0,0,0,0,0:
0000
0000
0000
0000
,
0000
0000
0000
0000
,
0000
0000
0000
0000
,
0000
0000
0000
0000
,
0000
0000
0000
0000
,
0000
0000
0000
0000
,
0000
0000
0000
0000
,
0000
0000
0000
0000
,
0000
0000
0000
0000
,
0101
0000
1100
0000
1000
0001
1000
0000
,
0101
0000
1100
0000
0001
0100
0010
0000
,
0110
0000
1001
0000
0100
0010
1000
0000
,
1010
0000
1000
0010
0100
0001
1000
0000
,
1100
0000
0101
0000
0001
1000
0010
0000
,
1100
0000
0101
0000
1000
0001
0010
0000
,
0110
0000
1001
0000
0100
0010
1000
0000
,
1010
0000
1000
0010
0100
0001
1000
0100
,
0020
0001
0100
0031
,
0200
0001
0010
0301
,
0020
0001
1000
0031
,
0200
0010
1000
0310
,
0100
0010
0100
0010
0100
0010
0100
0000
,
0001
1000
0001
1000
0001
1000
0001
0000
,
0010
0001
0010
0001
0010
0100
0010
0100
,
1000
0100
1000
0100
1000
0001
0100
0000
,
1002
0000
0000
0000
0013
0000
0000
0100
,
0100
0000
1100
0000
,
2001
0000
0000
0000
3010
0000
0000
0100
,
0100
0000
0001
0000
0110
0000
0000
1000
,
1002
0000
0000
0000
0103
0000
0000
0010
,
0010
1000
0101
0000
,
2001
0000
0000
0000
3010
0000
0000
0100
,
1100
0000
0001
1000
,
1010
0110
1000
0001
,
0011
0110
0001
1000
,
0110
0000
1001
0000
0000
0100
0000
0100
,
0000
0010
0100
0000
0001
0000
1000
0000
,
0010
0000
0100
0010
0000
1000
0000
0100
,
1000
0010
1000
0001
,
0100
0000
0010
1000
0000
0100
0000
0100
,
0020
0130
0001
0100
,
0100
0000
0001
0100
0000
0100
0000
0010
,
0100
0010
1000
0000
0001
0000
1000
0000
,
0100
0010
0001
2000
0001
0000
0001
0000
,
0001
3001
1000
0101
,
0100
0000
1000
0100
0000
0100
0000
0010
,
0001
0100
0001
0000
1000
0010
0100
0000
,
0100
0010
1000
0002
2000
0000
0000
0000
,
0000
3003
1001
0000
0110
0000
1100
0000
,
1001
0000
1000
0001
0000
0011
0000
0010
,
0100
1001
0110
1100
,
1001
0000
0010
0001
0000
0001
1000
0010
,
0100
0001
1010
0101
,
1001
0000
0010
1000
0000
1000
0000
0100
,
0010
0011
0110
1001
,
0101
0000
0010
1000
0000
1000
0001
0020
,
0200
0000
0330
0000
0010
0000
0001
1000
,
0001
0000
1000
0001
0000
0100
0000
0010
,
1000
0000
0001
0000
0010
0000
0001
0100
,
0010
0000
1000
0001
0000
0100
0000
0010
,
1000
0000
0100
0000
0010
0000
0001
0100
,
0001
0000
1000
0001
0000
0100
0100
0000
,
1010
0000
0101
0000
0010
0000
1000
0001
,
1000
0010
0000
0100
0000
0100
0000
0001
,
1000
0100
0110
1100
,
1001
0000
1000
0001
0000
0011
0001
0010
,
0100
1001
0110
1100
,
1001
0000
0010
0001
0000
0001
1000
0010
,
0100
0001
1010
0101
,
1001
0000
0010
1000
0000
1100
0000
0100
,
0010
0011
0110
1001
,
0101
0000
0010
1000
0000
1000
0001
0000
,
0202
0000
0303
0000
0010
0000
1000
1000
,
0001
1000
1000
0001
0001
0100
0100
0010
,
0010
1000
1000
0000
0010
0000
0100
0100
,
0001
1000
1000
0001
0000
0100
0100
0000
,
0001
0000
1100
0000
0010
0000
0001
0100
,
0001
0000
1000
0001
0000
0100
0000
0020
,
2000
0000
0000
3030
1010
0000
1000
0001
,
1000
0010
0000
0100
0000
0000
0100
0001
,
1000
0001
0010
0000
1100
0000
1000
0000
,
0001
0100
0000
0100
0001
0000
0001
1000
,
0000
1000
0100
0000
1100
0100
0010
0000
,
0010
0002
0003
0001
1000
0000
0001
0200
,
0000
0000
0000
0000
0300
0000
0000
0000
1010
0000
1000
0000
0001
0000
0100
0001
,
0100
0000
0000
0001
0000
0000
1000
0000
1000
0100
1000
0000
0002
0000
0000
0000
,
2003
3010
0000
0000
0202
0000
0303
0000
,
1000
0000
0001
0010
0100
0000
1000
0000
0001
0000
0010
0000
0001
0000
1000
0000
,
0100
0000
0100
0000
0011
0000
0000
0000
0001
0000
1000
0100
1000
0100
1000
0000
,
0001
0100
0001
0100
0001
0000
0000
0000
0000
0000
0000
0000
0000
0000
0000
0000
;
