#TITLE:Happy Music♪;
#SUBTITLE:;
#ARTIST:Happy Around!;
#TITLETRANSLIT:;
#SUBTITLETRANSLIT:;
#ARTISTTRANSLIT:;
#GENRE:;
#CREDIT:;
#MUSIC:Happy Music.ogg;
#BANNER:Happy Music-bn.png;
#BACKGROUND:Happy Music-bg.png;
#CDTITLE:;
#SAMPLESTART:60.237;
#SAMPLELENGTH:10.971;
#SELECTABLE:YES;
#OFFSET:-1.951;
#BPMS:0.000=175.000
,248.000=87.500
,249.000=175.000
,283.000=87.500
,291.000=175.000
;
#STOPS:302.500=1.025;
#BGCHANGES:;
#FGCHANGES:;

//--------------- dance-single - FrozenRay ----------------
#NOTES:
     dance-single:
     FrozenRay:
     Hard:
     11:
     0,0,0,0,0:
0000
0000
0000
0000
,
0000
0000
0000
0000
,
0000
0000
0000
0000
,
0000
0000
0000
0000
,
0000
0000
0000
0000
,
2001
0000
3100
0000
,
0100
0000
0100
0010
0000
0001
0000
1000
,
0002
0000
0000
0023
0000
0000
0030
0000
,
2200
0000
0000
0000
3300
0010
0000
0001
,
0011
0000
0001
1000
0001
0000
0001
0100
,
0101
0000
0100
0001
0100
0010
1000
0010
,
2020
0000
0000
3030
0202
0000
0000
0303
,
2000
0000
0000
3000
0200
0000
0000
0300
,
0020
0000
0000
0030
,
0001
0000
0000
0010
0000
0000
2200
0000
0000
0000
3000
0000
1300
0000
0000
0000
,
0001
0010
1000
0100
1000
0010
0001
1000
,
0010
0000
1000
0010
0000
0001
0010
0100
,
1000
0010
0001
0100
0001
0010
1000
0001
,
0010
0000
0001
0010
0000
1000
0010
0100
,
0002
0000
0000
0000
0003
0000
0010
0100
2000
0000
0000
0000
3000
0000
0100
0010
,
0002
0000
0000
0000
0003
0000
0100
0010
2000
0000
0000
0000
3001
0000
0000
0000
,
0100
0001
0100
0001
0100
0010
0100
0010
,
2000
0000
0000
0000
0002
0000
0000
3003
,
0210
0000
0000
0000
,
0301
0100
1000
0010
,
0001
1000
0001
1000
0010
0000
0202
0000
,
0303
0001
0100
0010
0100
0000
0001
0000
,
1000
0000
0000
0000
1010
0000
0000
0000
0010
0000
0000
0100
0000
0000
1000
0000
,
0001
0000
0000
0001
0000
0000
1000
0000
0020
0000
0000
0000
0030
0000
0000
0000
,
0100
1000
0100
0010
0001
0000
2200
0000
,
3300
1000
0100
0000
0001
0000
1000
0000
,
0001
0000
0000
0000
0011
0000
0000
0000
0010
0000
0000
0100
0000
0000
0010
0000
,
0001
0000
0000
1000
0000
0000
2002
0000
0000
0000
0000
0000
3003
0000
0000
0000
,
0001
0000
0101
0000
0000
0001
0100
0010
,
1000
0000
1000
0000
0000
0100
0010
0001
,
1000
0000
1100
0000
0000
0001
0010
0000
,
0001
0000
0001
0000
0000
0100
0010
0000
,
2000
0000
0000
0000
3000
0000
0100
0010
0002
0000
0000
0000
0003
0000
0010
0100
,
2000
0000
0000
0000
3000
0000
0100
1000
0002
0000
0000
0000
0013
0000
0000
0000
,
0220
0000
0000
0000
0000
0000
0000
0000
0330
0000
0110
0000
0000
1100
0000
0000
,
2002
0000
0000
0000
0000
0000
0000
0000
3003
0000
0101
0000
0000
0110
0000
0000
,
2010
0000
0010
0000
3010
0010
0010
0010
,
0200
0000
0000
0000
0301
1000
0001
1000
,
0010
0000
0101
0000
0001
1000
0010
0000
,
0001
0010
1000
0001
0000
0100
0000
0100
,
0001
0010
0100
1000
0010
0100
1000
0000
,
2200
0000
0000
0000
3300
0100
1000
0100
,
0010
0000
0001
0010
0001
0000
0001
0000
,
0101
0000
0100
0010
0100
0010
1000
0001
,
2000
0000
0000
0100
3100
0000
0000
0000
,
0001
0000
0000
1000
0000
0000
0202
0000
0000
0000
0300
0000
0103
0000
0000
0000
,
0001
0100
0010
0100
0001
1000
0010
0000
,
1000
0001
1000
0010
0000
0010
0000
1000
,
0001
0010
0100
1000
0001
1000
0010
0000
,
0202
0000
0000
0000
0303
0001
0100
0001
,
0101
0000
0001
0100
0010
0000
0010
0000
,
1010
0000
1000
0010
1000
0001
0100
0100
,
0010
1000
0010
1000
0001
1000
0001
1000
,
0002
0000
2003
3010
,
0102
0100
0100
0100
,
0103
0000
0000
0100
0000
0000
0100
0010
0100
0001
0000
0000
,
0010
0010
0010
0010
,
0020
0000
0130
0000
0011
0000
0001
1000
,
0101
0000
0001
1000
0101
0000
0001
1000
,
0001
1000
0001
1000
0101
0000
1000
0001
,
0110
0000
1000
0001
0110
0000
1000
0100
,
0010
0001
1000
0001
0110
0000
0001
1000
,
0010
1000
0001
0000
1010
0000
1000
0001
,
0000
0010
0100
0000
0011
0000
0001
0001
,
0001
0001
0001
0100
0100
0000
2000
0000
,
3020
0000
0032
0000
0203
0000
0310
0101
,
0001
1000
0100
0010
0000
0000
0001
1000
0001
1000
0010
1000
0001
1000
0001
0010
0000
0000
0001
0010
0000
1100
0000
0000
,
0100
1000
0100
0010
0000
0000
0001
0010
0100
0010
0100
1000
0100
0010
0001
1000
0000
0000
0001
0000
0000
0000
0000
0000
,
0101
0000
0100
0000
0110
0000
0010
1000
,
0010
1000
0020
0000
2030
0000
3100
0100
,
0100
0100
0010
0010
0010
0002
0003
0000
,
1001
0000
0000
0000
,
0101
0000
0000
0000
0000
0100
0020
0030
,
1000
0001
0100
0001
1000
0001
0100
0000
,
2020
0000
0000
0000
3030
1000
0010
0100
,
0010
0000
0010
1000
0100
0000
0100
0000
,
0110
0000
0010
0100
1000
0001
1000
0010
,
0100
0000
0100
0001
1000
0000
0001
0000
,
0100
0000
0000
0001
0000
0000
0220
0000
0000
0000
0300
0000
0130
0000
0000
0000
,
0010
0000
1100
0000
1000
0001
0010
0000
,
1000
0010
0001
1000
0000
0100
0010
0100
,
1000
0010
0100
0001
0010
0001
0100
0000
,
0202
0000
0000
0000
0303
0100
0001
0100
,
0010
0000
1000
0010
1000
0000
1000
0000
,
1100
0000
0100
0010
0100
0010
0001
1000
,
0001
0010
0001
0100
0001
0010
0100
0010
,
0002
0000
0000
0000
2003
0000
0000
3000
,
0220
0000
0000
0000
,
0330
0000
0000
0000
;
