#TITLE:Happy Around Days;
#SUBTITLE:;
#ARTIST:Happy Around!;
#TITLETRANSLIT:;
#SUBTITLETRANSLIT:;
#ARTISTTRANSLIT:;
#GENRE:;
#CREDIT:;
#MUSIC:Happy Around Days.ogg;
#BANNER:Happy Around Days-bn.png;
#BACKGROUND:Happy Around Days-bg.png;
#CDTITLE:;
#SAMPLESTART:54.906;
#SAMPLELENGTH:16.098;
#SELECTABLE:YES;
#OFFSET:0.948;
#BPMS:0.000=123.000
,148.000=61.500
,156.000=123.000
,204.000=61.500
,212.000=123.000
;
#STOPS:;
#BGCHANGES:;
#FGCHANGES:;

//--------------- dance-single - FrozenRay ----------------
#NOTES:
     dance-single:
     FrozenRay:
     Hard:
     7:
     0,0,0,0,0:
0000
0000
0000
0000
,
0000
0000
0000
0000
,
0000
0000
0000
0000
,
0000
0000
0000
0000
,
0000
0000
0000
0000
0000
0000
0001
1000
,
0100
0000
0100
1000
0020
0000
0030
0100
,
0001
0000
0100
0001
0000
0000
0100
0000
0010
0000
1000
0000
0001
0000
0100
0000
,
0100
0000
1000
0001
0100
0001
1000
0010
,
0200
0000
0000
0000
0010
0000
0000
0000
0301
0000
1000
0000
0000
0001
0000
0000
,
0010
0001
0010
1000
0000
0001
0001
0100
,
0000
1000
0010
0001
0000
1000
1000
0100
,
0000
0200
0000
1300
0001
1000
0001
0010
,
0200
0010
1300
1000
,
0101
0001
1100
1000
,
0110
0001
0110
1000
,
0001
0100
0010
0100
0001
1000
0100
0010
,
0002
0000
0000
0000
1000
0000
0000
0000
0103
0000
0000
0001
0100
0000
0001
0000
,
0000
1000
0010
0001
0000
1000
1000
0100
,
0000
0001
0010
1000
0000
0001
0001
0100
,
0000
0100
0100
1000
0001
0000
1000
0010
,
0200
0010
0301
0000
,
2010
3001
0012
1003
,
0210
0301
0120
1030
,
2000
0001
3002
1000
,
0013
0100
1000
0000
0202
0000
0303
0000
,
0001
0000
1000
0001
0000
0000
1000
0000
0100
0000
0010
0100
0000
0000
0010
0000
,
0001
0000
0010
0100
0000
0000
0010
0000
0001
0000
1000
0010
0000
0000
1000
0000
,
0000
0001
1000
0001
0100
0010
0200
0002
,
0000
0000
0303
0000
0000
0100
1000
0001
,
0010
0000
1100
0001
0010
0100
0010
1000
,
0010
0000
0001
1000
0100
0000
0001
1000
,
0010
0000
0000
0100
0100
0000
1000
0001
,
0100
0000
0010
0100
0001
0000
0010
0000
,
1000
0000
0101
0000
1000
0010
0100
0010
,
0001
0000
1000
0100
0001
0000
0000
1000
,
0001
0010
0100
0000
0100
1000
0010
0000
,
1000
0100
0010
0010
0100
0000
1000
0000
,
0110
0000
0000
0100
0001
0010
0100
1000
0001
0000
0010
0100
0001
0000
0001
1000
,
0100
0000
0010
0000
0010
0100
1000
0001
0010
0000
0001
1000
0100
0000
0000
0100
,
1000
0000
0101
0000
0001
0100
0010
0100
,
1000
0000
0001
0010
1000
0000
0001
0100
,
0020
2030
3200
0302
,
0023
0000
0000
0000
0000
0000
0031
1000
,
0100
0000
0011
0000
0001
0100
0010
0100
,
0001
0000
0001
1000
0100
0000
0010
0100
,
1000
0000
0000
0001
0010
0100
0010
1000
,
0001
0000
0100
1000
0010
0000
0000
0100
,
0001
0000
1100
0000
0001
1000
0100
0010
,
0001
0000
0001
0010
0100
0000
0000
0100
,
1000
0100
0010
0000
0001
0100
0010
0000
,
0001
1000
0010
0100
0001
0000
0000
0000
,
0110
0000
0000
0010
1000
0100
0010
0001
1000
0000
0100
0010
1000
0000
1000
0001
,
0010
0000
0100
0000
0100
0010
0001
1000
0100
0000
1000
0001
0010
0000
0000
0010
,
0001
0000
1100
0000
1000
0010
0100
0010
,
0001
0000
1000
0100
0001
0000
1000
0010
,
0200
0302
0023
2030
,
3020
0000
0000
0030
,
2001
0001
0001
3001
,
0102
0000
0103
0020
1000
0000
1030
0000
,
2100
0100
0100
3100
;
