#TITLE:Happiness to you♪;
#SUBTITLE:;
#ARTIST:Happy Around!;
#TITLETRANSLIT:;
#SUBTITLETRANSLIT:;
#ARTISTTRANSLIT:;
#GENRE:;
#CREDIT:;
#MUSIC:Happiness to you.ogg;
#BANNER:Happiness to you-bn.png;
#BACKGROUND:Happiness to you-bg.png;
#CDTITLE:;
#SAMPLESTART:90.325;
#SAMPLELENGTH:11.636;
#SELECTABLE:YES;
#OFFSET:-1.961;
#BPMS:0.000=165.000
,44.000=82.500
,46.000=165.000
,50.000=82.500
,54.000=165.000
,189.000=82.500
,197.000=165.000
,277.000=82.500
,279.000=165.000
,283.000=82.500
,287.000=165.000
,310.000=174.000
,314.000=186.000
,318.000=195.000
,320.000=199.000
,322.000=204.000
;
#STOPS:60.000=0.364
,293.000=0.364
;
#BGCHANGES:;
#FGCHANGES:;

//--------------- dance-single - FrozenRay ----------------
#NOTES:
     dance-single:
     FrozenRay:
     Hard:
     12:
     0,0,0,0,0:
0000
0000
0000
0000
,
0000
0000
0000
0000
,
0000
0000
0000
0000
,
0000
0000
0000
0000
,
0000
0000
0000
0000
,
2000
3200
0320
0032
,
0013
0001
0010
0001
0010
0000
0001
0020
0000
0000
0000
0000
0030
0000
0100
0000
,
0010
0100
1000
0100
0010
0100
1000
0100
,
0001
0100
1000
0100
0110
0000
0011
0000
,
0001
0100
0010
0100
0001
0100
1000
0100
,
0001
0100
0010
0100
0101
0000
1100
0000
,
0012
0000
0103
0000
0220
0330
2020
3030
,
2200
0000
0000
0000
0000
0000
0000
0000
3300
0000
0000
0000
0000
0000
0000
0000
0001
0000
0000
0100
0000
0000
0010
0000
1000
0000
0000
0010
0000
0000
1000
0000
,
0001
0000
0000
1000
0000
0000
0100
0000
0020
0000
0000
0000
0000
0000
0000
0000
0031
0000
0000
0000
0001
0000
0000
0000
0001
0000
0000
0000
0100
0000
0000
0000
,
0100
0100
0010
0010
2000
0100
0100
0100
,
3200
0000
0000
0000
0310
0000
0000
0001
0010
0000
0100
0000
1000
0000
0000
0100
,
1000
0000
0001
0000
0010
0000
0000
0001
0010
0000
0100
0000
1000
0000
0000
0001
,
1000
0001
0101
0000
0101
0000
0110
0000
,
0220
0000
0330
0010
0010
1000
2020
0000
,
3030
0000
0000
0000
0001
0000
0000
1000
0000
0000
0100
0000
0100
0000
0000
0000
,
0000
0000
0100
0010
0100
0000
0000
0010
0000
0000
0010
0000
0002
0000
0000
0000
,
2003
0000
0000
0000
3001
0000
0000
1000
0000
0000
0010
0000
0010
0000
0000
0000
,
0000
0000
0100
0010
0100
0000
0000
0001
0000
0000
1000
0000
0200
0000
0000
0000
,
0310
0001
2002
0000
3003
0000
0202
0000
,
0303
0220
0000
0000
0330
0000
1000
1000
,
1000
0000
0000
0000
0001
0000
1000
0000
0010
0000
0100
0000
0010
0000
0000
0010
,
0000
0000
1000
0000
0100
0000
1000
0000
0001
0000
0010
0000
0100
0000
0000
1000
,
0000
0000
0000
0000
0100
1000
0100
1000
0100
0010
0100
0010
0100
0000
0000
1000
,
0000
0001
0100
0001
0100
0020
0000
0000
,
0030
0000
0000
0000
2020
0000
0000
0000
3030
0000
0000
0000
0110
0000
0000
0110
,
0000
2002
0000
0000
0000
0000
0000
0000
,
3003
0000
1000
0100
0010
0001
0001
0100
,
0010
0000
0100
0000
0001
0100
0001
0100
0001
0000
0100
0002
0000
0000
0000
0000
,
0003
0000
0001
0100
0010
1000
1000
0100
,
0010
0000
0100
0000
1000
0000
0100
0000
1000
0000
0100
2000
0000
0000
0000
0000
,
3000
0000
0000
0000
0202
0000
0000
0000
0303
0000
0000
0000
0110
0000
0000
0110
,
0000
2002
0000
0000
0000
0000
0000
0000
,
3003
0000
0000
0000
1000
0000
0010
0000
1000
0000
0010
0000
1000
0000
0001
1000
,
0000
0001
1000
0000
0001
0000
0100
0000
0001
0000
0100
0000
0020
0000
0200
0000
,
0330
0000
0000
0000
1000
0000
0100
0000
0001
0000
0100
0000
0010
0000
0100
0001
,
0000
0000
0000
0000
0001
0000
0010
0000
1000
0000
0010
0000
0100
0000
0010
1000
,
0000
0022
0033
0220
,
0330
2002
0000
0000
0000
0000
0000
0000
,
3003
0000
0000
0000
0001
0000
0000
0001
1000
0000
0000
1000
0100
0000
0000
0100
,
0010
0000
0000
0010
0001
0000
0000
0001
1000
0000
0000
1000
0010
0000
0000
0010
,
1000
0000
0000
1000
0001
0000
0000
0000
0011
0000
0000
0000
0001
0000
0000
0000
,
1010
0000
0000
0000
1001
0000
0000
0000
0001
0000
0100
0000
0010
0100
0000
0010
,
0000
0000
2000
0000
0000
3000
0002
0000
,
0000
0003
0200
0000
0000
0300
0020
0000
,
0000
0000
0030
0000
1000
0000
0000
0001
0000
0000
0100
0001
0100
0000
0000
0000
,
0101
0000
0000
0000
0001
0000
0000
1000
0000
0000
0010
0100
0010
0000
0000
0000
,
0110
0000
0200
0301
0000
0000
0002
0013
,
0000
0000
0020
1030
0000
0000
2000
3100
,
0000
0001
1100
0001
,
1000
0001
0000
0001
0000
0100
0001
0000
,
2200
0000
3300
0000
1001
0000
0100
0100
,
0000
0020
0000
0000
0000
0000
0000
0000
,
0030
0100
0010
0100
0001
0100
0010
0100
,
0001
0100
1000
0100
0001
0100
0110
0000
,
1010
0000
1000
0100
0010
0100
1000
0100
,
0001
0100
1000
0100
0010
0100
1100
0000
,
0101
0100
0010
1000
0020
0200
0000
0330
,
0000
0100
0001
0100
0002
0020
0000
0000
,
0033
0001
1000
0000
0101
0000
1000
0000
,
0101
0000
0020
0000
0100
0200
0000
0000
,
0330
0100
0010
0100
1000
0100
0010
0100
,
1000
0100
0001
0100
1000
0100
0110
0000
,
0011
0000
0001
0100
0010
0100
0001
0100
,
1000
0100
0001
0100
0010
0100
0101
0000
,
1100
0000
0012
0000
0103
0000
0220
0330
,
2020
0000
0000
0000
3030
0000
0000
0000
2200
0000
0000
0000
0000
0000
0000
0000
3300
0000
0000
0000
0000
0000
0000
0000
0001
0000
0000
0100
0000
0000
0010
0000
,
1000
0000
0000
0010
0000
0000
1000
0000
0001
0000
0000
1000
0000
0000
0100
0000
0020
0000
0000
0000
0000
0000
0000
0000
0031
0000
0000
0000
0001
0000
0000
0000
,
0001
0100
0100
0100
0010
0010
2000
0100
,
0100
0000
0100
0000
3200
0000
0000
0000
0310
0000
0000
0001
0010
0000
0100
0000
,
1000
0000
0000
0100
1000
0000
0001
0000
0010
0000
0000
0001
0010
0000
0100
0000
,
1000
0000
0000
0001
1000
0000
0001
0000
0101
0000
0000
0000
0101
0000
0000
0000
,
0110
0000
0220
0000
0330
0010
0010
1000
,
2020
0000
0000
0000
3030
0000
0000
0000
1000
0000
0000
0001
0000
0000
0100
0000
,
0010
0000
0000
0000
0101
0000
0000
0000
0001
0000
0000
1000
0000
0000
0100
0000
,
0010
0000
1100
0000
0001
0001
0100
0100
,
0010
0000
1000
0010
0000
1000
0010
0000
1000
0000
0100
0000
0010
0000
0001
0000
,
1000
0202
0000
0000
,
0303
0000
0000
0000
;
