#TITLE:H-A-J-I-M-A-R-I-U-T-A-!!;
#SUBTITLE:;
#ARTIST:Happy Around!;
#TITLETRANSLIT:;
#SUBTITLETRANSLIT:;
#ARTISTTRANSLIT:;
#GENRE:;
#CREDIT:;
#MUSIC:HAJIMARIUTA.ogg;
#BANNER:HAJIMARIUTA.png;
#BACKGROUND:HAJIMARIUTA-bg.png;
#CDTITLE:;
#SAMPLESTART:75.306;
#SAMPLELENGTH:13.714;
#SELECTABLE:YES;
#OFFSET:0.108;
#BPMS:0.000=140.000
,75.000=70.000
,92.000=140.000
,126.000=70.000
,138.000=140.000
,240.500=70.000
;
#STOPS:63.500=0.414
,225.500=0.414
;
#BGCHANGES:;
#FGCHANGES:;

//--------------- dance-single - FrozenRay ----------------
#NOTES:
     dance-single:
     FrozenRay:
     Hard:
     10:
     0,0,0,0,0:
0000
0000
0000
0000
,
0000
0000
0000
0000
,
0000
0000
0000
0000
,
0000
0000
0000
0000
,
2002
0000
0000
3003
0000
1010
0000
0202
,
0000
0000
0303
0220
0000
0000
0330
0000
,
2002
0000
0000
3003
0000
0011
0000
2200
,
0000
0000
3300
0220
0000
0000
0000
0330
,
2001
0001
0001
3001
,
0120
0100
0100
0130
,
0010
0001
0010
0001
0010
0001
0010
0002
,
0000
2003
0000
3002
0000
0203
0000
0000
,
0301
1000
0010
0100
0001
1000
0100
0010
,
0000
0010
0100
1000
0000
1000
0100
0010
,
0000
1000
0001
0010
0100
1000
0001
0010
,
0000
1000
0100
1000
0001
1000
0010
0200
,
0310
0100
0001
1000
0100
0010
0000
0010
,
0100
1000
0000
1000
0100
0010
0002
0000
,
0000
0000
0013
0000
0000
0000
0200
0000
0000
0000
1300
0000
0000
0010
1000
0001
,
0000
0000
0000
0000
0102
0000
0000
0000
0000
0000
0000
1003
0000
0000
0000
0000
,
0001
0000
0000
0000
2100
0000
0000
0000
0000
0000
0000
3001
0000
0000
0000
0000
,
0100
0002
0000
1003
,
0200
0000
0000
0000
0320
0000
0000
0001
0031
0000
0000
1100
0000
0011
0000
2200
,
0000
3300
1000
1000
,
1000
0100
1000
0000
1001
0000
0001
0000
,
0001
0010
0001
0000
1100
0000
0110
0000
,
0011
0000
0001
0010
0000
0010
0000
0100
,
0010
0100
0010
0001
0100
0000
1010
0000
,
0001
0100
0001
0100
0010
0000
0010
1000
,
0000
0002
0000
2000
0000
0000
0000
0000
,
0000
3003
0000
1001
0000
0110
0000
1001
,
0000
0000
0100
0000
1000
0000
0000
0000
1001
0000
0001
0100
0000
0001
0000
0011
,
0000
0000
0010
0001
0000
1001
0000
1010
0000
0000
0010
0100
0000
0010
0000
0110
,
0000
0001
0010
0100
0000
1000
0000
1100
0000
1000
0000
0110
0000
0100
0000
0011
,
0000
0010
0000
0110
0000
0100
0000
2002
0000
0000
3003
0000
1000
0000
0001
0000
,
0010
0100
1000
0001
0000
0010
0000
0100
,
2000
0000
3001
0000
0001
1000
0100
1000
,
0001
0000
0001
0010
0000
0010
0100
1000
,
0000
1000
0001
0000
0001
0100
0001
1000
,
0010
0000
0100
0001
0000
0101
0000
0110
,
0000
1010
0000
2002
0000
0000
3003
0100
,
0010
1000
0000
0010
0000
0101
0000
0010
,
0000
1100
0000
2002
0000
0000
3003
1000
,
1000
0100
0010
0001
0000
0001
1000
0100
,
0020
0000
0031
0000
1000
0001
0100
0001
,
1000
0010
1000
0010
0000
0010
0100
0001
,
0010
0001
1000
0001
1000
0100
1000
0011
,
0000
0010
0100
1100
0000
0110
0000
0011
,
0000
0101
0000
0001
0100
0010
1000
0100
,
0010
0100
1000
0010
0100
0001
0100
0010
,
1000
0100
0010
0001
1000
1000
0100
0100
,
0010
0010
0001
1001
0000
0101
0000
0110
,
0000
2020
0000
3030
0001
1000
0010
0100
,
0001
1000
0100
0010
0000
0010
0100
1000
,
0000
1000
0100
0010
0000
1000
0001
0010
,
0100
1000
0001
0010
0000
1000
0100
1000
,
0001
1000
0010
0200
0310
0100
0001
1000
,
0100
0010
0000
0010
0100
1000
0000
1000
,
0100
0010
0002
0000
0000
0013
0000
0200
,
0000
0310
0000
0100
0010
0000
0001
0010
,
0100
2000
0000
0000
0000
0000
0000
0000
,
0000
3000
0000
0000
0000
0000
0000
0000
;
