#TITLE:Give Me Awesome!!!!;
#SUBTITLE:;
#ARTIST:Happy Around!;
#TITLETRANSLIT:;
#SUBTITLETRANSLIT:;
#ARTISTTRANSLIT:;
#GENRE:;
#CREDIT:;
#MUSIC:Give Me Awesome.ogg;
#BANNER:Give Me Awesome.png;
#BACKGROUND:Give Me Awesome-bg.png;
#CDTITLE:;
#SAMPLESTART:50.602;
#SAMPLELENGTH:10.667;
#SELECTABLE:YES;
#OFFSET:-0.102;
#BPMS:0.000=180.000
,97.000=90.000
,115.000=180.000
,241.000=90.000
,241.250=45.000
,241.500=180.000
;
#STOPS:32.000=0.333
,241.500=2.775
;
#DISPLAYBPM:45.000:180.000;
#BGCHANGES:;
#FGCHANGES:;

//--------------- dance-single - FrozenRay ----------------
#NOTES:
     dance-single:
     FrozenRay:
     Hard:
     11:
     0,0,0,0,0:
0000
0000
0000
0000
,
0000
0000
0000
0000
,
0000
0000
0000
0000
,
0000
0000
0000
0000
,
1000
1100
0001
0011
,
1000
1100
0001
0011
,
1000
0000
0100
1000
0010
0000
0100
0000
,
0010
0100
0010
0000
1001
0000
1001
0000
,
0200
0300
0010
0000
1010
0000
1000
0010
,
1000
0100
0010
0000
0100
1000
0000
0010
,
0000
0001
1000
0100
0010
0000
1001
0000
,
0000
0101
0000
0000
0000
1010
0000
0000
,
1000
0010
0100
0001
0010
0000
0100
1000
,
0100
0000
0010
0000
0001
0100
0000
0100
,
0000
1000
0100
1000
0100
0000
0110
0000
,
0000
0011
0000
0000
0000
1100
0000
0000
,
0001
0010
0100
1000
0010
0000
0100
0001
,
1000
0000
0100
0000
1000
0000
0100
1000
0000
0000
0100
0000
0000
0000
0010
0000
,
0001
0000
0100
0000
0001
0000
0100
0001
0000
0000
0100
0000
0000
0000
0010
0000
,
1000
0100
0010
0100
1000
0001
0100
0010
,
1000
0000
2020
0000
3030
0000
2000
3000
,
0200
0300
0020
0030
0002
0003
0100
0010
,
0000
0001
0000
0000
0011
0000
0001
0010
,
0001
0010
0100
1000
0100
1000
0000
0001
,
1000
0000
0200
0000
0000
0300
0000
0000
1000
0000
0010
0000
0100
0000
0010
0000
,
1000
0000
0100
0000
0010
0000
0001
1000
0100
0000
0020
0000
0000
0000
0030
0000
,
0001
0000
1000
0000
0010
0000
0100
0001
0100
0000
0010
0000
0100
0000
0000
0001
,
1000
0100
2000
0000
0000
0000
3000
0000
0100
0000
1000
0000
0010
0000
0100
0000
,
0001
0100
0010
1000
0020
0200
0000
0330
,
0000
0001
0000
1000
0001
1000
0001
0000
,
0100
0010
0000
0101
0000
1010
0000
1100
,
0000
0022
0000
0000
0000
0000
0000
0033
,
0000
1001
0000
1001
0000
0202
0000
0000
,
0303
0002
0000
0103
0002
0000
1003
0000
,
0100
2000
0000
3100
2000
0000
3001
0000
,
0010
0200
0000
1300
0020
0000
0130
0000
,
0001
0020
0000
0130
2000
0000
3010
0000
,
0100
1001
1100
1001
,
1100
0000
1000
0010
0100
0002
0000
1003
,
0000
0200
0000
0000
0000
0000
0000
0300
,
0010
0100
0000
0010
0100
0010
0100
0000
,
0000
0002
0000
0013
0002
0000
1003
0000
,
0010
2000
0000
3010
2000
0000
3001
0000
,
0100
0020
0000
1030
0200
0000
0310
0000
,
0001
0200
0000
0310
2000
0000
3100
0000
,
0010
1001
0011
1001
,
0011
0000
0001
0100
0010
2000
0000
3001
,
0000
0020
0100
0000
0100
0000
0200
0000
,
0330
0000
1000
0001
1000
0100
0000
0010
,
0002
2000
0000
3003
,
0110
0000
0001
0100
0001
0000
1000
0100
,
1000
0000
0001
0100
0010
2000
0000
0000
,
3001
0001
0101
1000
,
1010
0001
0101
1000
,
1010
0001
0011
1000
,
1100
0001
0011
1000
,
1100
0100
0110
0010
,
0011
0001
0101
0100
,
0110
0000
0010
0000
0100
0001
0010
0000
,
0100
0000
0010
0100
0010
0000
1001
0000
,
1001
0000
0200
0300
0000
0002
0000
1003
,
0002
0000
1003
0000
0100
2000
0000
3100
,
2000
0000
3001
0000
0010
0200
0000
1300
,
0020
0000
0130
0000
0001
0020
0000
0130
,
2000
3010
0100
1001
,
0101
0000
1001
0000
0101
0000
0001
0010
,
0100
2000
0000
3001
0000
0200
0000
0000
,
0000
0000
0000
0300
0010
0100
0000
0010
,
0100
0010
0100
0000
0010
2000
0000
3010
,
2000
0000
3001
0000
0010
0002
0000
0013
,
0002
0000
1003
0000
0100
0020
0000
0031
,
0200
0000
0310
0000
1000
0200
0000
0310
,
0002
0103
0010
1001
,
1010
0000
1001
0000
1010
0000
1000
0100
,
0010
0002
0000
1003
0000
0020
0000
0000
,
0000
0000
0000
0000
0030
0000
0001
1000
,
0001
0100
0000
0010
2000
0000
0002
0000
,
0000
0000
3003
0000
0110
0000
1000
0100
,
1000
0000
0001
0100
0001
0000
1000
0100
,
0010
0002
0000
0000
1003
0000
1000
0000
,
1100
0001
0011
1000
,
1100
0001
0011
1000
,
1010
0001
0101
1000
,
1010
0001
0101
0100
,
0110
0010
1010
1000
,
1100
0100
0011
1000
,
0100
1000
0010
0000
0100
0000
0010
0100
,
0010
0000
1001
0000
2002
0000
0000
3003
,
1001
0000
0000
0000
;
