#TITLE:Feeling Good↑↑;
#SUBTITLE:;
#ARTIST:Happy Around!;
#TITLETRANSLIT:;
#SUBTITLETRANSLIT:;
#ARTISTTRANSLIT:;
#GENRE:;
#CREDIT:;
#MUSIC:Feeling Good.ogg;
#BANNER:Feeling Good-bn.png;
#BACKGROUND:Feeling Good-bg.png;
#CDTITLE:;
#SAMPLESTART:13.041;
#SAMPLELENGTH:23.415;
#SELECTABLE:YES;
#OFFSET:-0.511;
#BPMS:0.000=164.000;
#STOPS:;
#BGCHANGES:;
#FGCHANGES:;

//--------------- dance-single - FrozenRay ----------------
#NOTES:
     dance-single:
     FrozenRay:
     Hard:
     12:
     0,0,0,0,0:
0000
0000
0000
0000
,
0000
0000
0000
0000
,
0000
0000
0000
0000
,
0000
0000
0000
0000
,
0000
0000
0000
0000
,
0000
0000
0000
0000
,
0000
0000
0000
0000
,
0000
0000
0000
0000
,
0000
0000
0000
0000
0000
0000
0000
0000
0000
0001
0000
0000
1000
0000
0100
0000
,
0000
0000
0010
0000
0100
0000
1000
0000
0001
0000
0000
1000
0000
0000
0101
0000
,
0000
0000
0001
0000
0100
0000
0010
0000
0100
0000
0000
0001
0000
0000
0011
0000
,
0000
0000
0001
0000
0010
0000
0100
0000
0010
0000
0000
0010
0000
0000
0001
0000
,
0100
0010
0100
0001
1000
0000
1000
0001
,
0100
0000
0101
0000
0001
1000
0010
0000
,
0101
0000
0001
0000
1000
0001
0010
0000
,
1000
0100
0100
1000
0001
0001
0100
0010
,
0100
0001
1000
0010
0100
0000
0101
0000
,
1000
0000
0100
0000
0010
0000
0100
0000
1000
0000
0001
0000
0100
0000
0000
0010
0000
0000
1000
0000
0000
0000
0000
0000
,
0100
0000
0011
0000
0001
1000
0100
0000
,
1000
0000
0001
0000
0100
0000
0010
0000
1000
0000
0001
0000
0100
0000
0000
0010
0000
0000
1000
0000
0000
0000
0000
0000
,
0100
0000
0011
0000
0010
0100
1000
0000
,
0001
0000
0100
0000
0010
0000
0100
0000
0001
0000
1000
0000
0100
0000
0000
0010
0000
0000
0001
0000
0000
0000
0000
0000
,
0010
0000
1100
0000
0010
0100
0001
0000
,
1000
0000
0001
0000
0010
0000
0100
0000
1000
0000
0001
0000
0010
0000
0000
0001
0000
0000
1000
0000
0000
0000
0000
0000
,
0100
0000
0100
0010
0000
0010
0001
0000
,
1000
0001
0100
0000
1000
0001
0010
0000
,
1000
0001
0100
0010
1000
0001
0010
0100
,
0000
0000
1000
0000
0001
0000
0000
0000
0010
0001
0000
1000
0000
0001
0000
0000
,
1000
0100
0010
0100
1000
0001
1000
0010
,
0000
0100
0001
0100
0010
0100
1000
0100
,
0001
0010
0000
0100
1000
0001
0010
0001
,
0000
1000
0001
1000
0100
1000
0010
1000
,
0000
0010
0100
0001
1000
0001
0010
0100
,
0000
0100
0000
1000
0001
0000
0001
0000
,
0110
0000
0100
1000
1001
0000
0001
0000
,
0101
0000
0001
0100
0110
0000
0010
0000
,
1000
0000
0000
0001
0000
0000
0010
0000
0001
0000
1000
0000
0001
0000
0100
0000
,
0000
0000
0001
1000
0100
0000
0000
0000
0010
0001
1000
0000
0000
0000
0001
1000
,
0100
0010
0001
1000
0100
0010
0100
1000
0001
1000
0001
1000
0100
0010
0001
1000
,
0000
0000
0001
1000
0010
0000
0000
0000
0100
0001
1000
0000
0000
0000
0001
1000
,
0010
0100
0001
1000
0010
0100
0010
1000
0000
0000
0001
0000
1000
0000
0010
0000
,
0000
0000
0100
0000
0010
0000
1000
0000
0001
0000
0000
1000
0000
0000
0011
0000
,
0000
0000
0001
0000
0010
0000
0100
0000
0010
0000
0000
0001
0000
0000
0101
0000
,
0000
0000
0001
0000
0100
0000
0010
0000
0100
0000
0000
0100
0000
0000
0001
0000
,
0010
0100
0010
0001
1000
0000
1000
0001
,
0000
0000
0010
0000
0001
0000
1000
0000
0001
0000
0000
1000
0000
0000
1100
0000
,
0000
0000
0010
0000
0001
0000
0001
0000
1000
0000
0000
0001
0000
0000
0101
0000
,
0000
0001
0001
0000
1000
1000
0000
0100
,
0010
0001
1000
0100
0010
0000
0011
0000
,
1000
0000
0010
0000
0100
0000
0001
0000
0010
0000
0000
0001
0000
0000
1100
0000
,
0000
0000
1000
0000
0100
0000
1000
0000
0001
0000
0000
0100
0000
0000
0110
0000
,
0000
0000
0100
0000
0001
0000
1000
0000
0010
0000
0000
1000
0000
0000
0100
0000
,
0010
0001
1000
0100
0010
0000
0010
0001
,
0000
0000
0001
0000
1000
0000
0010
0000
0100
0000
0000
0001
0000
0000
1010
0000
,
0000
0000
1000
0000
0010
0000
0100
0000
0001
0000
0000
1000
0000
0000
1100
0000
,
0000
0010
0010
0000
0001
0001
0000
1000
,
0001
0100
0010
0100
0001
0000
1000
0001
,
1000
0000
0100
0000
0010
0000
0100
0000
1000
0000
0001
0000
0100
0000
0000
0010
0000
0000
1000
0000
0000
0000
0000
0000
,
0100
0000
0010
0000
0001
1000
0100
0000
,
1000
0000
0001
0000
0100
0000
0010
0000
1000
0000
0001
0000
0100
0000
0000
0010
0000
0000
1000
0000
0000
0000
0000
0000
,
0100
0000
0000
0000
0010
0000
0000
0000
0000
0001
0000
0000
1000
0000
0100
0000
,
0000
0000
0010
0000
0001
0000
1000
0000
0001
0000
0000
0100
0000
0000
0001
0000
,
0200
0300
0000
0000
0020
0030
0000
0000
0000
0000
0100
0000
0010
0000
0000
0000
,
1000
0000
0001
0000
0010
0000
0100
0000
1000
0000
0000
0001
0000
0000
1000
0000
,
0020
0030
0000
0000
0200
0300
0000
0000
0002
0003
0100
0000
0001
0000
0000
0000
,
1000
0000
0001
0000
0010
0000
0100
0000
0010
0000
0000
0001
0000
0000
1000
0000
,
0002
0003
0000
0000
0200
0300
0000
0020
0030
0000
1000
0000
0001
0000
0000
0000
,
0100
0000
0001
0000
0010
0000
0001
0000
0100
0000
0000
0001
0000
0000
1000
0000
,
0002
0003
0000
0000
0000
0000
0002
0003
0000
0000
1000
0000
0100
0000
0000
0000
,
0001
0000
1000
0000
0010
0000
0100
0000
0001
0000
0000
1000
0000
0000
0100
0000
,
0020
0030
0000
0000
0000
0000
0002
0003
0000
0000
0100
0000
0010
0000
0000
0000
,
1000
0000
0001
0000
1000
0000
0100
0000
0010
0000
0000
0001
0000
0000
0010
0000
,
0200
0300
0000
0000
0200
0300
0000
0000
0000
0000
0100
0000
0010
0000
0000
0000
,
0001
0000
1000
0000
0100
0000
1000
0000
0001
0000
0000
1000
0000
0000
0001
0000
,
2000
3000
0000
0000
0002
0003
0000
0000
0000
0000
1000
0000
0010
0000
0000
0000
,
0100
0000
0001
0000
1000
0000
0010
0000
0100
0000
0000
0001
0000
0000
1000
0000
,
0200
0000
0310
0000
0200
1300
0000
0002
1003
0000
0001
0000
0100
0000
0000
0000
,
0000
0000
0010
0000
0100
0000
0001
0000
1000
0000
0000
0001
0000
0000
1100
0000
;
