#TITLE:Electric Chaos★Countdown;
#SUBTITLE:;
#ARTIST:Peaky P-key;
#TITLETRANSLIT:;
#SUBTITLETRANSLIT:;
#ARTISTTRANSLIT:;
#GENRE:;
#CREDIT:;
#MUSIC:Electric Chaos Countdown.ogg;
#BANNER:Electric Chaos Countdown-bn.png;
#BACKGROUND:Electric Chaos Countdown-bg.png;
#CDTITLE:;
#SAMPLESTART:86.394;
#SAMPLELENGTH:6.906;
#SELECTABLE:YES;
#OFFSET:-2.006;
#BPMS:0.000=139.000
,131.000=69.500
,136.000=139.000
;
#STOPS:;
#BGCHANGES:;
#FGCHANGES:;

//--------------- dance-single - FrozenRay ----------------
#NOTES:
     dance-single:
     FrozenRay:
     Hard:
     10:
     0,0,0,0,0:
0000
0000
0000
0000
,
0000
0000
0000
0000
,
0000
0000
0000
0000
,
0000
0000
0000
0000
,
0000
0000
0000
0000
,
2001
0001
0001
3001
,
0102
0100
0100
0103
,
0210
0010
0010
0310
,
1020
1000
1000
1030
,
1002
0100
1000
0103
,
0210
0001
0010
0301
,
0210
1000
0010
1300
,
0011
0110
2200
3300
,
0001
1000
0001
1000
0001
1000
0002
0003
,
0100
0010
0100
0010
0100
0010
0200
0300
,
0010
1000
0010
0100
0001
0100
0001
1000
,
0100
0010
0011
0000
2200
0000
3300
0000
,
0001
0000
1100
0000
0001
1000
0010
0100
,
0001
0000
1100
0000
0001
0010
0100
1000
,
0010
0000
0101
0000
1000
0001
0100
0010
,
0100
0000
0000
0001
0000
0000
1000
0000
0000
0000
0100
0000
0100
0000
0000
0000
,
1000
0000
0000
0101
0000
0000
1000
0000
0000
0001
0000
0000
0010
0000
0100
0000
,
1000
0000
0000
0101
0000
0000
1000
0000
0000
0010
0000
0000
0100
0000
0001
0000
,
0010
0000
0000
0100
0000
0000
1000
0000
0000
0001
0000
0000
0100
0000
0010
0000
,
0220
0000
0000
0030
,
0002
0000
0000
0303
,
0000
0000
0000
0000
,
0000
0000
0000
0000
,
0000
0000
0000
0000
,
0000
0000
0000
0000
,
0002
0000
2003
0000
,
3020
0230
0302
1003
,
2002
0000
3003
0000
0202
0000
0303
0010
,
0010
0000
0000
0000
1100
0000
0000
0000
0000
0000
1000
0000
0100
0000
0000
0010
0000
0000
0000
0000
0001
0000
0010
0000
0000
0100
0000
0000
1100
0000
0000
0000
,
1001
0001
0010
0100
1000
0001
0010
0100
,
0010
0000
0001
1000
0000
0000
1001
0000
0000
1100
0000
0000
0110
0000
0000
0000
,
0100
1000
0100
0010
0100
1000
0001
0100
,
0010
0000
0100
0001
0000
0000
0101
0000
0000
1010
0000
0000
1000
0000
0001
0000
,
1000
0000
0001
0000
1000
0000
0001
0000
1000
0001
0000
0000
0100
0000
0010
0000
,
0100
0000
0010
0000
0100
0000
0010
0000
0100
0010
0000
0000
0100
0000
0001
0000
,
0100
0000
0010
0000
1000
0000
0010
0000
0100
0000
0001
2000
0000
0000
0000
0000
,
3000
0000
0001
0000
1000
0000
0000
0101
0000
0000
0001
0000
1000
0000
0001
0000
,
1000
0000
0001
0000
1000
0001
1000
0001
1000
0001
1000
0001
1000
0000
0000
0001
,
0000
0000
0100
0000
0010
0000
0000
0100
0000
0000
0001
0000
0200
0000
0000
0000
,
1000
0010
1000
0320
,
0100
1000
0100
2030
,
0010
0000
3002
0000
0103
0000
0100
0010
,
1010
0000
0202
0300
0103
0000
0001
0000
,
1100
0000
0001
1000
0010
0100
0001
0000
,
1100
0000
0001
0010
0010
0000
1000
0000
,
0101
0000
1000
0001
0010
0100
1000
0000
,
0101
0000
1000
0010
0010
0000
1000
0000
,
0011
0000
0001
0000
1010
0000
0100
0001
,
0100
0000
0010
0000
1000
0000
0001
0000
0001
0000
0100
0010
0100
0000
0000
0000
,
0101
0000
0000
0000
0001
1000
0000
0001
0000
0000
0000
0000
0110
0000
0000
0100
,
0000
1000
0001
0010
0100
1000
0100
0010
,
0001
0010
0110
0000
1001
0000
0101
0001
,
0100
0000
0010
0000
0100
0000
0001
1000
0000
0000
0000
0000
1100
0000
0010
0000
,
0100
0000
1000
0000
0001
0000
0100
0010
0000
0000
0000
0000
1001
0000
0001
0000
,
0100
0000
0001
0000
1000
0000
0001
0010
0000
0000
0000
0000
0022
0000
0033
0000
,
0220
0330
2200
0000
3300
0000
1000
0001
,
1000
0000
0001
0000
0100
0000
0010
1000
0000
0000
0000
0000
0101
0000
0100
0000
,
0000
0000
0010
0000
0100
0000
0010
1000
0000
0000
0000
0000
1010
0000
1000
0001
,
1000
0000
0000
0000
0101
0000
0001
1000
0001
0000
0000
0000
0011
0000
0011
0000
,
0110
2200
3300
0000
;
