#TITLE:EXPOSE 'Burn out!!!';
#SUBTITLE:;
#ARTIST:Merm4id;
#TITLETRANSLIT:;
#SUBTITLETRANSLIT:;
#ARTISTTRANSLIT:;
#GENRE:;
#CREDIT:;
#MUSIC:EXPOSE Burn out.ogg;
#BANNER:EXPOSE Burn out.png;
#BACKGROUND:EXPOSE Burn out-bg.png;
#CDTITLE:;
#SAMPLESTART:66.932;
#SAMPLELENGTH:15.789;
#SELECTABLE:YES;
#OFFSET:-0.616;
#BPMS:0.000=95.000
,18.000=190.000
,50.000=95.000
,58.000=47.500
,74.000=95.000
,90.000=190.000
,106.000=380.000
,130.000=190.000
,182.000=95.000
,190.000=190.000
,214.000=95.000
,218.000=190.000
,282.000=95.000
;
#STOPS:;
#BGCHANGES:;
#FGCHANGES:;

//--------------- dance-single - FrozenRay ----------------
#NOTES:
     dance-single:
     FrozenRay:
     Hard:
     12:
     0,0,0,0,0:
0000
0000
0000
0000
,
0000
0000
0000
0000
,
0000
0000
0000
0000
0000
0000
0000
1000
0000
0000
0001
0100
0010
0000
0010
0100
,
0001
0000
0001
0000
1000
0000
1000
0000
0001
0000
0001
0010
0100
0000
0010
0002
,
2000
0000
0000
0000
3003
0000
0000
0100
0000
0000
1000
0000
0010
0000
1000
0000
,
0010
1000
0100
1000
0010
0100
0001
1000
,
0010
0100
0001
0100
0000
0100
0001
1000
,
0100
0010
0100
1000
0100
0010
0001
1000
,
0010
0100
0001
0100
0000
0001
1000
0010
,
0100
0001
1000
0100
0010
0001
0010
0100
,
0010
0001
1000
0100
0000
0100
1000
0001
,
0000
0100
0010
1000
0000
1000
0001
0100
,
0000
0000
0100
0000
0001
0000
0000
0000
1001
0000
0000
0001
0100
0000
0010
0100
,
0010
0000
0100
0000
0100
0000
0001
0000
0010
0000
0010
0000
1100
0000
0001
0010
,
0001
0010
0100
1000
0002
0100
0000
0103
,
2000
0100
0000
3100
0020
0001
0000
0031
,
0200
0000
0000
0000
0000
0000
0010
0000
0010
0000
0000
0000
0310
0000
0000
0000
0000
0000
0100
0001
0100
0001
0000
0100
0000
0010
0000
0100
0000
0010
0000
0000
,
0000
0000
1000
0000
1000
0000
0000
0000
0001
0000
0010
0000
0001
0010
0000
0100
0000
0000
0000
0000
0000
0000
1000
0100
0000
0000
0100
1000
0000
0001
0000
0010
,
0000
0010
0000
0000
0001
0000
0100
0010
0000
0000
0000
0000
0000
0000
0100
0000
0001
0000
0000
0000
0010
0000
0000
0000
1100
0000
0000
0000
0000
0000
0000
0000
,
1000
0010
0101
0000
0001
0100
0010
1000
,
0100
1000
0010
0100
0010
1000
1100
0000
,
0010
0000
0001
0000
0101
0000
0000
0000
0001
0100
0001
0000
1000
0001
1000
0000
,
0000
1000
0010
1000
0100
1000
0001
1000
0000
0000
0100
0000
0000
0000
0100
0000
,
0000
1000
0000
1000
0000
0010
0000
0010
,
0000
0100
0000
0100
0000
0001
0000
0001
,
0000
0010
0000
0010
0000
0100
0000
0100
,
0000
1000
0000
1000
0001
0000
0010
0000
,
0001
0010
0100
0010
,
0100
1000
0100
1000
,
0100
1000
0010
1000
,
0010
1000
0001
1000
,
0010
0100
0001
0010
,
0100
0000
0000
0000
1000
0000
0000
0000
0100
1000
0100
1000
0100
1000
0100
0000
,
1000
0000
1000
0001
0000
0101
0000
0001
,
0100
0010
1000
0100
1000
0010
0100
0001
,
0100
1010
1000
1000
,
0001
0000
0001
0000
0010
0100
1000
0100
,
0010
0001
0000
0001
0000
0000
1100
0000
,
1000
0100
1000
0010
0100
0010
0100
0001
,
0010
0000
0010
0100
0000
0100
1000
0001
,
0000
0010
0001
1000
0000
1000
0010
1000
,
0100
0011
1000
1000
,
0010
0000
0010
0000
0100
0000
0100
0010
,
0000
0010
0000
0100
0001
0100
0001
0100
,
0010
0100
0010
0100
0001
1000
0000
1100
,
0000
0100
0000
0110
0010
0000
0011
0000
,
0000
0000
0001
0000
0101
0000
0000
0000
1010
0000
0000
0100
0001
0000
0000
0000
,
0001
0000
0100
0000
0110
0000
0000
0010
0000
0000
1000
0000
0100
0000
1000
0000
,
0001
0100
0010
0100
0000
0001
0100
0001
,
1000
0010
1000
0010
0000
1000
0100
0010
,
0100
0000
0100
1000
0000
1000
0010
0100
,
0000
0100
0001
0010
0000
0010
0100
0010
,
0001
0010
0001
0100
0000
0100
0010
1000
,
0100
0000
1000
0000
0100
0000
0010
0000
0001
1000
0100
0000
0010
0100
0000
1000
,
0000
0001
0100
0010
1000
0000
0000
0010
0000
0000
1000
0000
0100
0000
1000
0000
,
0100
1000
0010
1000
0100
0010
0001
1000
,
0100
0010
0001
0010
0000
0010
0001
1000
,
0010
0100
0010
1000
0010
0100
0001
1000
,
0100
0010
0001
0010
0000
0001
1000
0100
,
0010
0001
1000
0010
0100
0001
0100
0010
,
0100
0001
1000
0010
0000
0010
1000
0001
,
0000
0010
0100
1000
0010
1000
0001
0010
,
0100
1000
0001
1000
0000
1000
0010
1000
,
0100
1000
0010
0100
0001
1000
0010
0100
,
0001
0100
0010
1000
0000
1000
0100
0010
,
0100
1000
0100
0010
0001
1000
0010
0100
,
0001
0100
0010
0100
0000
0010
0100
0001
,
1000
0100
0010
0001
0010
0100
0010
0001
,
1000
0100
0010
0100
0000
1000
0001
0100
,
0000
0001
1000
0100
0000
0100
0010
0001
,
0000
0100
0001
2000
0020
0000
0000
0000
,
0000
3030
0000
0000
;
