#TITLE:Dounimo Tomaranai;
#SUBTITLE:;
#ARTIST:Merm4id;
#TITLETRANSLIT:;
#SUBTITLETRANSLIT:;
#ARTISTTRANSLIT:;
#GENRE:;
#CREDIT:;
#MUSIC:Dounimo Tomaranai.ogg;
#BANNER:Dounimo Tomaranai-bn.png;
#BACKGROUND:Dounimo Tomaranai-bg.png;
#CDTITLE:;
#SAMPLESTART:68.913;
#SAMPLELENGTH:15.738;
#SELECTABLE:YES;
#OFFSET:1.907;
#BPMS:0.000=122.000;
#STOPS:146.000=0.246
,149.500=0.246
,161.000=0.246
,164.500=0.246
;
#BGCHANGES:;
#FGCHANGES:;

//--------------- dance-single - FrozenRay ----------------
#NOTES:
     dance-single:
     FrozenRay:
     Easy:
     3:
     0,0,0,0,0:
0000
0000
0000
0000
,
0000
0000
0000
0000
,
0000
0000
0000
0000
,
0000
0000
0000
0000
,
0000
0000
0000
0000
,
0002
0003
2000
3000
,
0020
0030
0200
0300
,
0001
0000
0001
0000
,
0200
0000
0300
1010
,
0010
0000
0010
1000
,
0010
0000
0010
0000
,
1000
0000
1000
0100
,
1000
0000
1000
0000
,
0001
0000
0100
0010
,
0100
0000
0010
1000
,
2002
3003
0000
0000
,
1000
0010
0100
0000
,
0001
0010
0100
1100
,
1000
0000
0100
0010
,
0001
0000
0100
0001
,
1000
0000
1000
0100
,
1000
0000
0001
0000
,
0010
0001
0010
0000
,
0100
1000
0001
0000
,
2002
3003
0000
0000
,
0220
0000
0000
0000
,
0330
0000
0000
0000
,
0100
0001
1000
0000
,
0010
0001
1000
0000
,
0001
0001
0100
0000
,
0010
1000
0100
0000
,
2001
0000
3001
0000
,
0210
0000
0310
0000
,
0001
0001
0100
0100
,
0010
0010
1000
1000
,
2002
0000
3003
1001
,
1000
0000
0100
0000
0020
0000
0030
0001
,
0000
0100
0000
0020
0000
0030
0100
0000
,
0100
0001
0001
0011
,
0100
1000
0101
0001
,
1000
0000
0200
0000
0300
1000
0000
0001
,
0000
0200
0000
0300
0010
0000
0010
0000
,
0100
0000
2002
0000
,
0000
3003
0100
0100
,
0002
0003
1000
0001
,
0100
0000
0001
1000
,
0200
0300
0010
0010
,
0100
0100
0010
0001
,
0100
0000
0001
0001
,
2000
3000
0010
0100
,
0001
0000
1000
0000
,
0000
2002
3003
0000
;

//--------------- dance-single - FrozenRay ----------------
#NOTES:
     dance-single:
     FrozenRay:
     Medium:
     5:
     0,0,0,0,0:
0000
0000
0000
0000
,
0000
0000
0000
0000
,
0000
0000
0000
0000
,
0000
0000
0000
0000
,
0000
0000
0000
0000
,
1000
1000
0100
0100
,
0010
0000
0010
0000
0001
0000
0001
1000
,
0200
1300
0020
0130
,
0002
1003
0100
0011
,
0001
0000
0001
0000
0010
0000
0001
1000
,
0010
1000
0010
0000
,
1000
0000
1000
0001
0100
0000
0010
0000
,
0100
0000
0010
1000
0001
0000
0011
0000
,
1000
0000
1000
0010
0100
0000
0001
0000
,
1000
0100
0010
0100
,
2002
3003
0000
0000
,
0011
1100
0002
0103
,
0010
0010
0100
0100
0020
0000
1030
0000
,
0001
0000
1000
0000
0100
0000
0010
0001
,
1000
0001
0100
0000
,
0001
0000
1000
0000
0001
0000
0100
0010
,
1000
0001
0200
0000
,
0301
0000
1000
0000
0010
0000
0100
0001
,
0010
0010
0100
1000
,
2002
3003
0000
0000
,
0220
0000
0000
0000
,
0330
0000
0000
0000
,
0100
1000
0001
0100
,
0110
0001
0010
0100
,
1100
1000
0001
0001
,
0010
0100
1100
1000
,
1002
0000
1003
0002
1003
0000
0010
0000
,
0210
0000
0310
0200
0310
0000
1000
0000
,
0010
1000
0010
1000
0010
0100
0010
0100
,
0001
1000
0001
1000
0001
1000
0001
2000
,
0002
0000
0000
0000
0000
3003
1001
0000
,
0001
0000
0100
0010
2000
0000
3000
1000
,
0000
0001
0100
0020
0000
0030
0100
0000
,
0100
0001
0001
0011
,
0110
1100
1001
1000
,
0010
0100
0002
0000
0003
0001
0000
0010
,
0100
2000
0000
3000
0010
0000
0010
0000
,
0100
0100
1002
1000
,
1000
0000
1000
0000
1003
0000
0100
0010
,
0002
0103
0001
0100
,
0100
0000
0001
0000
0001
1000
0010
0000
,
0200
0301
0110
1010
,
1001
0000
0001
0000
0010
0000
0001
0100
,
0020
0130
0010
0100
,
0002
0003
0010
0100
,
1000
0001
0200
0310
,
0000
2002
3003
0000
;

//--------------- dance-single - FrozenRay ----------------
#NOTES:
     dance-single:
     FrozenRay:
     Hard:
     9:
     0,0,0,0,0:
0000
0000
0000
0000
,
0000
0000
0000
0000
,
0000
0000
0000
0000
,
0000
0000
0000
0000
,
0000
0000
0000
0000
,
1000
0000
0001
0000
0100
0020
0000
1030
0000
0000
0001
0000
0100
0020
0000
1030
,
0000
0000
0001
0000
1000
0200
0000
0310
0000
0000
0001
0000
1000
0200
0000
0310
,
0001
1000
0200
0310
0002
0013
0200
1300
,
0002
0013
0200
2000
0000
3300
0011
0000
,
0001
0000
0100
0000
0001
1000
0000
0001
0000
0000
0100
0000
0001
0000
1000
0000
,
0010
0000
1000
0000
0010
0100
0000
0001
0000
0000
0000
0000
1010
0000
0000
0000
,
1000
0000
0100
0000
1000
0001
0000
1000
0000
0000
0100
0000
1000
0000
0001
0000
,
0010
0000
0001
0000
0010
0100
0000
1000
0000
0000
0000
0000
0011
0000
0000
0000
,
1000
0000
0010
0000
1000
0001
0000
1000
0000
0000
0010
0000
1000
0000
0001
0000
,
0100
0000
0001
0000
0100
0010
0000
1000
0000
0010
0000
0000
0100
0000
0010
0000
,
2002
3003
0000
0000
,
0101
0000
0000
0000
1010
0000
0000
0000
0001
0001
0000
2000
0000
0000
3000
0000
,
0001
0000
0001
0000
0100
0000
0100
0000
0010
0100
0000
0220
0000
0000
0330
0000
,
1000
0000
0010
0000
1000
0001
0000
1000
0000
0000
0010
0000
1000
0000
0001
0000
,
0100
0000
0001
0000
0100
0010
0000
1000
0000
0000
0000
0000
0101
0000
0000
0000
,
0001
0000
0010
0000
0001
1000
0000
0001
0000
0000
0010
0000
0001
0000
1000
0000
,
0100
0000
0000
0000
0000
0000
1000
0000
0000
0000
0000
0000
0100
0000
0000
0010
0000
0000
0000
0000
0000
0001
0000
0000
0010
0000
0000
0000
0001
0000
0000
0000
0010
0000
0000
0000
0100
0000
0000
0000
0010
0000
0000
0000
0001
0000
0000
0000
,
0001
0000
0100
0000
0001
1000
0000
0001
0000
0000
0100
0000
0001
0000
1000
0000
,
0010
0000
1000
0000
0010
0100
0000
0001
0000
0100
0000
0000
0010
0000
0100
0000
,
2002
3003
0000
0000
,
2020
0000
0000
0000
,
3030
0000
0000
0000
,
0101
0000
0000
0000
1001
0000
0000
0000
0001
0000
0000
0100
0000
0000
0100
0000
,
0110
0000
0000
0000
1001
0000
0000
0000
0010
0000
0000
0100
0000
0000
0100
0000
,
1100
0000
0000
0000
1001
0000
0000
0000
0001
0000
0000
1000
0000
0000
1000
0000
,
1010
0000
0000
0000
0110
0000
0000
0000
0100
0000
0000
0001
0000
0000
1000
0000
,
1002
0000
1003
0002
1003
0000
0010
0100
,
0210
0000
0310
0200
0310
0000
0001
1000
,
0010
1000
0010
1000
0010
0100
0010
0100
,
0001
1000
0001
1000
0001
1000
0001
2000
,
0002
0000
0000
0000
0000
3003
1001
0000
,
0001
0001
0100
0010
2000
0100
3100
1000
,
1000
0001
0100
0020
0100
0130
0001
0001
,
1000
0001
0100
0100
0010
0010
2020
3030
,
0220
0330
0202
0303
2002
3003
1000
1000
,
0010
0100
0002
0010
0013
0001
0001
1000
,
0010
0200
0010
0310
1000
1000
0001
1000
,
0010
0010
0100
0100
0202
0300
0200
0300
,
0200
0303
2002
3003
1000
1000
0100
0010
,
0002
0000
0103
0000
0001
1000
0100
0020
,
0100
0000
0031
1000
0001
1000
0010
0010
,
0200
0000
0301
0000
0220
0330
2020
3030
,
2002
3003
0001
0001
0010
0100
1000
0100
,
0020
0000
0031
0001
0010
0200
0010
0000
,
1300
0000
0001
0000
0010
0010
0100
0100
,
1000
1000
0001
0001
0200
0000
0310
0000
,
0000
2002
3003
0000
;
