#TITLE:Discover Universe;
#SUBTITLE:;
#ARTIST:Photon Maiden;
#TITLETRANSLIT:;
#SUBTITLETRANSLIT:;
#ARTISTTRANSLIT:;
#GENRE:;
#CREDIT:;
#MUSIC:Discover Universe.ogg;
#BANNER:Discover Universe-bn.png;
#BACKGROUND:Discover Universe-bg.png;
#CDTITLE:;
#SAMPLESTART:55.541;
#SAMPLELENGTH:14.769;
#SELECTABLE:YES;
#OFFSET:-2.003;
#BPMS:0.000=130.000;
#STOPS:;
#BGCHANGES:;
#FGCHANGES:;

//--------------- dance-single - FrozenRay ----------------
#NOTES:
     dance-single:
     FrozenRay:
     Hard:
     9:
     0,0,0,0,0:
0000
0000
0000
0000
,
0000
0000
0000
0000
,
0000
0000
0000
0000
,
0000
0000
0000
0000
,
0000
0000
0000
0000
,
2001
0001
0010
3010
,
0210
0000
0010
0000
0001
0000
0001
0300
,
1002
1000
0100
0103
,
0000
0000
0000
0000
,
2000
3002
2003
3002
2003
3002
2003
3002
,
0203
0302
0203
0302
0203
0302
0203
0302
,
2003
3020
0230
0320
0032
0023
0230
2300
,
3200
0320
0230
0302
0023
0032
0103
0000
,
1001
0000
0101
0000
0001
1000
0100
0000
,
0011
0000
1100
0000
0001
1000
0010
0000
,
0101
0000
1010
0000
1000
0001
0100
0000
,
0202
0000
0000
0000
0000
0303
0000
0000
,
0001
1000
0100
0000
0001
0000
1100
0000
,
1000
0001
0100
0000
1000
0000
0101
0000
,
0001
1000
0010
0000
1000
0001
0010
0000
,
0011
0100
1100
1001
,
0100
1000
0001
0010
0100
0000
0100
0000
,
0001
1000
0010
0100
0010
0000
0010
0000
,
0202
0303
0000
0220
0330
0000
2002
0000
,
0000
0000
0000
0000
0000
3003
0000
0000
,
0100
1000
0100
0010
0002
0000
1000
0003
,
1001
0000
0100
0010
0100
0010
1000
0000
,
0001
0100
0001
0100
0010
1000
0010
0000
,
0100
0011
0001
1010
,
0001
1000
0100
1000
0001
1000
0100
0000
,
1000
0001
0100
0000
0001
0010
0100
0000
,
1000
0001
0010
0100
0000
1000
0001
0100
,
0010
1000
0010
1000
0010
0000
0101
0000
,
0001
1000
0010
1000
0001
0010
0001
0000
,
0001
1000
0100
1000
0000
0010
0100
0010
,
0000
1000
0010
0000
0100
0001
0100
1000
,
0100
0001
0020
0200
0000
0000
0330
0000
,
0100
1000
0010
1000
0100
1000
0010
0000
,
0100
0001
0010
0000
0100
1000
0010
0000
,
1000
0001
0010
0001
0000
1000
0100
1000
,
0100
0010
0001
0010
0100
1000
0010
0000
,
1000
0100
0001
0100
1000
0100
0010
0000
,
0001
0100
0010
0000
1000
0100
0010
0000
,
0001
0010
0100
1000
1000
0100
1000
0010
,
0100
0101
0010
1100
,
0001
0000
0000
0100
0000
0000
0100
0000
0010
0000
0000
1000
0000
0000
0100
0000
,
0010
0000
0000
0001
0000
0000
0001
0000
0100
0000
0000
0010
0000
0000
1000
0000
,
0001
0000
0000
0010
0000
0000
0010
0000
0100
0000
0000
1000
0000
0000
0010
0000
,
0100
0000
0000
0001
0000
0000
0001
0000
0010
0000
0100
0000
1000
0000
0001
0000
,
0200
0000
0310
0000
0001
0100
0010
0000
,
0002
0000
0013
0000
0100
1000
0010
0000
,
0200
0000
0301
0000
0001
1000
0100
0000
,
2000
0000
3010
0000
1000
0001
0010
0001
,
0100
0000
1010
0000
0100
0001
0100
0010
,
0100
0000
0101
0000
0001
1000
0100
0010
,
0001
0000
1100
0000
1000
0010
0100
0010
,
1000
0000
0011
0000
0001
0001
1000
0000
,
0001
0000
0000
0100
0000
0000
0100
0000
0010
0000
0000
1000
0000
0000
0100
0000
,
0010
0000
0000
0001
0000
0000
0001
0000
0100
0000
0000
0010
0000
0000
1000
0000
,
0001
0000
0000
0010
0000
0000
0010
0000
0100
0000
0000
1000
0000
0000
0010
0000
,
0100
0000
0000
0001
0000
0000
0001
0000
0010
0000
0100
0000
1000
0000
0001
0000
,
1000
0000
0000
0100
0000
0000
0100
0000
0010
0000
0000
0001
0000
0000
0100
0000
,
0010
0000
0000
1000
0000
0000
1000
0000
0100
0000
0000
0010
0000
0000
0001
0000
,
1000
0000
0000
0010
0000
0000
0010
0000
0100
0000
0000
0001
0000
0000
0010
0000
,
0100
0000
0000
1000
0000
0000
1000
0000
0010
0000
0000
0000
2002
0000
3003
0000
,
1001
0000
0000
0000
;
