#TITLE:DISCOTHEQUE;
#SUBTITLE:;
#ARTIST:Merm4id;
#TITLETRANSLIT:;
#SUBTITLETRANSLIT:;
#ARTISTTRANSLIT:;
#GENRE:;
#CREDIT:;
#MUSIC:DISCOTHEQUE.ogg;
#BANNER:DISCOTHEQUE.png;
#BACKGROUND:DISCOTHEQUE-bg.png;
#CDTITLE:;
#SAMPLESTART:30.216;
#SAMPLELENGTH:14.545;
#SELECTABLE:YES;
#OFFSET:0.693;
#BPMS:0.000=132.000;
#STOPS:;
#BGCHANGES:;
#FGCHANGES:;

//--------------- dance-single - FrozenRay ----------------
#NOTES:
     dance-single:
     FrozenRay:
     Hard:
     9:
     0,0,0,0,0:
0000
0000
0000
0000
,
0000
0000
0000
0000
,
0000
0000
0000
0000
,
1000
0000
1000
0001
1000
0000
1100
0000
,
1000
0001
1000
0000
0101
0000
1000
0000
,
0001
0000
1000
0100
0010
0000
1001
0000
,
0001
0100
0010
0000
1001
0000
0110
0000
,
0100
0000
1000
0000
0001
1000
0100
0000
,
0001
1000
0010
0100
0001
0000
1010
0000
,
0100
0001
0110
1001
,
1000
0010
0100
0001
1000
0000
0101
0000
,
2001
0001
0001
3001
,
0120
0100
0100
0130
,
1000
0100
1000
0100
1000
0100
1000
0100
,
0020
0030
0002
0003
,
2002
0000
0000
0000
0000
0000
0000
3003
,
1001
0000
0100
0010
0100
0000
0110
0000
,
1001
0000
0000
0000
0101
0000
0000
0000
0001
0000
0000
1000
0100
0000
0000
0000
,
0010
0100
1000
0100
0010
0000
1100
0000
,
1001
0000
0000
0000
1100
0000
0000
0000
1000
0000
0000
0001
0100
0000
0000
0000
,
0010
0100
0001
0100
0010
0000
0101
0000
,
1001
0000
0000
0000
0011
0000
0000
0000
0001
0000
0000
1000
0010
0000
0000
1000
,
0100
0010
0001
0100
0010
0000
1010
0000
,
1001
0000
0000
0000
1010
0000
0000
0000
1000
0000
0000
0001
0010
0000
0000
0001
,
0100
0010
1000
0100
0010
0000
0011
0000
,
2000
0100
0000
3100
,
0002
0100
0000
0103
,
2000
3100
0002
0013
,
0010
0100
1000
0001
0100
0000
0010
0000
,
2000
0010
0000
3010
,
0002
0010
0000
0013
,
2000
3010
0002
0013
,
1100
0000
0000
0010
0000
0001
1000
0100
,
0010
0000
0000
0000
0011
0000
0000
0000
0010
0000
0000
0100
0000
0000
1001
0000
,
0000
0000
0100
0000
0100
0000
0000
0000
1001
0000
0000
0100
0000
0000
1000
0000
,
0001
0000
0000
0000
0100
0000
0000
0000
0101
0000
0000
0100
0000
0000
0001
0000
,
0000
0010
0010
0000
1100
0000
0110
0000
,
0000
0000
0000
0000
0000
0000
0000
0000
0011
0000
0000
1100
0000
0000
0011
0000
,
0000
0000
0100
0000
0100
0000
0000
0000
0001
0000
0000
0100
0000
0000
0010
0000
,
1000
0000
0000
0000
1001
0000
0000
0000
0100
0000
0000
1000
0000
0000
0101
0000
,
0000
0000
1000
0000
1000
0000
0000
0000
1010
0000
0000
0101
0000
0000
2000
0000
,
0002
0000
0003
0000
0002
0000
0003
0000
3001
0000
0000
2000
0000
0000
3001
0000
,
0000
0000
0000
0000
0000
1000
0100
0010
,
0001
0000
0000
0000
1100
0000
0000
0000
0001
0000
0000
0010
0000
0000
0001
0000
,
0000
0100
0001
1000
0001
0100
0010
0000
,
1010
0000
0000
0000
0100
0000
0000
0000
0001
0000
0000
0010
0000
0000
0000
0000
,
0001
0000
0010
0000
0100
0000
1000
0000
0000
0100
0000
0100
0000
0000
0000
0000
,
1002
1000
1000
1003
,
0120
0100
0100
0130
,
0001
0100
0001
1000
0100
1000
0100
0010
,
0001
0010
0001
0100
0010
0100
0010
1000
,
0100
0010
0001
0010
0100
1000
0100
0010
,
0001
0001
0010
0010
0100
0100
1000
2000
,
0002
0000
0000
3003
,
0000
0000
1000
0001
1000
0001
0101
0000
,
1001
0000
0000
0000
0101
0000
0000
0000
0001
0000
0000
1000
0100
0000
0000
0100
,
0010
0100
1000
0100
0010
0000
1100
0000
,
1001
0000
0000
0000
1100
0000
0000
0000
1000
0000
0000
0001
0100
0000
0000
0100
,
0010
0100
0001
0100
0010
0000
0101
0000
,
1001
0000
0000
0000
0011
0000
0000
0000
0001
0000
0000
1000
0010
0000
0000
1000
,
0100
0010
0001
0100
0010
0000
1010
0000
,
1001
0000
0000
0000
1010
0000
0000
0000
1000
0000
0000
0001
0010
0000
0000
0001
,
0100
0010
1000
0100
0010
0000
0011
0000
,
2002
0000
0000
0000
,
3003
0000
0000
0000
;
