#TITLE:Crinoid;
#SUBTITLE:;
#ARTIST:RONDO;
#TITLETRANSLIT:;
#SUBTITLETRANSLIT:;
#ARTISTTRANSLIT:;
#GENRE:;
#CREDIT:;
#MUSIC:Crinoid.ogg;
#BANNER:Crinoid.png;
#BACKGROUND:Crinoid-bg.png;
#CDTITLE:;
#SAMPLESTART:52.734;
#SAMPLELENGTH:10.216;
#SELECTABLE:YES;
#OFFSET:0.780;
#BPMS:0.000=185.000;
#STOPS:;
#BGCHANGES:;
#FGCHANGES:;

//--------------- dance-single - FrozenRay ----------------
#NOTES:
     dance-single:
     FrozenRay:
     Hard:
     13:
     0,0,0,0,0:
0000
0000
0000
0000
,
0000
0000
0000
0000
,
0000
0000
0000
0000
,
0000
0000
0000
0000
,
0000
0000
0000
0000
,
0000
0000
0000
0000
,
1000
0000
0101
0000
0001
1000
0100
0000
,
0010
0000
0110
0000
0100
1000
0001
0100
,
0020
0000
0000
0000
0000
0000
0000
0000
0000
0000
0000
0000
0030
0000
1000
0010
,
1000
0010
1000
0010
0100
0010
0100
0010
1000
0000
0000
0000
0000
0000
0000
0000
,
2002
0000
3003
0000
,
0101
0000
0000
0100
0000
0000
0100
0000
0010
0000
0000
0000
1010
0000
0000
0000
,
1000
0000
0100
1000
0000
0001
0000
0010
,
0001
1000
0100
1000
0000
0010
0000
1000
,
1100
1100
1001
1001
,
0001
0000
0100
0000
0001
0000
1000
0000
0100
0000
0000
0100
0000
0000
0100
0000
,
0010
0100
1000
0010
0000
0001
0100
0010
,
0100
0001
0010
0100
1000
0001
0100
0010
,
1000
0000
1000
0100
0000
0100
0010
0000
,
0000
0000
0000
0010
0001
0010
0001
0010
,
0100
0000
0100
1000
0000
1000
0001
0000
,
0000
0000
0000
1000
0001
0100
0010
1000
,
0001
0000
0011
0000
0000
0000
0000
0010
,
0100
1100
0000
1000
,
0010
0000
0100
0010
0000
0100
0001
0000
,
0000
0000
0000
0000
0000
0000
0100
0000
0001
0000
0000
1000
0000
0000
0100
0000
,
0010
0000
0000
0000
0000
0000
0001
0000
1000
0000
0000
0010
0000
0000
0100
0000
,
0001
0000
0000
0000
0000
1000
0001
1000
,
0001
0000
0100
0010
0000
0010
0100
0000
,
0000
0000
0000
0000
0000
0000
0001
0000
1000
0000
0000
0100
0000
0000
0010
0000
,
0100
0000
0000
1000
0001
0100
0000
0010
,
0100
0000
0001
0100
,
0010
0000
0100
0010
1000
0000
0000
1000
,
0001
0000
0000
0000
0001
0000
0000
0000
0010
0000
0000
0010
0000
0000
0010
0000
,
0100
0000
1100
0000
1000
0100
1000
0001
,
0100
0000
0110
0000
0100
0001
0100
0010
,
1000
0000
1010
0000
0010
1000
0100
0010
,
0100
0000
0000
0000
0011
0000
0000
0000
0001
0000
0010
0001
0010
0001
0010
0001
,
1000
0000
1001
0000
0100
0000
0100
0010
,
0100
0000
0001
1000
0001
1000
0010
1000
0010
1000
0010
0100
0010
0100
0010
0100
,
0001
0000
0000
0101
0000
1010
0000
0101
,
0000
0000
0001
0000
1000
0001
0100
0010
,
0000
0100
0001
0100
0010
0010
0100
0001
,
1000
1000
0100
0010
0100
1000
0001
0100
,
0000
0100
0010
1000
0000
0100
0010
0000
,
0110
0000
0100
0000
1000
0100
1000
0001
,
0000
0001
1000
0100
1000
0010
0100
0001
,
0000
0001
0010
0100
0010
0100
1000
0001
,
0000
1000
0001
0010
0000
0010
0001
0100
,
0000
0000
0010
0000
0100
0010
1000
0001
,
0000
1000
0100
0010
0000
0001
0100
0010
,
1000
0000
1010
0000
0100
0001
1000
0001
,
0000
0100
0000
0010
0000
0100
0001
0000
,
1001
1001
0110
1001
,
0001
0000
0001
0100
0000
0100
0010
0000
,
0100
0000
0001
0100
0001
0100
0010
0100
0010
0100
0010
1000
0001
0000
1000
0000
,
1000
0000
0000
0100
0100
0000
0010
0100
,
1000
0001
0100
0001
,
2002
0000
3003
0000
,
0101
0000
0000
0100
0000
0000
0100
0000
0010
0000
0000
0000
1010
0000
0000
0000
,
1000
0000
0100
1000
0000
0001
0000
0010
,
0001
1000
0100
1000
0000
0010
0000
1000
,
1100
1100
1001
1001
,
0001
0000
0100
0000
0001
0000
1000
0000
0100
0000
0000
0100
0000
0000
0100
0000
,
0010
0100
1000
0010
0000
0001
0100
0010
,
0100
0001
0010
0100
1000
0001
0100
0010
,
1000
0100
1000
0001
1000
0001
0000
0100
,
0001
0000
0100
0000
0010
0000
1000
0000
0000
0000
0100
0000
0100
0010
0100
1000
,
0100
0010
0001
1000
1000
0001
0000
0100
,
0001
0000
1000
0000
0001
0000
0010
0000
0100
1000
0100
1000
0100
1000
0100
1000
,
0100
1000
1000
0001
0100
0100
0001
0010
,
0010
0001
1000
1000
0100
0000
0110
0000
,
1001
1001
1001
0110
,
1000
0001
1000
0001
1000
0001
2000
0002
,
0000
0000
0000
0000
,
3003
0000
0000
0000
0000
0000
0000
0000
0000
0000
0000
0000
0000
0000
0000
1001
,
0000
0000
0000
0100
0000
0000
0000
0000
,
0011
0000
0000
0000
,
1100
0000
0000
0001
0000
0010
0000
0000
,
0110
0000
0000
0000
,
1002
1000
1000
1003
,
0210
0010
0010
0310
,
1000
0001
0001
0100
0010
0010
1000
0001
,
1000
0001
1000
0001
1000
0001
1000
0000
,
0110
0000
0000
0110
0000
0000
0101
0000
,
1000
0000
0001
0100
0001
0000
1000
0000
0001
0100
0001
0100
0010
0100
0010
0100
,
0001
1000
0001
1000
0001
0000
0000
0000
1000
0000
0100
0000
0010
0000
0001
0000
,
0000
0000
1000
0100
1000
0000
0001
0000
0010
0000
0100
0000
0010
0000
0001
0000
,
0000
0001
1000
0001
0100
0010
0100
0001
,
0000
1000
0100
0010
0000
1000
0001
0000
,
0100
0000
0100
0000
0001
1000
0001
0100
,
0000
0100
0010
0000
0010
0100
0010
1000
,
0000
1000
0001
0000
0001
1000
0001
1000
,
0000
0101
0000
0010
0000
0001
0010
0100
,
0000
0000
0100
0000
0010
0100
1000
0001
,
0000
0001
1000
0001
0100
0010
1000
0001
,
0000
0001
0100
0010
0100
0010
1000
0100
,
0000
0100
0000
0000
1100
0000
0001
0010
,
0001
0000
0010
0001
0010
0001
0010
0100
0010
0100
0010
0100
1000
0100
1000
0100
,
1000
0000
1000
0101
0000
0001
1100
0000
,
0010
0100
0010
0100
0010
0100
1000
0001
,
1000
0100
0100
0010
0100
0100
1000
0001
,
1000
0001
1000
0001
0100
0010
0100
0010
;
