#TITLE:Climax Jump;
#SUBTITLE:;
#ARTIST:Merm4id;
#TITLETRANSLIT:;
#SUBTITLETRANSLIT:;
#ARTISTTRANSLIT:;
#GENRE:;
#CREDIT:;
#MUSIC:Climax Jump.ogg;
#BANNER:Climax Jump.png;
#BACKGROUND:Climax Jump-bg.png;
#CDTITLE:;
#SAMPLESTART:17.899;
#SAMPLELENGTH:11.294;
#SELECTABLE:YES;
#OFFSET:0.454;
#BPMS:0.000=170.000
,148.000=85.000
,172.000=170.000
;
#STOPS:;
#BGCHANGES:;
#FGCHANGES:;

//--------------- dance-single - FrozenRay ----------------
#NOTES:
     dance-single:
     FrozenRay:
     Hard:
     12:
     0,0,0,0,0:
0000
0000
0000
0000
,
0000
0000
0000
0000
,
0000
0000
0000
0000
,
0000
0000
0000
0000
,
0000
0000
0000
0000
,
0000
0000
0000
0000
,
0000
0000
0000
0000
,
0000
0000
0000
0000
,
0000
0000
0000
0000
,
1000
0001
1000
0001
1000
0001
1000
0001
,
0100
0010
0100
0010
0100
0010
0100
0010
,
1000
0010
1000
0010
0100
0001
0100
0001
,
0020
0000
0130
0010
,
1100
1001
1100
1001
,
1100
1001
0011
0110
,
1001
0101
1001
0101
,
2002
3003
2002
3003
0100
1000
0001
0000
,
1100
1001
0101
1001
,
1100
1001
0101
0110
,
1001
0110
1001
0110
,
2002
0000
0000
0000
0000
0000
0000
3003
,
0010
0000
1000
0001
0000
0100
0000
0000
,
0010
1000
0001
0100
,
0001
1000
0100
1000
0000
0000
0000
0000
,
0101
0001
0010
0100
,
0100
1000
0001
0010
0000
0001
0000
0000
,
1000
0000
0001
0000
0100
0000
0001
0010
,
0010
0000
1000
0001
0000
0000
0000
0000
,
0100
0000
0001
0000
1000
0010
0000
0100
,
0001
0100
0001
0100
0001
1000
0001
1000
,
0100
1000
0000
0020
0000
0000
0030
0100
,
0001
1000
0001
1000
0100
1000
0100
1000
,
0001
1000
0000
0200
0000
0000
0300
0000
,
1000
0100
0010
0001
0000
0001
0010
0100
,
1000
0010
0100
0001
,
1200
0000
0000
0300
0120
0000
0000
0030
,
0012
0000
0000
0000
0000
0003
0000
0000
,
2200
0000
3300
0000
1000
0100
1000
0100
1000
0001
0010
0000
0001
1000
0010
0000
,
0202
0000
0303
0000
0001
1000
0001
0000
1000
0000
1000
0001
0010
0001
1000
0000
,
0001
0100
0001
0000
1000
0001
0100
0010
0100
0010
1000
0000
1000
0001
0100
0001
,
2000
0000
3000
0000
1000
0001
0010
0000
0001
0000
0010
0100
2000
0000
3000
0000
,
2002
0000
3003
0000
1000
0001
1000
0100
1000
0010
1000
0000
1000
0010
0100
0001
,
2000
0000
3000
0000
0001
0010
0001
0000
1000
0000
0010
0100
0001
1000
0010
0100
,
0001
1000
0100
1000
,
0010
0100
0001
0100
,
1000
0100
0001
0010
,
1000
0010
0001
0100
,
0001
1000
0010
1000
,
0001
0010
0100
1000
,
0010
0100
0001
0100
,
1000
0100
0010
1000
,
0001
1000
0100
1000
0001
1000
0100
1000
,
0010
1000
0100
1000
0010
1000
0100
1000
,
0020
0000
1030
0000
,
2200
0000
0000
3300
,
0001
0000
0000
1000
0000
0000
0001
0000
0100
0000
0000
0000
0101
0000
0001
0100
,
0001
0000
0000
1000
0000
0000
0001
0000
1000
0000
0000
0000
1100
0000
0000
0000
,
0001
0000
0000
0010
0000
0000
0001
0000
0100
0000
0000
0000
1010
0000
1000
0000
,
0010
0000
0000
1000
0000
0000
0100
0000
0010
0000
0000
0000
0011
0000
0000
0000
,
0100
0000
0000
1000
0000
0000
0010
0000
0100
0000
0000
0001
0000
0000
0010
0000
,
0100
0000
0000
1000
0000
0000
0001
0000
0110
0000
0000
0000
1001
0000
0000
0000
,
1000
0001
0020
0002
0000
0000
0033
0000
,
0120
0000
0000
0000
0000
0000
0030
0100
,
1000
0000
0000
0010
0000
0000
1000
0000
0010
0000
0000
0000
1010
0000
0010
0000
,
0100
0000
0000
0001
0000
0000
1000
0000
0100
0000
0000
0000
1100
0000
0000
0000
,
0001
0000
0000
0001
0000
0000
0010
0000
0100
0000
0000
0010
0000
0000
0001
0000
,
1000
0000
0000
0100
0000
0000
0010
0000
,
0001
1000
0001
1000
0001
1000
0001
1000
,
0010
0100
0010
0100
0010
0100
0010
0100
,
0002
0000
0000
0000
0000
0000
0000
0003
,
2020
0000
0000
0000
0000
0000
0000
0000
0000
0000
0000
0000
0000
0000
0000
3030
,
1000
0000
0100
1000
0100
0000
1000
0000
0001
0000
0100
0000
0010
0000
0100
0000
,
0010
0000
0100
0010
0100
0000
0010
1000
0010
0000
0010
0000
0100
0000
0001
0000
,
0001
0000
0010
0001
0010
0000
0001
0000
1000
0000
0010
0000
0100
0000
0010
0000
,
0100
0000
0010
0100
0010
0000
0100
0010
0100
0000
0100
0000
0010
0000
1000
0000
,
0001
1000
0001
1000
0010
1000
0010
1000
,
0100
1000
0100
1000
0001
1000
0001
1000
,
0010
1000
0010
0000
0100
0010
0100
0000
0001
1000
0001
0000
1000
0100
1000
0000
,
0100
0010
0100
0000
0100
1000
0001
0000
0100
0001
0100
0001
0100
0001
0100
0001
;
