#TITLE:Atmosphereround;
#SUBTITLE:;
#ARTIST:Happy Around!;
#TITLETRANSLIT:;
#SUBTITLETRANSLIT:;
#ARTISTTRANSLIT:;
#GENRE:;
#CREDIT:;
#MUSIC:Atmosphereround.ogg;
#BANNER:Atmosphereround-bn.png;
#BACKGROUND:Atmosphereround-bg.png;
#CDTITLE:;
#SAMPLESTART:54.178;
#SAMPLELENGTH:23.333;
#SELECTABLE:YES;
#OFFSET:1.378;
#BPMS:0.000=162.000;
#STOPS:;
#BGCHANGES:2.348=Atmosphereround.mp4=1.000=0=0=1,
99999.000=-nosongbg-=1.000=0=0=0=StretchNoLoop====
;
#FGCHANGES:;

//--------------- dance-single - FrozenRay ----------------
#NOTES:
     dance-single:
     FrozenRay:
     Hard:
     10:
     0,0,0,0,0:
0000
0000
0000
0000
,
0000
0000
0000
0000
,
0000
0000
0000
0000
,
0000
0000
0000
0000
,
0000
0000
0000
0000
,
0101
0110
1010
2002
,
3003
0000
0000
0000
,
1100
0110
0011
2002
,
3003
0100
1010
0101
,
0001
0000
1000
0010
0000
1000
0000
0001
,
0000
0010
0001
0000
1100
0000
1000
0020
,
0000
0030
0100
0002
0000
0003
0001
1000
,
0000
1000
0100
1000
0001
0000
0110
0000
,
0012
1000
0103
2020
,
3030
0000
0100
0010
1000
0100
0010
0000
,
2200
0000
0000
3300
,
0002
0000
0023
0000
0230
0000
1000
1300
,
0000
0000
0000
0000
,
2000
3000
2000
3000
,
0002
0003
0002
0003
,
0100
0100
0010
0010
,
0100
0001
0000
1000
0001
1000
0000
0000
,
0002
0003
0002
0003
,
2000
3000
2000
3000
,
1020
0100
0001
0130
,
1000
0001
0000
0001
1000
0100
0010
0010
,
0001
0011
0001
0011
,
0001
1001
0001
0101
,
0100
0010
1000
0001
0100
1000
0100
0010
,
0000
0100
0100
0100
0010
0000
0000
0000
,
0002
0003
2000
3000
,
0020
0030
0200
0300
,
2002
3003
0020
0030
,
2200
3300
0002
0003
,
1010
0000
0000
0101
0000
0000
0001
0000
,
1000
0000
0000
0001
0000
0000
0010
0000
,
1200
0000
1000
0000
1000
0000
1300
1000
,
0000
0010
0010
0000
0101
0000
0110
0000
,
1000
0000
1010
0000
1000
0001
0100
0010
,
0000
0100
0010
1000
0000
0000
0100
0010
,
0001
0000
0011
0000
0001
1000
0010
0100
,
0000
0001
1000
0100
0000
0000
0010
0200
,
0000
0300
1000
0002
0000
0003
0100
0020
,
0000
0030
1000
0020
0000
0030
0100
0002
,
0000
0003
0001
2000
0000
3000
1000
0200
,
0000
0310
0110
1100
,
0001
0000
0101
0000
0001
1000
0010
0100
,
0000
0010
0100
0001
0000
0000
0010
0100
,
1000
0000
1100
0000
1000
0001
0100
0010
,
0000
1000
0001
0010
0000
0000
0100
0000
,
2100
0000
0001
0000
3100
0000
0010
0100
,
0010
0000
0000
0100
0100
0010
2000
0002
,
0000
0000
0000
0000
,
3003
0100
0110
1010
,
1000
0000
0000
1000
0010
0000
0000
0010
1000
0000
0000
1000
0001
0000
0000
0001
,
0010
0000
0000
0010
0100
0000
0000
0100
1000
0000
0000
0000
0100
0000
0010
0000
,
0001
0000
1000
0100
0010
0000
0010
0100
,
1000
0001
1000
0100
1000
0010
0010
0000
,
0101
0110
1010
2002
,
3003
0000
0001
1000
0010
1000
0001
0000
,
2200
0000
0000
3300
,
0002
0000
0023
0000
0230
0000
1000
1300
,
0000
0000
0000
0000
,
0002
0003
0002
0003
,
2000
3000
2000
3000
,
0100
0100
0010
0010
,
0100
1000
0000
0001
1000
0001
0000
0000
,
2000
3000
2000
3000
,
0002
0003
0002
0003
,
0021
0100
1000
0130
,
0001
1000
0000
1000
0001
0100
0010
0010
,
2000
3000
2000
3000
,
0002
0000
0003
1000
0001
0100
0010
1000
,
2000
3000
2000
3000
,
0002
0000
0003
1000
0001
0100
0010
0100
,
0002
0003
0002
0003
,
0020
0000
0030
0001
0010
0100
1000
0001
,
0200
0300
0200
0300
,
0020
0000
0030
1000
0010
0100
0001
1000
,
0200
0300
0000
0000
;
