#TITLE:Agehachou;
#SUBTITLE:;
#ARTIST:Peaky P-key;
#TITLETRANSLIT:;
#SUBTITLETRANSLIT:;
#ARTISTTRANSLIT:;
#GENRE:;
#CREDIT:;
#MUSIC:Agehachou.ogg;
#BANNER:Agehachou-bn.png;
#BACKGROUND:Agehachou-bg.png;
#CDTITLE:;
#SAMPLESTART:27.433;
#SAMPLELENGTH:14.538;
#SELECTABLE:YES;
#OFFSET:-2.048;
#BPMS:0.000=130.000;
#STOPS:;
#BGCHANGES:;
#FGCHANGES:;

//--------------- dance-single - FrozenRay ----------------
#NOTES:
     dance-single:
     FrozenRay:
     Easy:
     4:
     0,0,0,0,0:
0000
0000
0000
0000
,
0000
0000
0000
0000
,
0000
0000
0000
0000
,
0000
0000
0000
0000
,
0001
1000
0100
0000
,
0001
0010
0100
0000
,
0011
0000
1100
0000
,
0001
0010
0100
1000
,
0010
0010
0000
1000
,
0001
0010
0000
0001
,
1001
0000
0110
0000
,
0001
0010
0001
0100
,
0220
0000
0000
0330
,
0000
0000
0000
0000
,
0001
1000
0010
0000
,
1000
1000
0001
0001
,
1000
0010
0100
0000
,
0010
0010
0100
0100
,
0001
1000
0010
0000
,
1000
1000
0001
0001
,
1000
0001
0010
0000
,
0001
0100
0010
0000
,
1000
0000
0101
0000
,
0001
0000
1100
0000
,
1000
0001
0100
0000
,
0100
0001
1000
0000
,
0010
1000
0001
0000
,
1000
0001
0010
0000
,
0001
0100
0010
0000
,
2020
0000
3030
0000
,
0110
0000
1001
0000
,
0101
0000
1010
0000
,
0010
1000
0010
0000
,
1000
0001
1000
0000
,
0011
0000
0110
0000
,
1001
0000
0101
0000
,
2002
0000
3003
0000
,
0220
0000
0330
0000
,
0001
0001
1000
1000
,
0200
2000
3300
0010
,
1000
0010
0100
0010
,
1000
0010
0100
0001
,
0010
0010
0100
0100
,
0010
0001
0010
0100
,
1100
0000
0101
0000
,
1010
0000
0110
0000
,
0010
0010
0100
0100
,
0001
0100
1000
0100
,
2002
0000
0000
0000
0000
3003
0000
0000
,
0100
0100
0100
0000
,
0001
1000
0010
0100
,
0001
0001
1000
1000
,
0001
0010
0100
1000
,
0010
0010
0100
0100
,
0001
1000
0010
0100
,
0001
0001
1000
1000
,
0010
0100
0001
0100
,
0010
0000
2020
3030
;

//--------------- dance-single - FrozenRay ----------------
#NOTES:
     dance-single:
     FrozenRay:
     Medium:
     8:
     0,0,0,0,0:
0000
0000
0000
0000
,
0000
0000
0000
0000
,
0000
0000
0000
0000
,
0000
0000
0000
0000
0001
1000
0010
1000
,
0001
1010
0100
0010
,
0101
0000
0010
0000
0100
1000
0100
0000
,
0011
0000
0100
0010
0100
0001
1000
0000
,
0001
0100
0010
0100
0010
1000
0100
0000
,
0010
0001
0010
0100
0000
1000
1000
0000
,
1000
0100
0010
0100
0000
0001
0001
0000
,
1001
0000
0100
0001
0010
0100
1000
0000
,
0001
0100
0010
0000
0001
1000
0100
0000
,
0220
0000
0000
0330
,
0010
0001
0100
0100
0000
0000
1000
0010
,
1000
0001
0010
0000
0010
0001
1000
0010
,
1000
0000
1000
0000
0001
0000
0001
0010
,
0001
1000
0010
0000
0010
1000
0001
0010
,
0100
0000
0001
0000
0100
0001
0001
0000
,
1000
0001
0100
0000
0001
1000
0100
0000
,
1000
0000
0001
1000
0100
0010
0001
0000
,
0001
1000
0100
0000
1000
0001
0100
0000
,
0001
0000
0100
0001
0010
0000
1100
0000
,
0001
1000
0100
0000
0001
0000
1100
0000
,
1000
0001
0100
0000
1000
0000
0101
0000
,
0001
1000
0100
0000
1000
0001
0100
0000
,
0100
0001
0100
0001
0010
0000
1100
0000
,
0010
0001
1000
0000
0001
0000
1010
0000
,
1000
0001
0010
0000
1000
0000
0011
0000
,
0001
0010
0100
0000
0100
1000
0001
0010
,
0010
0000
1001
0000
1000
0001
0100
0000
,
0110
0000
0000
1100
0000
0000
0010
0000
,
0101
0000
0000
0011
0000
0000
0001
0000
,
0010
0001
1000
0001
0010
0100
1000
0000
,
0010
1000
0001
1000
0010
0100
0001
0000
,
1100
0000
0000
0011
0000
0000
0100
0000
,
1010
0000
0000
1100
0000
1000
1000
0000
,
0002
0100
0000
0100
0000
0103
0000
0000
,
0020
1000
0000
1000
0000
1030
0000
0000
,
0000
1000
0000
0100
0000
1001
0000
0010
,
0100
0000
2000
0000
3000
0001
0010
0001
,
1000
0001
0010
0001
0100
0000
0010
0000
,
0001
1000
0010
1000
0100
0000
1000
0000
,
0010
0000
0100
0010
0100
0001
1000
0100
,
0010
0100
1000
0000
0010
0100
0010
0000
,
0010
1000
0010
0100
0001
0000
0101
0000
,
0010
0100
1000
0100
0010
0000
1100
0000
,
0100
0000
0100
1000
0010
0100
0001
0000
,
1000
0100
0010
0100
1000
0001
0100
0000
,
2002
0000
0000
0000
0000
3003
0000
0000
,
0100
0000
0100
0000
0100
0000
0010
0001
,
0100
0001
0010
0000
0001
0100
0010
0000
,
1000
0000
0001
0000
0100
0010
0010
0000
,
0100
0010
1000
0000
0100
1000
0010
0000
,
1000
0100
0010
1001
,
0001
1000
0010
0000
1000
0001
0010
0000
,
0100
0000
1000
0000
0001
1000
0100
0000
,
0010
0001
0100
0000
0100
0001
0010
0000
,
0001
0100
0010
1010
;

//--------------- dance-single - FrozenRay ----------------
#NOTES:
     dance-single:
     FrozenRay:
     Hard:
     12:
     0,0,0,0,0:
0000
0000
0000
0000
,
0000
0000
0000
0000
,
0000
0000
0000
0000
,
0000
0000
0000
0000
0001
1000
0010
1000
,
0001
0000
1000
0001
0010
0000
0001
0010
0100
0000
0000
0110
0000
0000
1100
0000
,
1000
0000
0001
1000
0010
0000
1000
0010
0100
0000
0100
0001
0000
0000
0001
0000
,
0011
0000
0000
0000
0100
0000
0010
0000
0100
0000
0001
1000
0000
0010
0000
0000
,
1000
0000
0100
0000
0010
0000
0100
0000
0010
0000
0001
1000
0000
0000
0001
0000
,
0010
0000
0001
0100
0010
0000
0100
0000
0010
0000
1000
0000
1100
0000
0000
0000
,
1000
0000
0100
1000
0010
0000
0100
0000
0010
0000
0100
0000
0101
0000
0000
0000
,
1001
0000
0100
0001
0010
0100
1000
0100
,
0001
0100
1000
0010
0001
0010
1000
0100
,
0220
0000
0000
0330
,
0010
0000
0001
0000
0101
0000
1100
0000
0000
0000
0000
0000
1000
0100
0010
0001
,
1000
0000
0001
0100
0010
0000
0100
0001
0010
0000
0001
0100
0010
1000
0010
0000
,
1000
0000
0000
0001
0000
0000
0100
0000
0001
0000
0010
0000
0001
0100
0010
1000
,
0001
0000
1000
0100
0010
0000
0100
1000
0010
0000
1000
0100
0010
0001
0010
0000
,
0100
0000
0000
1000
0000
0000
0010
0000
0100
0000
0001
0000
0001
0100
0010
0000
,
1000
0000
0001
0010
0100
0000
0100
0010
0001
0000
0001
0010
0100
1000
0100
0000
,
1000
0000
0000
0001
0000
0000
1000
0000
0100
0000
0010
0000
0001
0100
0010
1000
,
0001
0000
1000
0010
0100
0000
0100
0010
1000
0000
1000
0010
0100
0001
0100
0000
,
0001
0000
0000
1000
0000
0000
0001
0000
1000
0000
0100
0000
1100
0000
0000
0000
,
0001
1000
0100
0000
0001
0000
1100
0000
,
1000
0001
0100
0000
1000
0000
0101
0000
,
0001
1000
0100
0000
1000
0001
0100
0000
,
0100
0001
0100
0001
0010
0100
1000
0100
,
0010
0001
1000
0000
0001
0000
1010
0000
,
1000
0001
0010
0000
1000
0000
0011
0000
,
0001
0010
0100
0000
0100
1000
0001
0010
,
0010
0000
1001
0000
1000
0001
0100
0000
,
0110
0000
0000
1000
0000
0000
1100
0000
0000
0000
1000
0000
0010
0000
0100
0000
,
0101
0000
0000
0001
0000
0000
0011
0000
0000
0000
0001
0000
0001
0000
0000
0000
,
0010
0001
1000
0001
0010
0100
1000
1000
,
0010
1000
0001
1000
0010
0100
0001
0000
,
1100
0000
0000
0001
0000
0000
0011
0000
0000
0000
0001
0000
0100
0000
0010
0000
,
1010
0000
0000
1000
0000
0000
1100
0000
0000
0000
1000
0000
1000
0000
0000
0000
,
0002
0100
0000
0100
0000
0100
0003
0100
,
0020
1000
0000
1000
0000
1000
0030
1000
,
0000
1100
0000
1100
0000
1001
0000
0010
,
0100
0000
2000
0000
3000
0001
0010
0001
,
1000
0000
0001
1000
0010
0000
1000
0010
0100
0000
0000
0010
0000
0000
0100
0000
,
0001
0000
1000
0001
0010
0000
0001
0010
0100
0000
0100
1000
0000
0000
1000
0000
,
0010
0000
0100
0010
0100
0001
1000
0100
,
0010
0000
0100
0000
1000
0000
1000
0000
0010
0000
0100
0001
0000
0000
1000
0000
,
0010
0000
1000
0100
0010
0000
0100
0010
0001
0000
0001
0100
0000
0000
0100
0000
,
0010
0000
0100
0010
1000
0000
1000
0010
0100
0000
0000
0001
0000
0000
0010
0000
,
0100
0000
0100
1000
0010
0100
0001
0100
,
1000
0100
0001
0010
1000
0010
0001
0100
,
2002
0000
0000
0000
0000
3003
0000
0000
,
0100
0000
0000
0000
0100
0000
0000
0000
0100
0000
0000
0000
0010
0100
0001
1000
,
0100
0000
1000
0001
0100
0000
0001
1000
0100
0000
0100
1000
0001
0100
0001
0000
,
0100
0000
0000
0001
0000
0000
1000
0000
0100
0000
0010
0000
0010
0100
1000
0001
,
0100
0000
0100
0001
1000
0000
0100
1000
0001
0000
0100
0001
1000
0100
1000
0000
,
0010
0000
0000
0100
0000
0000
0001
0000
0100
0000
0010
0000
1000
0010
1000
0000
,
0001
0000
1000
0001
0010
0000
0010
0001
1000
0000
0010
1000
0001
0100
0010
0000
,
0100
0000
0000
0001
0000
0000
0100
0000
0001
0000
1000
0000
0100
0010
0001
1000
,
0010
0000
0010
0100
0001
0000
0001
0010
0100
0000
0010
0100
1000
0100
1000
0000
,
0001
0000
0000
0000
0000
0000
0000
0000
0000
1000
0000
0000
0000
0000
0000
0000
0000
0000
0100
0000
0000
0000
0000
0000
0010
0000
0000
0000
0001
0000
0000
0000
0010
0000
0000
0000
0001
0000
0000
0000
0000
0000
0000
0000
0000
0000
0000
0000
;
