#TITLE:Agapë;
#SUBTITLE:;
#ARTIST:Lyrical Lily;
#TITLETRANSLIT:;
#SUBTITLETRANSLIT:;
#ARTISTTRANSLIT:;
#GENRE:;
#CREDIT:;
#MUSIC:Agape.ogg;
#BANNER:Agape-bn.png;
#BACKGROUND:Agape-bg.png;
#CDTITLE:;
#SAMPLESTART:63.234;
#SAMPLELENGTH:27.755;
#SELECTABLE:YES;
#OFFSET:-2.010;
#BPMS:0.000=147.000;
#STOPS:;
#BGCHANGES:;
#FGCHANGES:;

//--------------- dance-single - FrozenRay ----------------
#NOTES:
     dance-single:
     FrozenRay:
     Easy:
     4:
     0,0,0,0,0:
0000
0000
0000
0000
,
0000
0000
0000
0000
,
0000
0000
0000
0000
,
0000
0000
0000
0000
,
0000
0000
0000
0000
,
0001
0000
1000
0000
,
0010
0000
0100
0000
,
0010
1000
0100
0010
,
0022
0000
0033
0000
,
2002
0000
0000
3003
0000
0000
0000
0000
,
0100
0000
0100
0010
,
1000
0000
1000
0001
,
0010
0000
0010
0100
,
1001
0000
0101
0000
,
0001
0000
0001
1000
,
0100
0000
0100
0010
,
0001
0000
0001
0100
,
0120
0000
0000
0030
,
0200
0000
0301
0000
,
0002
0000
0013
0000
,
0200
0000
1300
0000
,
1000
0001
1000
0100
,
0010
0000
0100
0000
,
1000
0000
0001
0000
,
0100
0000
1000
0000
,
0001
1000
0100
0010
,
1001
0000
0100
0010
,
0100
0000
0001
0000
,
1000
0000
0100
0011
,
0000
0000
0000
0000
,
1000
0100
1000
1100
,
0100
1000
0100
1000
,
1001
1000
0001
0101
,
0001
0100
0010
0110
,
2000
0000
3001
0000
,
0200
0000
0310
0000
,
2002
0000
0000
3003
,
0000
0000
0000
0000
,
1000
0100
0010
0100
,
1000
0010
1000
0000
,
0001
0001
0010
0010
,
0100
0100
1000
0000
,
0010
0100
0001
0100
,
0001
0010
0100
0000
,
1100
0000
0110
0000
,
2002
0000
0000
3003
,
1000
1000
0010
0001
,
0001
0010
1000
0010
,
0100
0100
0001
0010
,
0010
0100
1000
0001
,
0010
0010
0100
1000
,
1000
0010
0100
0001
,
0010
0001
0010
0100
,
1000
0010
0100
0010
,
2002
0000
0000
3003
0000
0000
0000
0000
,
1000
0001
0100
0000
,
0100
0001
1000
0000
,
0100
0100
1000
0000
,
1001
0000
0110
0000
,
0010
0100
0010
0000
,
0001
1000
0001
0000
,
0100
0001
0100
0010
,
2000
0000
3001
0000
,
0020
0000
0130
0000
,
2000
0000
3010
0000
,
0200
0000
0301
0000
,
2002
0000
0000
0000
,
0000
0000
0000
0000
,
3003
0000
0000
0000
;

//--------------- dance-single - FrozenRay ----------------
#NOTES:
     dance-single:
     FrozenRay:
     Medium:
     7:
     0,0,0,0,0:
0000
0000
0000
0000
,
0000
0000
0000
0000
,
0000
0000
0000
0000
,
0000
0000
0000
0000
,
0000
0000
0000
0000
,
0002
0000
0003
2000
0000
3000
0000
0020
,
0000
0030
0000
0200
0000
0300
0001
0000
,
0010
0000
0001
0000
0100
0000
0010
0010
,
0000
0000
0000
0101
0000
1010
0000
0000
,
2002
0000
0000
3003
0000
0000
0000
0000
,
0200
0010
0000
0010
0000
0000
0310
0000
,
2000
0001
0000
0001
0000
3000
0001
0000
,
0020
0100
0000
0100
0000
0000
0130
0000
,
1001
0000
0101
0000
,
0200
1000
0000
1000
0000
0000
1300
0000
,
2000
0001
0000
0001
0000
0000
3001
0000
,
0020
0100
0000
0100
0000
0000
0130
0000
,
2002
0000
0000
3003
,
0200
1000
1000
1300
,
0002
0000
0010
0003
0020
0000
0100
0030
,
0200
0010
1000
0310
,
1000
0001
1000
0100
,
0101
0000
0000
0100
0000
0010
0000
0110
,
0000
0000
0000
1000
0000
0010
0000
1010
,
0000
0000
0000
0001
0000
0010
0000
0011
,
0000
1000
0100
0010
,
1001
0000
0001
0100
0000
0010
0000
1000
,
0000
0001
0000
0010
0000
0000
0000
1000
,
0100
0000
0010
0001
0000
0001
1000
0000
,
0000
0001
0010
0000
0010
0001
0000
0000
,
1000
0000
1000
0001
1000
0000
1010
0000
,
0100
0000
0100
0000
0100
0010
0010
0000
,
1001
0000
1000
0001
1000
0000
0011
0000
,
0100
0000
0100
0010
0100
0010
0010
0100
,
2000
0000
0000
0010
0000
0000
3001
0000
,
0100
0000
0100
0010
0000
0100
0000
2002
,
0000
0000
0000
0000
0000
3003
0000
0001
,
0000
0100
0100
0000
0000
0100
0010
1000
,
0000
0010
0100
0000
0000
0010
1000
0001
,
0000
0100
0010
0000
0000
0010
1000
0001
,
0000
0001
0000
0010
0000
0100
0000
1000
,
0001
0000
0001
1000
0000
0100
1000
0001
,
0000
0010
0001
0000
0000
0001
0010
0100
,
0000
0100
1000
0000
0000
0100
1000
0001
,
0000
0001
0000
0010
0000
0100
0000
2002
,
0000
0000
0000
3003
,
1000
0001
1000
0000
0010
0000
1000
0001
,
1000
0000
0100
0000
1000
0010
0100
0000
,
0001
1000
0001
0000
0010
0000
0001
1000
,
0001
0000
0100
0000
0001
0010
0100
0000
,
0010
0100
0010
0000
0001
0000
0100
0010
,
0100
0000
0001
0000
1000
0010
0100
0000
,
0010
1000
0001
0000
0010
0000
0010
0001
,
1000
0000
0010
0000
1000
0010
0100
0000
,
2002
0000
0000
3003
0000
0000
0000
0000
,
1000
0100
0000
0100
0000
0000
1100
0000
,
1000
0001
0000
0001
0000
0000
1001
0000
,
0001
0100
0000
0100
0000
0000
0101
0000
,
1001
0000
0000
0010
0000
1000
1000
0100
,
0000
1000
0000
0001
0000
0011
0000
0010
,
0000
0100
0000
1100
0000
1000
0100
0010
,
0000
0001
0000
0010
0000
0001
0000
0200
,
0000
0000
0000
0000
0000
0001
0301
0000
,
0020
0000
0000
0000
0000
0100
0130
0000
,
2000
0000
0000
0000
0000
0010
3010
0000
,
0200
0000
0000
0000
0000
0001
0301
0000
,
2002
0000
0000
0000
,
0000
0000
0000
0000
,
3003
0000
0000
0000
;

//--------------- dance-single - FrozenRay ----------------
#NOTES:
     dance-single:
     FrozenRay:
     Hard:
     10:
     0,0,0,0,0:
0000
0000
0000
0000
,
0000
0000
0000
0000
,
0000
0000
0000
0000
,
0000
0000
0000
0000
,
0000
0000
0000
0000
,
0002
0000
0003
2000
0000
3010
0100
0002
,
0000
0013
0100
2000
0000
3000
1100
0000
,
0010
0000
0001
0010
0100
1000
0010
0020
,
0000
0030
0000
0101
0000
1010
0000
0000
,
2002
0000
0000
3003
0000
0100
1000
0001
,
0200
0010
0000
0010
0000
0010
0000
0310
,
2000
0001
0000
0001
0000
0001
0000
3001
,
0020
0100
0000
0100
0000
0100
0000
0130
,
1000
0100
1000
0001
0000
0100
0001
1000
,
0200
0010
0000
0010
0000
0010
0000
0310
,
0002
1000
0000
1000
0000
1000
0000
1003
,
0020
0100
0000
0100
0000
0130
0000
0202
,
0000
0000
0000
0303
,
1200
1000
1000
1300
,
0012
0000
0010
0003
0120
0000
0100
0030
,
1200
0001
1000
0301
,
1000
0010
0100
0001
1000
0001
0100
0000
,
0101
0000
0001
0100
0000
0010
0000
0110
,
0000
0000
0001
1000
0000
0010
0000
1010
,
0000
0000
0100
0001
0000
0010
0000
0011
,
0000
1000
0100
0010
,
1001
0000
0001
0100
0000
0010
0000
0101
,
0000
0110
0000
1010
0000
0000
0000
1000
,
0100
0000
0010
0001
0000
0001
1000
0000
,
0000
0001
0010
0100
1000
0100
0010
0001
,
1000
0000
1000
0001
1000
0000
1010
0000
,
0100
0000
0100
0010
0100
0010
0010
0100
,
0001
0000
0001
1000
0001
0000
0011
0000
,
0100
0000
0100
0010
0100
0010
0010
0100
,
2000
0000
0000
0010
0000
0000
3001
0000
,
0101
0000
0100
0010
0000
0100
0010
1000
,
0002
0000
1000
0000
1000
0000
1003
0001
,
0000
0100
0100
0000
0000
0100
1000
0001
,
1000
0000
1000
0001
0000
0001
0010
0100
,
1000
0000
1000
0100
0000
0100
1000
0001
,
0010
0001
0000
0010
0000
0100
0000
1000
,
0001
0000
0001
1000
0000
0100
1000
0001
,
1000
0010
1000
0001
0000
0001
0010
0100
,
1000
0001
1000
0100
0000
0100
1000
0001
,
0010
0001
1000
0010
0000
0100
0000
1000
,
0001
1000
0001
1000
0010
0100
0010
0000
,
1000
0001
1000
0100
0010
0001
1000
0001
,
1000
0010
0100
0001
1000
0001
0010
0000
,
1000
0001
1000
0100
0010
0100
1000
0010
,
0100
0001
1000
0010
1000
0100
1000
0000
,
0001
1000
0001
0100
0010
1000
0001
1000
,
0001
0010
0100
1000
0001
1000
0010
0000
,
0001
1000
0001
0100
0010
0100
0001
0010
,
0100
1000
0001
0010
0001
1000
0001
0000
,
2002
0000
0000
3003
0000
0100
0001
1000
,
0100
0010
0000
0011
0000
0010
0001
0010
,
0001
1000
0000
1001
0000
1000
0010
1000
,
0010
0100
0000
0101
0000
0100
0000
0100
,
0001
0000
0001
1000
0000
0100
1000
0001
,
0100
0010
0000
1010
0000
0010
0100
0010
,
1000
0001
0000
0011
0000
0001
1000
0001
,
0010
0100
0000
0110
0000
1100
0000
2000
,
0000
0000
0010
0000
0000
0010
3010
0000
,
0200
0000
0001
0000
0000
0001
0301
0000
,
0020
0000
0100
0000
0000
0100
0130
0000
,
0200
0000
1000
0000
0000
1000
1300
0000
,
2002
0000
0000
0000
,
0000
0000
0000
0000
,
3003
0000
0000
0000
;
