#TITLE:Adventure King!;
#SUBTITLE:;
#ARTIST:Lyrical Lily;
#TITLETRANSLIT:;
#SUBTITLETRANSLIT:;
#ARTISTTRANSLIT:;
#GENRE:;
#CREDIT:;
#MUSIC:Adventure King!.ogg;
#BANNER:Adventure King!-bn.png;
#BACKGROUND:Adventure King!-bg.png;
#CDTITLE:;
#SAMPLESTART:102.280;
#SAMPLELENGTH:10.667;
#SELECTABLE:YES;
#OFFSET:0.387;
#BPMS:0.000=180.000;
#STOPS:;
#BGCHANGES:0.387=Adventure King!.mp4=1.000=0=0=1,
99999.000=-nosongbg-=1.000=0=0=0=StretchNoLoop====
;
#FGCHANGES:;

//--------------- dance-single - FrozenRay ----------------
#NOTES:
     dance-single:
     FrozenRay:
     Easy:
     4:
     0,0,0,0,0:
0000
0000
0000
0000
,
0000
0000
0000
0000
,
0000
0000
0000
0000
,
0000
0000
0000
0000
,
0000
0000
0000
0000
,
0000
0000
0000
0000
,
0000
0000
0000
0000
,
0000
0000
0000
0000
,
0000
0000
0000
0000
,
1000
0000
0010
0000
,
0100
0000
0000
0000
,
1000
0000
0001
0000
,
0100
0000
0000
0000
,
2020
0000
3030
0000
,
1000
0000
0001
0000
,
0220
0000
0330
0000
,
0000
0000
0000
0000
,
0100
0000
0010
0000
,
0100
0000
0000
0000
,
1000
0000
0100
0000
,
0010
0000
0000
0000
,
0202
0000
0303
0000
,
0010
0000
1000
0000
,
0200
0000
0300
0000
,
0000
0000
0000
0000
,
0001
0000
0001
0000
,
0100
0000
0000
0000
,
1000
0000
1000
0000
,
0010
0010
0100
0100
,
0001
0000
0001
0000
,
0010
0000
0010
0000
,
0220
0000
0330
0000
,
2200
0000
3300
0000
,
2002
0000
0000
0000
,
3003
0000
0000
0000
,
0001
0000
0001
0000
,
0100
0000
0000
0000
,
0010
0000
0010
0000
,
1000
0001
0100
0000
,
0101
0000
0000
0000
,
0110
0000
0000
0000
,
1000
0000
1000
0000
,
0200
0000
0310
0000
,
1000
0000
1000
0000
,
0100
0000
0000
0000
,
0001
0000
1000
0000
,
0002
0000
0013
0000
,
1100
0000
0000
0000
,
0110
0000
0000
0000
,
0020
0000
0030
0002
,
0000
0003
0200
0000
,
0020
0000
0000
0000
,
0000
0000
0000
0330
0000
0000
0000
0000
,
0001
0001
0100
0000
,
0100
0100
0010
0000
,
0010
0010
1000
0000
,
1000
1000
0100
0000
,
0010
0100
0010
0000
,
0001
0010
0001
0000
,
1000
0001
1000
0000
,
0010
1000
0000
0000
,
1000
0100
0010
0010
,
0001
1000
0100
0100
,
0010
0001
1000
1000
,
0010
0100
0001
0001
,
1000
0010
0100
0100
,
0001
1000
0010
0010
,
0100
0001
2000
0000
,
3010
0000
0000
0000
,
0001
0000
0001
0000
,
2000
0000
3001
0000
,
0001
0000
1000
0000
,
0020
0000
1030
0000
,
0010
0000
0100
0000
,
0010
0000
1000
0000
,
2000
0000
3000
0000
,
0200
0000
0310
0000
,
1000
0000
1000
0000
,
0200
0000
0310
0000
,
1000
0000
0001
0000
,
0020
0000
0031
0000
,
0010
0000
0100
0000
,
1000
0000
0001
0000
,
0020
0000
0030
0200
,
0000
0300
2000
0000
,
3020
0000
0030
2000
,
0000
3000
0002
0000
,
0023
0000
0030
0002
,
0000
0003
0200
0000
,
0320
0030
0000
0000
,
0010
0010
1000
0100
,
0000
0000
0000
0000
,
0001
0100
0001
0010
,
0000
0000
0000
0000
,
1000
0001
0100
0010
,
0200
0000
0000
0000
,
0000
0301
0000
0000
;

//--------------- dance-single - FrozenRay ----------------
#NOTES:
     dance-single:
     FrozenRay:
     Medium:
     6:
     0,0,0,0,0:
0000
0000
0000
0000
,
0000
0000
0000
0000
,
0000
0000
0000
0000
,
0000
0000
0000
0000
,
0000
0000
0000
0000
,
0000
0000
0000
0000
,
0000
0000
0000
0000
,
0000
0000
0000
0000
,
0000
0000
0000
0000
,
0002
0003
1000
0000
,
0200
0300
0010
0001
,
0020
0030
0001
0000
,
2000
3000
0010
1000
,
0202
0303
0001
0100
,
0010
0100
0001
1000
,
0200
0000
0000
0300
0000
0000
0000
0000
,
0100
0000
1000
0000
1000
0001
0010
0000
,
0200
0000
0300
1000
0000
0000
0001
0000
,
0200
0000
0300
0010
0000
0000
1001
0000
,
0020
0000
0030
1000
0000
0000
1000
0000
,
0002
0000
0003
0100
0000
0000
1000
0000
,
0202
0303
1000
0100
,
0010
0100
1000
0001
,
0200
0300
0000
0000
,
0000
1000
0010
0100
,
0001
0001
0010
0000
,
0100
0020
0000
0000
0030
0000
0000
0000
,
0010
0100
0001
0000
,
1001
1001
0110
0110
,
0000
1000
0010
0000
,
0010
0002
0000
0000
0003
0000
0000
0000
,
0011
0000
0110
0000
,
1100
0000
1001
0000
,
1000
0000
1000
0000
0001
0000
0001
2000
,
0002
3003
0000
0000
,
0001
0000
0001
1000
0000
0000
0100
0000
,
2000
0000
3001
0000
,
0001
0000
1000
0001
0000
0000
0010
0000
,
0002
0000
0103
0000
,
0101
0000
1100
0000
,
0110
0000
0011
0000
,
0100
0000
0100
1000
0000
1000
0000
0001
,
0020
0000
0130
0000
,
1000
0000
1000
0001
0000
0000
0100
0000
,
0002
0000
1003
0000
,
1000
0000
0001
1000
0000
0000
0010
0000
,
2000
0000
3100
0000
,
1100
0000
0101
0000
,
0110
0000
1010
0000
,
0100
0000
0100
0001
0000
0000
0001
0000
,
0001
1000
0000
0000
0100
0000
0100
0000
,
0022
0000
0000
0000
,
0000
0000
0000
0033
0000
0000
0000
0000
,
0001
1000
0100
0001
,
0200
0300
0000
0200
0300
0000
0010
0000
,
0001
0001
0010
1000
,
0010
1000
0100
0000
0100
0000
0000
0000
,
0001
0100
0001
0010
,
0200
0300
0000
0200
0300
0000
0010
0000
,
0100
0000
1000
0001
0100
0000
0010
0000
,
0100
0001
0100
0001
0000
0000
0000
0000
,
0001
0000
0000
0000
1000
0000
0000
0000
0001
0000
0000
0010
0000
0000
0000
0000
,
0001
0000
0000
0000
1000
0000
0000
0000
0001
0000
0000
0100
0000
0000
0000
0000
,
0010
0000
0000
0000
0100
0000
0000
0000
0001
0000
0000
1000
0000
0000
0000
0000
,
0100
0000
0000
0000
0100
0000
0000
0000
1000
0000
0000
0001
0000
0000
0000
0000
,
1000
0000
0000
0000
0001
0000
0000
0000
1000
0000
0000
0010
0000
0000
0000
0000
,
1000
0000
0000
0000
0001
0000
0000
0000
1000
0000
0000
0100
0000
0000
0000
0000
,
0010
0000
0000
0000
0100
0000
0000
0000
1000
0000
0000
0001
0000
0000
0000
0000
,
0020
0000
0030
0000
,
0001
0000
0001
1000
0000
0000
0001
0000
,
2000
0000
3001
0000
,
0001
0000
1000
0001
0000
0000
0100
0000
,
0020
0000
1030
0000
,
0011
0000
0101
0000
,
0110
0000
1010
0000
,
1000
0000
0010
1000
0000
1000
0000
0001
,
0200
0000
0310
0000
,
1000
0000
1000
0001
0000
0000
0001
0000
,
0200
0000
0310
0000
,
1000
0000
0001
1000
0000
0000
0100
0000
,
0020
0000
0031
0000
,
1010
0000
1100
0000
,
0110
0000
0011
0000
,
0010
0000
0100
1000
0000
0000
0100
0000
,
0010
0100
0000
0000
0010
0000
0001
0000
,
0100
0000
0010
1000
0000
0000
0010
0000
,
1000
0001
0000
0000
0100
0000
0001
0000
,
0010
0000
0100
0010
0000
0000
0001
0000
,
0100
0001
0000
0000
0010
0000
0001
0000
,
0200
0300
0000
0000
,
0010
0010
1000
0100
,
0000
0000
0000
0000
,
0100
1000
0010
1000
,
0000
0000
0000
0000
,
0001
1000
0100
0010
,
0100
0000
0000
1000
0000
0001
0000
0010
,
0000
0001
0001
0000
0000
0000
0000
0000
;

//--------------- dance-single - FrozenRay ----------------
#NOTES:
     dance-single:
     FrozenRay:
     Hard:
     9:
     0,0,0,0,0:
0000
0000
0000
0000
,
0000
0000
0000
0000
,
0000
0000
0000
0000
,
0000
0000
0000
0000
,
0000
0000
0000
0000
,
0000
0000
0000
0000
,
0000
0000
0000
0000
,
0000
0000
0000
0000
,
0000
0000
0000
0000
,
0002
0000
0003
2000
0000
3000
0010
0000
,
0200
0000
0300
0010
0000
0000
1000
0000
,
0020
0000
0030
1000
0000
0000
0001
0000
,
2000
0000
3000
0100
0000
0000
0011
0000
,
2200
3300
0001
0100
,
0010
0100
0001
1000
,
0200
0000
0000
0300
0000
0000
0000
0000
,
0100
0001
1000
0010
1000
0001
0010
0000
,
2000
0000
3000
0002
0000
0003
0001
0100
,
0200
0000
0300
0010
0000
0000
1001
0000
,
0020
0000
0030
0001
0000
0000
1000
0001
,
0002
0000
0003
0100
0000
0000
1010
0000
,
0202
0000
0303
0000
1000
0000
0100
0010
,
0010
0100
1000
0101
,
0200
0300
0000
0000
,
0000
1000
0010
0100
,
0001
0000
0001
0010
0000
0000
1000
0001
,
0100
0010
2000
3000
0002
0003
0200
0300
,
0010
1000
0100
1000
0001
0010
0001
0000
,
1001
0101
0110
1010
,
0000
0001
1000
0010
1000
0001
0010
0100
,
0010
0002
0000
0000
0003
0000
0001
0000
,
0011
0010
0100
0100
,
1000
1000
0001
0001
,
1000
0001
1000
0001
1000
0001
1000
0002
,
2000
3003
0000
0000
,
0001
0000
0001
1000
0000
0100
1000
0001
,
2000
0000
0000
0001
3001
0000
0000
0000
,
0001
0000
1000
0001
0000
0010
0100
1000
,
0002
0000
0103
1000
,
0101
1000
0101
0001
,
1100
0001
1100
0010
,
0100
0000
0100
1000
0000
1000
0000
0001
,
0020
0000
0000
0100
0130
0000
0000
0000
,
1000
0000
1000
0001
0000
0100
0001
1000
,
0002
0000
0000
1000
1003
0000
0000
0000
,
1000
0000
0001
1000
0000
0010
0100
0001
,
2000
0000
3100
0001
,
1100
0001
1100
1000
,
0101
1000
0101
0010
,
0100
0000
0100
0001
0000
0001
1000
0000
,
1000
0001
0000
0001
0100
0000
0100
0000
,
2020
0000
0000
0000
,
0000
0000
0000
3030
0000
0000
0000
0000
,
1001
0000
1000
0001
0100
0000
0001
0000
,
0200
0300
0000
0200
0300
0000
0010
0000
,
0101
0000
0001
1000
0010
0000
1000
0000
,
0010
1000
0100
1000
0000
1000
0000
1000
,
0001
0000
0100
1000
0001
0000
0010
0000
,
0200
0300
0000
0200
0300
0000
0010
0000
,
1100
0000
0001
1000
0100
0000
0010
0000
,
0001
0010
0001
1000
0000
1000
0000
1000
,
0001
0000
0000
0000
1000
0000
0000
0000
0001
0000
0000
0010
0000
0000
0001
0000
,
0001
0000
0000
0000
1000
0000
0000
0000
0001
0000
0000
0100
0000
0000
0010
0000
,
0010
0000
0000
0000
0100
0000
0000
0000
0001
0000
0000
1000
0000
0000
0100
0000
,
0100
0000
1000
0000
0100
0000
0000
0000
0010
0000
0000
0010
0000
0000
0001
0000
,
1000
0000
0000
0000
0001
0000
0000
0000
1000
0000
0000
0010
0000
0000
1000
0000
,
1000
0000
0000
0000
0001
0000
0000
0000
1000
0000
0000
0100
0000
0000
0010
0000
,
0010
0000
0000
0000
0100
0000
0000
0000
1000
0000
0000
0001
0000
0000
0100
0000
,
0010
0000
0000
0000
,
0001
0000
0001
1000
0000
0010
1000
0001
,
2000
0000
0000
0001
3001
0000
0000
0000
,
0001
0000
1000
0001
0000
0100
0010
1000
,
0002
0000
0013
1000
,
0011
1000
0101
0001
,
1010
0001
1100
0100
,
0010
0000
0010
0001
0000
1000
0000
0001
,
0200
0000
0000
0010
0310
0000
0000
0000
,
1000
0000
1000
0001
0000
0010
0001
1000
,
0002
0000
0000
1000
1003
0000
0000
0000
,
1000
0000
0001
1000
0000
0100
0010
0001
,
2000
0000
3010
0001
,
1010
0001
1100
1000
,
0011
1000
0101
0001
,
0010
0000
0100
1000
0000
0100
0010
0000
,
0001
0010
0000
0100
0010
0000
0001
0000
,
0100
0000
0010
1000
0000
0001
0100
0000
,
0010
1000
0000
0010
0100
0000
0001
0000
,
0010
0000
0100
1000
0000
0001
0010
0000
,
0100
1000
0000
0001
0010
0000
0001
0000
,
0200
0300
0000
0000
,
2000
3000
2000
3000
0002
0003
0020
0030
,
0000
0000
0000
0000
,
0200
0300
0002
0003
0020
0030
0002
0003
,
0000
0000
0000
0000
,
2000
3000
0002
0003
0200
0300
0020
0030
,
0100
0000
0000
0101
0000
0001
0000
0110
,
0000
1000
1000
0000
0000
0000
0000
0000
;
