#TITLE:4 Challenges;
#SUBTITLE:;
#ARTIST:Photon Maiden;
#TITLETRANSLIT:;
#SUBTITLETRANSLIT:;
#ARTISTTRANSLIT:;
#GENRE:;
#CREDIT:;
#MUSIC:4 Challenges.ogg;
#BANNER:4 Challenges.png;
#BACKGROUND:4 Challenges-bg.png;
#CDTITLE:;
#SAMPLESTART:61.339;
#SAMPLELENGTH:17.455;
#SELECTABLE:YES;
#OFFSET:0.842;
#BPMS:0.000=110.000;
#STOPS:16.000=1.091
,48.000=0.545
;
#BGCHANGES:0.461=4 Challenges.mp4=1.000=0=0=1,
99999.000=-nosongbg-=1.000=0=0=0=StretchNoLoop====
;
#FGCHANGES:;

//--------------- dance-single - FrozenRay ----------------
#NOTES:
     dance-single:
     FrozenRay:
     Hard:
     10:
     0,0,0,0,0:
0000
0000
0000
0000
,
0000
0000
0000
0000
,
0000
0000
0000
0000
,
0000
0000
0000
0000
,
0200
0000
0301
0000
0010
0001
0100
0000
,
0010
1000
0100
0000
0001
0100
1000
0010
,
0001
1000
0100
0000
0001
0100
0010
0000
,
1000
0100
0010
0000
0001
0100
1000
0100
,
0022
0000
0000
0000
0000
0000
0033
0000
0000
0000
0000
0000
0000
0000
0000
0100
0000
0000
1000
0000
0000
0000
0000
0001
,
1000
0000
0010
1000
0000
0000
0001
0000
0000
0000
0000
1000
0001
0000
0100
0001
0000
0000
1000
0000
0000
0002
0000
0000
,
2003
0000
0000
0000
0000
0000
3100
0000
0000
0000
0000
0000
0110
0000
0000
0100
0000
0000
1000
0000
0000
0000
0000
0001
,
0100
0000
0010
0100
0000
0000
0001
0000
0000
0000
0000
1000
0100
0000
0010
0100
0000
0000
1000
0000
0000
0010
0000
0000
,
0101
0000
0000
0000
0000
0000
0010
0000
1000
0000
0010
0000
1000
0000
0000
0100
0000
0000
0010
0000
0001
0000
0010
0000
,
0001
0000
0000
0100
0000
0000
0001
0000
0000
0000
0000
1100
0000
0000
0000
0100
0000
0000
1000
0000
0000
0000
0000
0101
,
0000
0000
0000
0100
0000
0000
0010
0000
0100
0000
0001
0000
1000
0000
0000
0100
0000
0000
0010
0000
0100
0000
1000
0000
,
0001
0100
0110
0010
1010
1000
1001
1100
,
0101
0000
2010
0000
0000
3001
0100
0001
,
0010
0000
0000
0000
0021
0000
0000
0000
0000
0000
0031
0000
1000
0100
0000
0000
,
0100
1000
0000
0000
1020
0000
0000
0000
0000
0000
1030
0000
0001
0000
0100
0000
,
0010
0101
0011
0100
,
1100
0000
0000
0000
0000
0000
1000
0000
0000
0001
0000
1000
0001
0000
0000
0100
0000
0000
0010
0000
0000
0100
0000
0010
,
0100
0000
0000
0001
0000
1000
0001
0000
0000
0010
0000
0100
1000
0000
0000
0001
0000
1000
0100
0000
0000
0010
0000
0001
,
1000
0000
0000
0000
0000
0001
0100
0000
0000
0001
0000
0000
0100
0000
0000
0001
0000
0000
1000
0000
0000
0010
0000
0000
,
1000
0010
0100
0100
0001
0001
0010
0010
,
0200
0000
0000
0300
0000
0000
0011
0000
0000
0000
0000
0001
0010
0000
0000
0000
0000
0010
0001
0000
0000
1000
0000
0000
,
0020
0000
0000
0030
0000
0000
0101
0000
0000
0000
0000
0100
0001
0000
0000
0000
0000
0001
1000
0000
0000
0100
0000
0000
,
0020
0000
0000
0030
0000
0000
1100
0000
0000
0000
0000
0100
1000
0000
0000
0000
0000
1000
0100
0000
0000
1000
0000
0000
,
0020
0030
1001
1001
1001
0000
0100
0001
,
0010
0001
0100
0000
1010
0000
0100
1000
,
0010
1000
0100
0000
0011
0000
0001
1000
,
0010
0000
0000
0100
0000
0000
0000
0000
0000
0001
0000
0000
0100
0000
0010
0100
0000
0000
0001
0000
0000
0010
0000
0100
,
0010
0000
0000
0001
0000
0000
0001
0000
0000
1000
0000
0000
0010
0000
0100
0010
0000
0000
1000
0000
0000
0100
0000
0000
,
1000
0001
0010
0000
1001
0000
0001
0100
,
0001
1000
0010
0000
1001
0000
0100
1000
,
0010
0000
0000
0100
0000
0000
0000
0000
0000
0001
0000
0000
1000
0000
0000
0100
0000
1000
0001
0000
0000
0000
0000
0010
,
0000
0000
0000
0100
0000
0000
0010
0000
0000
0001
0000
1000
0000
0000
0001
1000
0000
0000
0010
0000
0000
1000
0000
0000
,
0100
1000
0020
0000
0000
0000
0000
0000
,
0000
0230
0000
0302
,
0000
2003
0000
0000
,
0000
0000
0002
0000
0000
3000
0020
0000
,
0000
0033
0200
0000
0000
0000
0000
0000
,
0000
0320
0000
0032
,
0000
2003
0000
0000
,
0000
0000
0020
0000
0000
3000
0200
0000
,
0000
0000
0000
0330
0000
0000
1010
0000
0000
0000
0000
1000
0010
0000
0000
0000
0000
0010
1000
0000
0000
0001
0000
0000
,
0020
0000
0000
0030
0000
0000
1100
0000
0000
0000
0000
0100
1000
0000
0000
0000
0000
1000
0001
0000
0000
0100
0000
0000
,
0020
0000
0000
0030
0000
0000
0101
0000
0000
0000
0000
0100
0001
0000
0000
0000
0000
0001
0100
0000
0000
0001
0000
0000
,
0020
0030
1001
1001
1001
0000
0100
1000
,
0010
1000
0100
0000
0011
0000
0100
0001
,
0010
0001
0100
0000
1010
0000
1000
0001
,
0010
0000
0000
0100
0000
0000
0000
0000
0000
1000
0000
0000
0100
0000
0010
0001
0000
0000
1000
0000
0000
0001
0000
0100
,
0010
0000
0000
1000
0000
0000
1000
0000
0000
0001
0000
0000
0010
0000
0100
1000
0000
0000
0001
0000
0000
0100
0000
0000
,
0001
1000
0010
0000
1001
0000
1000
0100
,
1000
0001
0010
0000
1001
0000
0100
0001
,
0010
0000
0000
0100
0000
0000
0000
0000
0000
1000
0000
0000
0001
0000
0000
0100
0000
0001
1000
0000
0000
0000
0000
0010
,
0000
0000
0000
0100
0000
0000
0010
0000
0000
1000
0000
0001
0000
0000
1000
0001
0000
0000
0010
0000
0000
0001
0000
0000
,
0100
0010
2002
0000
0000
0000
0000
0000
,
3003
0000
0000
0000
;
