#TITLE:[Re]termination;
#SUBTITLE:;
#ARTIST:RONDO;
#TITLETRANSLIT:;
#SUBTITLETRANSLIT:;
#ARTISTTRANSLIT:;
#GENRE:;
#CREDIT:;
#MUSIC:[Re]termination.ogg;
#BANNER:[Re]termination-bn.png;
#BACKGROUND:[Re]termination-bg.png;
#CDTITLE:;
#SAMPLESTART:112.062;
#SAMPLELENGTH:9.846;
#SELECTABLE:YES;
#OFFSET:0.553;
#BPMS:0.000=195.000;
#STOPS:;
#BGCHANGES:0.514=[Re]termination.mp4=1.000=0=0=1,
135.000=-nosongbg-=1.000=0=0=0=StretchNoLoop====
;
#FGCHANGES:;

//--------------- dance-single - FrozenRay ----------------
#NOTES:
     dance-single:
     FrozenRay:
     Easy:
     5:
     0,0,0,0,0:
0000
0000
0000
0000
,
0000
0000
0000
0000
,
0000
0000
0000
0000
,
0000
0000
0000
0000
,
0000
0000
0000
0000
,
0001
0000
0100
0000
,
0010
0000
0010
0000
,
0200
0000
0000
0300
,
0110
0000
0001
0000
,
0100
0000
0000
0000
,
1000
0000
0001
0000
,
1001
0000
0100
0000
,
1000
0000
0200
0000
,
0310
0000
0010
0000
,
0001
0000
0001
0000
,
1000
0000
0000
0001
0000
0000
0010
0000
,
0000
0010
0000
0000
0200
0000
0300
0000
,
1000
0000
0000
0001
,
0000
0000
0100
0001
,
0010
0000
0000
0001
,
0000
0000
0100
0010
,
0100
0000
0000
1000
,
0000
0000
0000
0000
,
0001
0010
0001
0000
,
1000
0100
1000
0000
,
1001
0000
0100
0000
,
0100
0000
0001
0000
,
0001
0000
1000
0001
,
1000
0000
0100
0010
,
0001
0000
0001
0100
,
1000
0000
1000
0001
,
0100
0000
0100
0001
,
1000
0000
0010
0000
,
2020
0000
0000
3030
,
0202
0000
0000
0303
,
0220
0000
0000
0330
,
1001
0000
0100
0000
,
0010
0000
0010
0000
,
1000
0000
1000
0000
,
0001
0000
0100
0000
,
0000
0000
0100
0100
,
0110
0000
0001
1000
,
0010
0000
1000
0010
,
0100
0000
1000
0001
,
0010
0000
0100
0000
,
1100
0000
1000
0000
,
1001
0000
0001
0000
,
0010
0100
0010
0000
,
0001
0100
0010
0000
,
0101
0000
0100
0002
,
0000
1003
0010
0100
,
0000
0001
0100
0010
,
0000
1000
0010
1000
,
0001
0000
0100
0000
,
0110
0000
0001
0000
,
0001
0000
0100
0000
,
0100
0001
1000
0001
,
0020
0000
0031
0000
,
0002
0000
0103
0000
,
0200
0000
0000
0300
,
2002
0000
0000
3003
,
0001
0000
0001
0000
,
1000
0000
1000
0000
,
0220
0000
0000
0330
,
0100
0000
0010
0000
,
0001
0000
1000
0000
,
0001
0000
0100
0000
,
0100
0000
0001
0000
,
0100
0000
0010
0000
,
0100
0001
1000
0000
,
0010
1000
0010
0000
,
0010
1000
0100
0000
,
0010
0001
1000
0000
,
0002
0000
0013
0000
,
0200
0000
2000
0000
,
3300
0000
0000
0000
,
0000
0000
0000
0000
,
0000
0000
0000
0000
,
0000
0000
0000
0000
,
0000
0100
1000
0000
,
1000
0000
0010
0000
,
0001
0000
0010
0000
,
2002
0000
0000
0000
0000
0000
0000
0000
0000
0000
0000
0000
0000
0000
0000
0000
0000
3003
0000
0000
0000
0000
0000
0000
,
1000
0000
0001
0000
,
0200
0000
0000
0000
0000
0300
0000
0000
,
0020
0030
0220
0330
,
0001
0000
0010
0000
,
0100
0010
0001
0000
,
0001
0000
1000
0000
,
0001
0000
0010
0100
,
1000
0000
1000
0000
,
0200
0000
0310
0000
,
0001
0010
0001
0010
,
0001
1000
0010
0100
,
0000
0100
0001
0010
,
0100
0000
0100
1000
,
0100
0000
1100
0000
,
0001
0000
0011
0000
,
0010
0000
0010
0000
,
0001
0100
0001
0000
,
0100
0000
0100
0000
,
0010
0000
0010
0000
,
1000
0010
1000
0000
,
0100
1000
0010
0000
,
0010
0000
0100
0000
,
0010
0000
0001
0100
,
0010
0000
0010
0000
,
1000
0000
0100
0000
,
0020
0000
0000
0000
,
0030
0000
0000
0000
;

//--------------- dance-single - FrozenRay ----------------
#NOTES:
     dance-single:
     FrozenRay:
     Medium:
     8:
     0,0,0,0,0:
0000
0000
0000
0000
,
0000
0000
0000
0000
,
0000
0000
0000
0000
,
0000
0000
0000
0000
,
0000
0000
0000
0000
,
0001
0001
0100
0100
,
0020
0030
1010
0000
,
0200
0000
0000
0300
,
0110
0000
0000
0000
0001
0010
0100
0000
,
0100
0000
0000
1000
0000
0010
0000
0001
,
0000
0100
0000
0010
0000
0100
0010
0000
,
0000
1001
1100
0000
,
1000
0000
0100
0010
0100
0000
0000
0000
,
0000
0001
0000
0100
0000
0001
0000
1000
,
0000
0100
0000
1000
0000
0001
0100
0000
,
0002
0000
0003
0200
0000
0300
0010
0000
,
0000
2002
0000
3003
0000
0000
0000
0000
,
1000
0000
0000
0001
0000
0000
0100
0000
,
0000
0010
0000
0000
0100
0000
0001
0000
,
0010
0000
0000
0100
0000
0000
1000
0000
,
0000
0000
0100
0010
,
0110
0000
0000
0001
0000
0000
1000
0000
,
0000
0000
0000
0000
,
0011
0000
0110
0000
0000
0000
0000
1001
,
0000
0100
0000
0001
0000
0000
0000
0000
,
1001
0000
0000
0000
0100
0001
0100
0000
,
0000
0100
0001
0000
0000
0010
0100
0010
,
0100
0000
0000
1000
0000
0010
0000
0100
,
0000
0000
0100
0001
,
1000
0000
0010
1000
0000
0001
0000
0001
,
0000
0000
0000
1000
0001
1000
0000
0010
,
0000
1000
0000
0001
0100
0001
0000
0010
,
0000
0100
0000
0000
0001
0000
0100
0000
,
2010
0000
0000
3000
,
0102
0000
0000
0003
,
0210
0000
0000
0310
,
1001
0001
0100
0001
,
0010
0000
0000
0001
0010
0001
0000
0001
,
1000
0000
0000
1000
0001
1000
0000
0000
,
0001
0000
0001
0100
0000
0001
0100
0000
,
0000
0000
0100
0100
,
0110
0000
0100
0001
0000
0001
1000
0000
,
0000
0001
0010
0110
,
0000
0000
0100
0000
1000
0001
0010
0000
,
0000
0000
0100
0010
,
0100
0101
0000
1100
,
0000
0011
0000
0110
,
0000
1000
0001
0000
0000
0010
0001
1000
,
0000
0000
0100
1000
0010
0000
0000
0000
,
0101
0000
0000
0001
0100
0000
0002
0000
,
0003
1000
0010
0110
,
0000
0000
0001
0000
0100
0010
1000
0000
,
0000
1000
0010
0001
,
1001
0000
0000
0110
0000
0000
1001
0000
,
0000
0000
0001
1000
0001
0000
0000
0000
,
0010
0010
0100
0100
,
1000
1000
0001
1000
,
1002
0000
1003
0000
,
0210
0000
0310
0000
,
0001
0001
0001
0001
,
0100
0100
0100
0100
,
1000
0001
1000
0001
,
0100
0000
0001
0000
0100
0001
0100
0000
,
0100
0000
0000
1000
0000
1000
0000
0010
,
0000
0100
0001
1000
,
0001
0000
0000
1000
0000
0000
0001
0000
,
0000
0010
0000
0000
0100
0000
0100
0000
,
1000
0000
0000
0010
0000
0000
1000
0000
,
0000
0001
0000
0000
1000
0000
0010
0000
,
0100
0001
0100
0000
0000
0100
0010
0000
,
0000
0100
0010
1000
0000
0000
0010
0100
,
0001
0000
0000
1000
0100
0000
0000
0010
,
0001
0000
0000
0100
0000
0001
1000
0000
,
0002
0000
0010
0013
,
2100
0000
0000
0000
0002
0000
0000
3003
,
0000
0000
0000
0000
,
0000
0000
0000
0000
,
0000
0000
0000
0000
,
0000
0000
0000
0000
,
0000
0000
0100
0100
1000
0000
0000
0000
,
1000
0000
0010
0000
,
0001
0000
0010
1000
,
2002
0000
0000
0000
0000
0000
0000
0000
0000
0000
0000
0000
0000
0000
0000
0000
0000
3003
0000
0000
0000
0000
0000
0000
,
1000
0000
0001
0000
,
0202
0000
0000
0000
0000
0303
0000
0000
,
2020
3030
0220
0330
,
0001
0000
0001
0000
0010
0100
0000
1000
,
0100
0000
0010
0000
0001
0100
0010
0000
,
1000
0000
0000
0010
0000
0000
1000
0000
,
0001
0001
0010
0100
,
1000
1000
1000
1000
,
0200
0000
0310
0000
,
0001
0000
0010
0001
0000
0001
0010
0000
,
0000
0001
0010
0100
,
1000
0000
0100
0000
1000
0100
0010
0000
,
0100
0000
0010
0001
,
0101
0000
1100
0000
,
0001
1000
0010
1000
,
0010
0100
0000
0100
0001
0000
0001
0010
,
0000
0000
0100
0010
0001
0000
0001
0000
,
0100
0100
0100
0100
,
0010
0010
0010
0010
,
1000
0001
1000
0000
1000
0001
0010
0000
,
0100
0100
1000
0000
,
0010
0000
0100
0001
0000
0100
0010
0000
,
0000
0000
1000
0000
1000
0001
0100
0000
,
0010
0010
0010
0010
,
1000
1000
0100
0100
,
0022
0000
0000
0000
,
0033
0000
0000
0000
;

//--------------- dance-single - FrozenRay ----------------
#NOTES:
     dance-single:
     FrozenRay:
     Hard:
     12:
     0,0,0,0,0:
0000
0000
0000
0000
,
0000
0000
0000
0000
,
0000
0000
0000
0000
,
0000
0000
0000
0000
,
0000
0000
0000
0000
,
0101
0001
0110
0100
,
1010
0000
0000
1000
0000
0000
0101
0000
0001
0000
0100
0000
,
0020
0000
0000
0030
,
1010
0000
0000
0000
1000
0010
0100
0001
,
0100
0000
0100
1000
0000
0010
0100
0001
,
1000
0100
0000
0010
0000
0100
0000
1000
,
0000
1001
0000
0110
0000
1000
0100
0001
,
0000
0001
0100
0010
0100
0001
1000
0100
,
0000
0011
0000
0110
0000
0011
0000
1100
,
0000
0100
0010
0100
1000
0001
0100
0000
,
2002
0000
3003
0220
0000
0330
0220
0000
,
0330
2002
0000
3003
0000
0000
0000
0000
,
1000
0000
0000
0001
0000
0000
0100
0000
,
0000
0010
0000
0000
0100
0000
0001
0000
,
0010
0000
0000
0100
0000
0000
1000
0000
,
0000
0000
0100
0010
,
0110
0000
0000
0001
0000
0000
1000
0000
,
0000
0000
0000
0000
,
0011
0000
0110
0000
0000
0000
0000
1001
,
0000
0100
0000
0001
0000
0000
0000
0000
,
1001
0000
1001
0000
0100
0001
0100
1000
,
0000
0100
0001
0000
0001
0010
0100
0010
,
0001
0000
1100
0000
0001
0010
0000
0100
,
0000
1000
0001
0010
0200
0000
1300
0000
,
1000
0000
0010
1000
0000
0001
0000
0001
,
0000
0100
0001
1000
0001
1000
0100
0010
,
0000
1000
0000
0001
0100
0001
0100
0010
,
0000
0100
0000
0000
0101
0000
0110
0000
,
2010
0000
0000
3000
,
0102
0000
0000
0003
,
0210
0000
0000
0310
,
1001
0000
0001
0010
0100
1000
0001
0000
,
0011
0000
0000
0001
0010
0001
0000
0001
,
1001
0000
0000
1000
0001
1000
0001
0000
,
0101
0000
1000
0100
0000
0001
0100
0000
,
0000
0000
0100
0100
,
0110
0000
0100
0001
0000
0001
1000
0000
,
1100
0011
0010
0110
,
1000
0000
0100
0000
1000
0001
0010
0000
,
1000
0001
1000
0001
0100
0010
0100
0001
,
0100
0101
1000
1100
,
0010
0011
1100
0110
,
0001
1000
0001
0000
0001
0010
0001
1000
,
0000
0000
0100
1000
0010
0000
0100
0000
,
0101
0000
0100
0001
0100
0001
2002
0000
,
3003
1010
0101
0110
,
1000
0000
0001
0000
0100
0010
1000
0000
,
0000
0001
1000
0010
0100
0000
0001
0000
,
1001
0000
0000
0110
0000
0000
1001
0000
,
0000
0000
0001
1000
0001
1000
0100
0000
,
0010
0001
0010
0001
0100
0001
0100
0001
,
0010
0100
0010
0100
0000
0100
1000
0000
,
1002
0000
1000
1003
,
0210
0000
0010
0310
,
0001
0010
0001
0010
0001
0010
0100
0010
,
0100
1000
0100
1000
0001
1000
0001
0000
,
1001
1001
1001
1001
,
0101
0000
0101
0000
0100
0001
0100
0001
,
0100
0000
0010
1000
0000
1000
0100
0010
,
0001
0100
0001
1000
,
0002
0103
0000
2000
3100
0000
0002
0013
,
0000
2000
3010
0000
0200
0301
0001
0000
,
0200
1300
0000
0020
0031
0000
2000
3100
,
0000
0002
0013
0000
1001
0000
1001
0000
,
1000
0100
0001
0100
1000
0100
0010
1000
,
0001
0100
0010
0001
0000
1000
0010
0100
,
0001
0100
0001
1000
0100
0010
0001
0010
,
1100
0000
0000
1100
0000
0001
1000
0000
,
0102
0000
0010
0013
,
2100
0000
0000
0000
0002
0000
0000
3003
,
0000
0000
0000
0000
,
0000
0000
0000
0000
,
0000
0000
0000
0000
,
0000
0000
0000
0000
,
0000
0000
0100
0100
1000
0000
0000
0000
,
1000
0000
0010
0000
,
0001
0000
0010
1000
,
2002
0000
0000
0000
0000
0000
0000
0000
0000
0000
0000
0000
0000
0000
0000
0000
0000
3003
0000
0000
0001
0000
0000
0000
,
1000
0000
0100
0000
0010
0000
0001
0000
0000
0000
0000
0000
,
0202
0000
0000
0000
0000
0303
0000
0000
,
2020
3030
0220
0330
,
0001
0100
0001
0100
0010
0100
0001
1000
,
0100
0000
0010
1000
0001
0100
0010
1000
,
0001
0000
0100
0010
0000
0001
1000
0000
,
0001
0100
0001
1000
0010
0000
0100
0000
,
1001
1001
1001
1001
,
0110
0110
0110
0000
,
0001
0000
0010
0001
0010
0001
0010
0100
,
0010
1000
0001
0100
0010
0000
0100
0000
,
0001
1000
0100
1000
0001
0100
0010
0000
,
0100
0100
0010
1010
,
0101
0001
1000
1100
,
0001
0100
1000
0001
0010
0100
0001
0100
,
0010
0001
0000
0100
1000
0000
0001
0010
,
0100
0010
0100
0010
0001
0000
1001
0000
,
0100
1000
0100
1000
0100
1000
0100
1000
,
0100
0010
0100
0010
0100
0010
0100
0010
,
0100
0001
1000
0010
1000
0001
0010
0100
,
0001
0010
0100
1000
1000
0001
0001
0000
,
1000
0001
0100
0001
0000
0100
0010
0000
,
0000
0001
1000
0000
1000
0001
0100
0000
,
0010
0100
0010
0100
0010
1000
0010
1000
,
0010
1000
0001
1000
0001
0100
0010
0100
,
0002
0000
0000
0000
,
0003
0000
0000
0000
;
