#VERSION:0.83;
#TITLE:Crash Groovin';
#SUBTITLE:;
#ARTIST:M-Project;
#TITLETRANSLIT:;
#SUBTITLETRANSLIT:;
#ARTISTTRANSLIT:;
#GENRE:JAPANESE MAKINA;
#CREDIT:;
#MUSIC:crash groovin.ogg;
#BANNER:bn.png;
#BACKGROUND:bg.png;
#CDTITLE:cd-title.png;
#SAMPLESTART:90.353;
#SAMPLELENGTH:19.765;
#SELECTABLE:YES;
#OFFSET:-0.000;
#BPMS:0.000=170.000;
#STOPS:;
#SPEEDS:0.000=1.000=0.000=0;
#SCROLLS:0.000=1.000;
#TICKCOUNTS:0.000=4;
#TIMESIGNATURES:0.000=4=4;
#LABELS:0.000=Song Start;
#COMBOS:0.000=1;
#ORIGIN:;
#PREVIEWVID:;
#JACKET:jacket.png;
#CDIMAGE:;
#DISCIMAGE:;
#BGCHANGES:;
#FGCHANGES:;

//--------------- dance-single - ----------------
#NOTEDATA:;
#STEPSTYPE:dance-single;
#DESCRIPTION:;
#DIFFICULTY:Beginner;
#METER:7;
#RADARVALUES:0.265303,0.331142,0.075104,0.238968,0,272,261,11,35,0,0,0,0,0,0.265303,0.331142,0.075104,0.238968,0,272,261,11,35,0,0,0,0,0;
#CHARTNAME:Beginner 7;
#CHARTSTYLE:;
#CREDIT:Frondal;
#NOTES:
0000
0000
0000
0000
,
0000
0000
0000
0000
,
0000
0000
0000
0000
,
0000
0000
0000
0000
,
0000
1000
0000
1000
,
0000
0001
0000
0001
,
0000
0100
0000
0100
,
0000
0010
0000
0010
,
1000
0001
0000
0001
,
0000
0010
0000
0010
,
0000
0100
0000
0100
,
0000
1000
0000
1000
,
0000
0001
0000
0001
,
0000
0100
0000
0100
,
0010
0010
1000
1000
,
0001
0010
0100
1000
,
1002
0000
0103
0001
,
2000
0000
3100
1000
,
0020
0000
0130
0001
,
0200
0000
0310
1000
,
0200
0000
0310
0001
,
2000
0000
3010
0100
,
0002
0000
0013
0100
,
1000
0001
0001
0100
,
0010
0010
1000
0001
,
0010
0010
0001
1000
,
1000
0010
0100
0100
,
0001
0010
0100
1000
,
0100
0100
1000
0010
,
0100
0100
0001
0010
,
0001
0001
0100
0010
,
2000
0000
0000
0000
,
3001
0101
0000
0100
,
0010
1010
0000
1000
,
0100
0110
0000
0010
,
0001
1001
0000
1000
,
0010
0110
0000
0100
,
0001
0011
0000
0010
,
0100
1100
0000
1000
,
0020
0000
0000
0000
,
0230
0000
0000
0000
,
0000
0000
0000
0000
,
0302
0000
0000
0000
,
0023
0000
0000
0000
,
0230
0000
0000
0000
,
0000
0000
0000
0000
,
2300
0000
0000
0000
,
3020
0000
0000
0000
,
0230
0010
0000
0301
,
0002
0010
0000
1003
,
2000
0010
0000
3002
,
0103
0010
0100
0010
,
2000
0100
0000
3001
,
0002
0010
0000
1003
,
2000
0010
0000
3020
,
0230
0001
0000
0301
,
0020
0000
0000
0000
,
0230
0000
0000
0000
,
2300
0000
0000
0000
,
3002
0000
0000
0000
,
0203
0000
0000
0000
,
0320
0000
0000
0000
,
2030
0000
0000
0000
,
3002
0000
0000
0000
,
0013
0010
0010
0000
,
0001
0001
0001
0000
,
1000
1000
1000
0000
,
0100
0100
0100
1000
,
0010
0010
0010
0000
,
0100
0100
0100
0000
,
0001
0001
0001
0001
,
1001
1000
1000
0200
,
1300
1000
1000
0000
,
0001
0001
0001
0100
,
0010
0010
0010
0000
,
1000
1000
1000
0100
,
1000
1000
1000
0000
,
0100
0100
0100
0010
,
0001
0001
0001
0000
,
0100
0100
0100
0010
,
1000
0001
1000
0000
,
1000
0010
1000
1000
,
0001
0010
0001
0000
,
0001
0100
0001
0001
,
0100
0010
1000
0000
,
1000
0010
0100
0100
,
0001
0010
0100
0100
,
0220
0000
0000
0330
,
0010
0010
0010
0001
,
0100
0100
0100
0010
,
1000
1000
1000
0100
,
0001
0001
0001
0100
,
0010
0010
0010
0001
,
0100
0100
0100
0010
,
1000
1000
1000
0010
,
0001
0001
0001
0010
,
0100
0001
0000
1000
,
0110
0000
0000
0000
;

//--------------- dance-single - ----------------
#NOTEDATA:;
#STEPSTYPE:dance-single;
#DESCRIPTION:;
#DIFFICULTY:Easy;
#METER:11;
#RADARVALUES:0.470133,0.529827,0.020483,0.252624,0,482,479,3,37,0,0,0,0,0,0.470133,0.529827,0.020483,0.252624,0,482,479,3,37,0,0,0,0,0;
#CHARTNAME:Light 11;
#CHARTSTYLE:;
#CREDIT:Frondal;
#NOTES:
0000
0000
0000
0000
,
0000
0000
0000
0000
,
0000
0000
0000
0000
,
0000
0000
0000
0000
,
1000
0002
0100
0103
,
0001
2000
0010
3010
,
1000
0002
0010
0013
,
0001
0000
2000
0000
0100
0000
3001
0001
,
1000
0010
2000
0000
0100
0000
3100
0000
,
1000
0001
2000
0000
0010
0000
3010
0100
,
0001
0010
0002
0000
0100
0000
0103
0000
,
0001
1000
0002
0000
0100
0000
0103
0100
,
0001
0010
0100
0000
0020
0000
1000
0000
,
0031
0100
0010
0000
0200
0000
1000
0000
,
0301
1000
0010
1000
0100
0010
0001
0100
,
0001
0001
1000
1000
0010
0100
0002
0000
,
1003
1000
0100
0010
,
0001
0000
0001
0000
0010
0000
0100
1000
,
0010
0010
1000
0001
,
0100
0000
0100
0000
0010
0000
1000
0100
,
0010
0010
0001
0100
,
0001
0000
0001
0000
0100
0000
0010
1000
,
0100
0100
1000
0010
,
1000
0000
1000
0001
0100
0000
0010
1000
,
0010
0000
0100
0001
0100
0001
0010
0000
,
0100
0000
1000
0010
1000
0010
0100
0100
,
0001
0000
0010
0100
0010
0100
1000
0000
,
0001
0000
0100
0010
0100
0010
0001
0010
,
0100
0000
0001
0010
0001
0010
0100
0000
,
1000
0000
0010
0100
0010
0100
0001
0001
,
1000
0000
0100
0010
0100
0010
0100
0000
,
1000
1000
0010
0100
0010
0001
0010
0100
,
0001
0000
1000
0100
0010
0001
0100
0000
,
0010
0000
0100
0001
0010
0100
0000
1000
,
0100
0000
1000
0010
0100
0001
0010
0000
,
0001
0000
0100
0010
1000
0100
0000
0010
,
0100
1000
0010
1000
0100
0010
0001
0000
,
0100
0001
0010
0001
0100
0010
0000
1000
,
0001
0010
0100
1000
0010
0100
0001
0000
,
1000
1000
0001
1000
0001
0010
0100
0200
,
1300
0000
0001
0000
0000
1000
0001
0000
,
1000
0000
0001
0000
0000
1000
0001
0000
,
1000
0000
0010
0000
0000
1000
0010
0000
,
0100
0000
0001
0000
0000
0100
0001
0000
,
1000
0000
0001
0000
0000
1000
0001
0000
,
1000
0000
0001
0000
0000
1000
0001
0000
,
0010
0000
0001
0000
0000
0010
0001
0000
,
1000
0000
0100
0000
0000
1000
0100
1000
,
0020
0000
0000
0230
0000
0000
0302
0000
,
0023
0000
0000
0230
0000
0000
1300
0010
,
2000
0000
0000
3200
0000
0320
0000
0000
,
0031
0000
0100
0000
0000
0001
0010
0001
,
2000
0000
0000
3020
0000
0000
0230
0000
,
0302
0000
0000
0023
0000
0000
0130
1000
,
0200
0000
0000
2300
0000
0000
3020
0000
,
0130
0000
0010
0000
0000
0100
0010
1000
,
0200
0000
0000
0000
,
0320
0000
0000
0000
,
0032
0000
0000
0000
,
2003
0000
0000
0000
3010
1000
0010
1000
,
0200
0000
0000
0000
,
0320
0000
0000
0000
,
0032
0000
0000
0000
,
2003
0000
0000
0000
3001
0010
0001
0010
,
0100
0000
0100
0000
0100
0000
1000
0010
,
1000
0000
1000
0000
1000
0000
1000
0010
,
0100
0000
0100
0000
0100
0000
0001
0010
,
0001
0000
0001
0000
0001
0010
0001
1000
,
0010
0000
0010
0000
0010
0000
0010
0100
,
0001
0000
0001
0000
0001
0000
1000
0001
,
1000
0100
1000
0010
1000
0100
1000
0020
,
0001
0100
1030
1001
,
0001
0010
0001
0000
1000
0000
0010
0100
,
0010
1000
0100
0000
0010
0000
0100
1000
,
0010
0100
0010
0000
1000
0000
0001
0010
,
0001
1000
0010
0000
1000
1000
0100
0000
,
1000
0010
1000
0000
0100
0000
0010
0001
,
0010
0100
1000
0000
0010
0000
0100
0001
,
1000
0100
1000
0000
0010
0000
0100
0001
,
0100
0010
1000
0000
0001
0001
0010
0000
,
0110
0100
1000
0000
0010
0000
1000
0100
,
1000
0010
0100
0000
0001
0000
0010
0010
,
0001
0100
0001
0000
0010
0000
0001
0100
,
0010
1000
0010
0000
0100
0100
0001
0000
,
1000
0100
1000
0000
0010
0000
0100
0001
,
0100
0010
1000
0000
0100
0000
1000
0010
,
0100
0100
1000
1000
,
0010
0000
0010
0000
0001
0000
0001
1000
,
0001
0010
0100
0010
0001
0000
1000
0000
,
0010
0100
0010
1000
0100
0000
0010
0001
,
0010
0100
1000
0010
0100
0000
0001
0000
,
0010
0000
0010
0000
0001
0000
0001
1000
,
0010
0100
0001
0010
0100
0000
0010
0000
,
0001
1000
0010
0100
0001
0000
0010
0100
,
0010
0001
1000
0010
0100
0000
0001
0000
,
0010
0000
0010
0000
0001
0001
1000
0010
,
0100
1000
0100
0001
0000
0010
1000
0010
,
0110
0000
0000
0000
;

//--------------- dance-single - ----------------
#NOTEDATA:;
#STEPSTYPE:dance-single;
#DESCRIPTION:;
#DIFFICULTY:Medium;
#METER:14;
#RADARVALUES:0.633997,0.695397,0.143381,0.20483,0.16045,650,629,21,30,0,0,0,0,0,0.633997,0.695397,0.143381,0.20483,0.16045,650,629,21,30,0,0,0,0,0;
#CHARTNAME:Standard 14;
#CHARTSTYLE:;
#CREDIT:Frondal;
#NOTES:
0000
0000
0000
0000
,
0000
0000
0000
0000
,
0000
0000
0000
0000
,
0000
0000
0000
0000
,
1000
0000
0001
0000
0000
0001
0010
0000
,
0100
0000
0000
0000
1000
0000
0000
0000
0000
0000
1000
0000
0010
0000
0000
0010
,
0100
0000
0001
0000
0000
0001
0010
0000
,
0100
0000
1000
0000
0100
0000
0000
0100
1000
0000
0010
0000
0100
0000
0002
0000
,
0013
0000
0001
0000
0200
0010
0310
0000
,
1000
0000
0100
0000
0020
0100
0130
0000
,
1000
0000
0010
0000
0200
0001
0301
0000
,
0010
0000
0001
0000
0100
0000
0000
0100
0010
0000
1000
0000
0001
0000
1000
0000
,
0100
0000
0100
0000
0020
0100
0031
0000
,
0100
0000
0000
0000
0100
0000
0000
0000
0020
0000
0100
0000
1030
0000
0000
1000
,
0100
0010
0100
0010
0001
1000
0001
1000
,
0001
0010
0001
0000
1000
0010
1000
0000
0100
0010
0001
0100
0020
0000
0000
0000
,
0130
0001
0100
0010
1000
0100
0010
0000
,
0010
0100
1000
0010
0100
0001
0010
0010
,
0001
0100
0010
1000
0100
0010
0100
0000
,
0100
1000
0010
0100
0001
0010
0001
0001
,
1000
0010
0100
1000
0100
0010
0100
0000
,
0100
0001
0010
0100
0010
0001
0100
0100
,
0010
0100
0001
0010
0100
0001
0100
0000
,
1100
0000
1000
0010
0100
0000
1000
0100
,
0001
0000
0010
0100
0010
0000
0001
0000
0100
0010
0100
0000
0001
0000
0000
0000
,
1000
0000
0100
0010
0100
0000
1000
0000
0010
0100
0010
0000
1000
0000
0001
0000
,
0010
0000
0001
0100
0001
0000
0010
0000
0100
1000
0100
0000
0010
0000
0000
0000
,
0100
0000
1000
0010
1000
0000
0100
0000
0010
0001
0010
0000
0100
0000
0100
0000
,
1000
0000
0010
0100
0010
0000
1000
0000
0001
0010
0001
0000
0100
0000
0000
0000
,
0001
0000
1000
0010
1000
0000
0001
0000
0100
0010
0100
0000
0001
0000
1000
0000
,
0100
0000
0010
0001
0010
0000
0100
0000
1000
0010
1000
0000
0001
0000
0000
0000
,
0100
0000
0010
1000
0000
1000
0000
0100
0020
0000
0000
0000
0001
0000
0031
0000
,
1000
0000
0010
0100
0010
0000
0001
0000
0010
0000
0100
0000
0001
0000
0000
0001
,
1000
0000
0100
0010
0100
0000
0001
0000
0100
0000
1000
0000
0010
0000
1000
0000
,
0001
0000
0100
0010
0100
0000
1000
0000
0100
0000
0010
0000
0100
0000
0000
0100
,
0001
0000
0010
0100
0010
0000
1000
0000
0010
0100
0000
1000
0010
0000
0010
0000
,
0100
0000
0001
0010
0001
0000
0100
0000
0010
0000
0001
0000
0010
0000
0000
0000
,
0100
0000
0010
0100
0010
0000
1000
0000
0100
0000
0010
0000
1000
0000
0010
0000
,
0100
0000
1000
0001
1000
0000
0010
0000
1000
0001
1000
0000
0100
0000
0010
0000
,
0001
0000
1000
0000
0010
0100
0010
0000
1000
0001
0000
0001
0020
0000
0100
0000
,
0031
0000
0011
0000
0000
0010
0001
0000
,
1000
0000
0000
0000
1010
0000
0000
0000
0000
0000
0010
0000
1000
0000
0000
1000
,
0100
0000
0110
0000
0000
0010
0100
0000
,
0010
0000
0001
0000
1000
0000
0000
1000
0010
0000
0100
0000
0001
0000
0010
0000
,
0001
0000
0101
0000
0000
0100
0001
0000
,
1000
0000
0000
0000
1100
0000
0000
0000
0000
0000
0100
0000
1000
0000
0000
1000
,
0010
0000
0110
0000
0000
0100
0010
0000
,
0010
0100
0001
0010
0100
0010
0001
0001
,
2000
0000
0010
0000
0000
3001
1001
0000
,
0002
0000
0010
0000
0000
1003
1001
0000
,
2000
0000
3010
0100
0000
0200
0000
0300
,
0001
0010
0100
0010
0001
0010
0100
1000
,
0002
0000
0100
0000
0000
1003
1001
0000
,
2000
0000
0000
0100
0000
3001
1001
0001
,
0200
0000
0010
0000
0000
0301
0020
0000
,
0100
0000
0130
0000
0000
1000
0001
0001
,
0200
0000
0000
0000
0000
0000
0310
1000
,
0200
0000
0000
0000
0000
0000
0310
0001
,
0020
0000
0000
0000
0000
0000
0130
1000
,
0020
0000
0000
0000
0130
0100
0001
0100
,
0020
0000
0000
0000
0000
0000
0130
0001
,
0020
0000
0000
0000
0000
0000
0130
1000
,
0200
0000
0000
0000
0000
0000
0310
0001
,
0200
0000
0000
0000
0310
0010
1000
0010
,
0100
0000
0100
0000
0001
0000
0001
0010
,
0100
0000
0100
0000
1000
0000
1000
0001
,
0010
0000
0010
0000
0001
0000
0001
1000
,
0010
0000
0010
0000
1000
1000
0001
0100
,
0010
0000
0010
0000
1000
0000
1000
0100
,
0010
0000
0010
0000
0001
0000
0001
0100
,
0010
0001
0010
1000
0010
0001
0010
1000
,
2001
0000
0000
0000
3001
0000
0000
0000
1000
0100
0010
0001
0200
0000
0000
0000
,
0310
1000
0010
0100
0010
1000
0100
0100
,
0010
0001
0010
0100
0010
0001
1001
0000
,
1000
0010
0100
0010
1000
0010
0001
0010
,
0100
0001
0010
0001
0100
0100
0001
0001
,
0010
0100
1000
0100
0010
0100
1000
1000
,
0010
0100
0010
0001
0010
0100
0110
0000
,
0010
1000
0100
1000
0010
1000
0100
0001
,
0100
0010
0001
0010
0100
0100
0010
0010
,
0001
1000
0010
1000
0001
1000
0010
0100
,
0001
0010
0001
1000
0001
0010
0110
0000
,
0100
1000
0010
1000
0100
1000
0010
0010
,
0100
0001
0010
0001
0100
0100
0010
0010
,
1000
0001
0010
0001
1000
0001
0010
0100
,
1000
0010
0100
0010
1000
0001
0101
0100
,
1100
0000
1001
0000
1100
0000
0011
0001
,
0102
0000
0000
0000
0103
0000
0002
0000
0013
0000
0010
0100
0010
0000
0001
0000
,
1000
0010
0100
0010
1000
0010
0100
1000
,
0100
0001
0010
0001
0100
0001
0010
0010
,
1000
0010
0100
1000
0100
0010
1000
0001
,
0100
1000
0010
1000
0100
0100
0010
0001
,
1000
0010
0100
1000
0100
0001
0010
0001
,
1000
0100
0010
1000
0010
0001
0100
0100
,
0010
0001
0010
0100
0001
0010
1000
0010
,
0100
1000
0010
1000
0100
0100
0010
0001
,
1000
0000
1000
0000
0010
0000
0100
0001
0000
0000
0010
0000
0001
0000
0200
0000
,
0310
0000
0000
0000
;

//--------------- dance-single - ----------------
#NOTEDATA:;
#STEPSTYPE:dance-single;
#DESCRIPTION:;
#DIFFICULTY:Hard;
#METER:17;
#RADARVALUES:0.818344,1.092767,0.191175,0.40966,0.6418,839,811,28,60,0,0,0,0,0,0.818344,1.092767,0.191175,0.40966,0.6418,839,811,28,60,0,0,0,0,0;
#CHARTNAME:Heavy 17;
#CHARTSTYLE:;
#CREDIT:Frondal;
#NOTES:
0000
0000
0000
0000
,
0000
0000
0000
0000
,
0000
0000
0000
0000
,
0000
0000
0000
0000
,
1001
0000
1000
0100
0010
0000
0100
0000
2000
0000
0100
0000
3001
0000
0000
0000
,
1000
0000
0001
0100
0010
0000
0100
0000
0002
0000
0100
0000
1003
0000
0000
1000
,
0100
0000
0010
0100
1000
0000
0010
0000
0200
0000
0010
0000
0301
0000
0000
0000
,
0100
0000
0010
0100
0001
0000
0010
0000
0200
0000
0010
0000
1300
0000
0001
0000
,
1000
0000
0100
0010
0100
0000
0001
0000
1000
0000
0010
0000
0001
0000
0000
0000
,
1000
0000
0010
0100
0010
0000
0001
0000
1000
0000
0100
0000
0001
0000
0000
0000
,
1000
0000
0001
0010
0001
0000
0100
0000
1000
0000
0001
0000
0010
0000
0000
0000
,
1000
0000
0001
0100
0001
0000
0010
0000
1000
0000
0010
0000
0100
0000
0100
0000
,
1000
0000
0010
0100
0010
0000
0001
0000
1000
0000
0100
0000
0001
0000
0001
0000
,
1000
0000
0100
0010
0100
0000
0001
0000
1000
0000
0010
0000
0001
0000
0001
0000
,
0100
0000
0100
0001
0010
0000
0001
0000
0010
0000
1000
0000
0001
0000
0100
0000
,
1000
0000
0000
0010
0000
0000
1000
0000
0000
0010
0000
0000
0100
0000
0000
0001
0000
0000
0100
0000
0000
0001
0000
0000
1000
0000
0000
0100
0000
0000
1000
0000
0000
0100
0000
0000
0010
0000
0000
0001
0000
0000
0010
0000
0001
0000
1000
0000
,
0001
0001
1000
0100
,
0010
0000
0010
0000
0001
0000
1000
1000
,
0010
0010
0100
0001
,
1000
0000
1000
0000
0100
0000
0010
0010
,
0100
0000
0100
1000
0010
0000
0100
0000
,
0001
0000
0001
1000
0100
0000
1000
1000
,
0001
0000
0001
1000
0010
0000
0100
0000
,
0110
0000
0000
0000
0000
0000
0010
0000
0000
1000
0000
0000
0001
0000
0000
0000
0000
0000
0010
0000
0000
0001
0100
0010
,
2000
0000
3100
0010
0100
2000
0001
0000
3100
2000
0001
0000
3100
1000
0001
1000
,
0020
0000
1030
0001
0100
0002
0010
0000
0103
0002
0010
0000
1003
0010
0100
0000
,
0210
0000
0301
1000
0100
2000
0010
0000
3100
2000
0010
0000
3001
0010
0100
0010
,
0002
0000
1003
0010
0100
0001
1000
0000
1000
0100
0000
0100
0010
0000
0001
1000
,
0020
0000
1030
0001
0010
0200
1000
0000
0310
0200
1000
0000
0301
0010
0100
0010
,
0002
0000
1003
0010
0100
0002
0010
0000
0103
0002
0010
0000
1003
0001
0010
0000
,
0210
0000
1300
0001
0100
0020
1000
0000
0130
0020
1000
0000
0130
0001
0010
0100
,
0010
0000
0010
0001
1000
0010
0000
0010
0200
0000
0000
0000
0301
0000
1000
0000
,
0100
0000
0100
0010
0001
0010
0100
0000
1000
0001
0100
0000
0010
1000
0001
1000
,
0100
0000
0100
0010
0001
0010
1000
0000
0010
0001
0100
0000
0010
1000
0100
0000
,
1000
0000
1000
0001
0010
0001
0100
0000
0010
1000
0100
0000
0010
0001
0100
0001
,
1000
0000
1000
0100
1000
0010
0001
0000
0010
0100
0000
0001
0010
0100
1000
0000
,
0010
0000
0010
0100
0001
0010
0100
0000
1000
0010
0100
0000
1000
0001
0100
0001
,
0010
0000
0010
0100
0001
0100
1000
0000
0001
1000
0010
0000
1000
0001
0100
0000
,
0001
0000
0001
0100
0010
1000
0100
0000
1000
0001
0100
0000
0010
0100
0001
0010
,
0001
0000
0000
0000
0000
0000
0001
0000
0000
0000
0000
0000
0010
0000
0000
0100
0000
0000
0010
0000
0000
0000
0000
0000
1000
0000
0000
0010
0000
0000
0100
0000
0000
1000
0000
0000
0001
0000
0000
0100
0000
0000
0001
0000
0010
0000
0100
0000
,
2000
0000
0000
3002
0000
0000
0100
0000
,
2003
0000
0000
3020
0000
0000
0100
0000
,
2030
0000
0000
3002
0000
0023
0000
0000
,
0130
0000
1000
0000
0001
0000
0000
0001
0010
0000
1000
0000
0010
0000
0020
0000
,
0032
0000
0000
2003
0000
0000
0010
0000
,
3002
0000
0000
0203
0000
0000
0010
0000
,
0302
0000
0000
2003
0000
0000
3200
0000
,
0310
0000
0001
0000
1000
0000
0000
1000
0010
0000
0001
0000
0010
0000
0020
0000
,
2030
0000
0000
3020
0000
0000
0230
0000
,
0302
0000
0000
0023
0000
0000
0230
0000
,
2300
0000
0000
3020
0000
0032
0000
0000
,
1003
0100
0010
1000
0100
0010
1000
0010
,
0002
0000
0000
2003
0000
0000
3200
0000
,
0320
0000
0000
0032
0000
0000
1003
0001
,
0200
0000
0000
0320
0000
0000
2030
0000
,
3001
0000
0000
0000
1000
0000
0000
0001
0100
0000
0010
0000
0100
0000
0100
0000
,
0001
0010
0001
0010
0001
0010
0100
1000
,
0010
0100
0010
0100
0010
0100
0001
0010
,
0100
1000
0100
1000
0100
1000
0010
0100
,
0001
1000
0001
1000
0001
0001
1000
0001
,
0100
0010
0100
0010
0100
0010
1000
0100
,
0010
0001
0010
0001
0010
0001
1000
0010
,
0100
0001
0100
0001
0100
0001
0010
0100
,
1000
0010
1000
0010
1000
1000
0100
1000
,
1001
0000
1010
0000
1001
0000
0001
0100
,
0101
0000
1001
0000
0101
0000
0100
0010
,
1010
0000
1100
0000
1010
0000
1000
0001
,
0011
0000
1001
0000
0011
0010
0100
1000
,
1010
0000
1001
0000
1100
0000
0100
0010
,
0110
0000
0011
0000
0101
0000
0001
0001
,
1000
0000
0000
1000
0010
0100
0001
0000
0000
0001
0010
0100
1000
0000
0000
1000
0010
0100
0001
0000
0000
0001
1000
0100
,
0020
0000
0030
0000
0020
0000
0030
0000
0001
1000
0100
1000
1010
0000
0000
0000
,
0010
0000
1000
0000
0100
0000
1000
0000
0010
0000
1000
0000
0100
0000
0100
0010
,
0001
0100
0001
0010
0001
0100
0001
0010
,
0100
1000
0010
1000
0100
1000
0010
0100
,
0001
1000
0010
1000
0001
0001
0010
0001
,
1000
0000
0010
0000
0100
0000
0010
0000
1000
0000
0010
0000
0100
0000
0100
0001
,
0010
0100
0010
0001
0010
0100
0010
0001
,
1000
0010
1000
0001
1000
0010
0100
0001
,
0010
0100
1000
0100
0010
0010
0001
0100
,
0110
0000
0010
0000
1000
0000
0010
0000
0100
0000
0010
0000
0001
0000
0001
0010
,
0100
0001
1000
0001
0100
0001
1000
0100
,
0010
0001
0100
0001
0010
0001
0100
0010
,
1000
0001
1000
0100
1000
1000
0010
1000
,
0001
0000
0010
0000
1000
0000
0010
0000
0001
0000
0010
0000
1000
0000
1000
0010
,
0100
1000
0010
0001
0010
1000
0100
0010
,
0011
0000
0101
0000
1001
0000
1100
0100
,
0010
0000
0000
0000
0000
0000
0000
0000
0000
0000
0000
0000
0010
0000
0000
0000
0000
0000
0001
0000
0100
0000
0010
0000
1000
0000
0000
0100
0000
0000
1000
0000
0000
0010
0000
0000
0100
0000
0000
0010
0000
0000
0002
0000
0000
0000
0000
0000
,
0013
1000
0001
0100
0010
1000
0100
0010
0001
1000
0100
0010
0001
1000
0010
1000
,
0001
0010
0100
1000
0001
0010
0100
1000
0010
0100
0001
1000
0010
1000
0001
1000
,
0100
0010
0001
1000
0100
0010
0001
0100
0010
1000
0001
0010
0100
0010
0001
1000
,
0010
0100
0001
1000
0010
0100
0001
1000
0001
0010
0100
1000
0001
0100
0001
0100
,
0010
1000
0001
0010
0100
1000
0010
1000
0001
0010
0100
1000
0010
1000
0010
0100
,
0001
0010
0001
0100
0010
1000
0001
0010
0001
0100
0010
1000
0100
0010
0100
1000
,
0010
0100
0001
0010
0100
1000
0010
0100
0001
0010
0100
1000
0010
0100
0001
0010
,
0100
1000
0100
1000
0010
0100
0010
0100
0001
0010
0001
0010
0100
1000
0001
0100
,
0010
0000
0000
0000
0000
0000
0010
0000
0000
1000
0000
0000
0100
0000
0000
0000
0000
0000
0010
0000
0000
0001
0000
0000
0000
0000
0000
0000
0000
0000
0001
0000
0000
0000
0000
0000
1000
0000
0000
0000
0000
0000
0001
0000
0100
0000
0010
0000
,
1000
0000
0000
0000
;
