#TITLE:Zi Vatan;
#SUBTITLE:;
#ARTIST:Roza Maksumova;
#TITLETRANSLIT:;
#SUBTITLETRANSLIT:;
#ARTISTTRANSLIT:;
#GENRE:;
#CREDIT:;
#BANNER:Zi Vatan-banner.png;
#BACKGROUND:Zi Vatan-bg.png;
#LYRICSPATH:;
#CDTITLE:;
#MUSIC:Zi Vatan.mp3;
#OFFSET:-0.080;
#SAMPLESTART:38.651;
#SAMPLELENGTH:12.000;
#SELECTABLE:YES;
#BPMS:0.000=112.000;
#STOPS:;
#BGCHANGES:;
#KEYSOUNDS:;

//---------------dance-single - ----------------
#NOTES:
     dance-single:
     :
     Challenge:
     12:
     1.000,1.000,0.114,0.447,1.000:
0000
0000
0000
0000
,
0000
0000
0000
0000
,
1000
0000
1000
0001
0000
0001
0100
0010
1000
0010
0100
0001
1000
0000
0010
0000
0100
0000
0202
0000
0000
0000
0303
0000
,
1000
0000
0010
0000
0100
0000
0001
0010
0100
1000
0100
0010
0200
0000
0000
0000
0300
0000
1M00
0010
0100
0001
0100
0001
,
1000
0000
0010
0000
1000
0000
00M0
0000
1000
0000
0010
0000
1000
0000
00M0
0000
1000
0000
0010
0000
1000
0000
0010
0000
0100
0001
0100
0000
0001
0000
0000
0000
1000
0000
0000
0000
0010
0000
0000
0000
0000
0000
1000
0000
0100
0000
1000
0000
,
0001
0000
0100
0010
1000
0000
0001
1000
0010
0000
1000
0100
1000
0001
1000
0000
0001
0000
0100
0000
0000
0010
1000
0010
,
1000
0000
1000
0001
0000
0001
0100
0010
0100
0001
1000
0001
0100
0000
0010
0000
1000
0000
0001
0010
0100
0010
0100
1000
,
0010
0000
0000
0000
0100
0000
0000
0000
0000
0000
0001
0100
0001
0000
0100
0000
0010
0000
1000
0000
0001
0000
1000
0000
0010
0000
0000
0000
0000
0000
1000
0000
0001
0000
1000
0000
0010
0000
1000
0000
0001
0000
0100
0000
0001
0000
1000
0000
,
0100
0000
1000
0000
0001
1000
0010
1000
0001
0010
0001
0100
0010
0000
1000
0000
0001
0000
0100
0001
1000
0001
0100
0001
,
1000
0010
0100
0001
1000
0001
0010
0001
1000
0010
1000
0100
2000
0000
0000
3000
0001
0100
0002
0000
0000
1003
0100
0010
,
0001
0000
0000
0110
0000
0000
1MM0
0000
0000
0110
0000
0000
0MM1
0000
0100
1000
0000
0100
0001
0000
0000
1000
0100
1000
,
0100
0000
0000
0010
0000
0100
0010
0000
0000
1000
0000
0000
0002
0000
0000
0023
0000
0000
023M
0000
0000
23M0
0000
0000
,
3M10
0000
0000
1001
0000
0000
0100
0000
0000
1001
0000
0000
1000
0000
0010
0001
0000
0010
1000
0000
0000
0010
0100
0010
,
0100
0000
0001
0000
0001
0000
1000
0000
0000
0010
0000
0000
0220
0000
0000
0330
0000
0000
1MM0
0001
1000
0010
0100
0010
,
1000
0000
0000
0101
0000
0000
0M1M
0000
0000
0101
0000
0000
0M1M
0000
0100
0001
0000
0100
0010
0000
0000
0001
1000
0001
,
1000
0000
0000
0001
0000
0100
0001
0000
0000
0010
0000
0000
0002
0000
0000
0203
0000
0000
032M
0000
0000
2M30
0000
0000
,
31M0
0000
0000
1010
0000
0000
M0M1
0000
0000
1010
0000
0000
10M0
0000
0100
0010
0000
0100
1000
0000
0000
0010
0001
0010
,
0001
0000
1000
0000
0010
0000
0100
0000
0000
0001
0000
0000
2020
0000
0000
3030
0000
0000
M1M0
0001
0100
0010
1000
0001
,
0200
0000
0000
0301
0000
0000
0020
0000
0000
1030
0000
0000
0100
0000
0100
0001
0000
0001
2000
0000
0000
0000
0000
0000
,
3010
0000
1000
0010
0000
0010
1000
0000
0000
0010
0000
0000
1000
0000
0001
0000
0010
0000
0002
0000
0000
1000
0000
0000
,
0203
0000
0000
1300
0000
0000
0020
0000
0000
0031
0000
0000
0100
0000
0100
0001
0000
0001
0010
0000
0100
0010
0000
0000
,
1000
0000
0100
0000
0010
0000
0100
0000
0000
1000
0000
0000
0002
0000
0000
1003
0010
1000
0001
0010
0001
1000
0010
0100
,
0002
0000
0000
0103
0000
0000
2000
0000
0000
3010
0000
0000
0100
0000
0100
0010
0000
0010
1000
0000
0100
1000
0000
0000
,
0001
0000
1000
0001
0000
1000
0010
0000
0000
0100
0000
0000
0001
0000
1000
0000
0010
0000
0100
0000
0000
0001
0000
0000
,
0020
0000
0000
0130
0000
0000
2000
0000
0000
3001
0000
0000
0100
0000
0100
0010
0000
0010
0100
0000
0001
1000
0000
0000
,
0010
0000
1000
0000
0001
0000
0010
0000
0000
0100
0000
0000
1000
0000
0000
0001
0100
0001
1000
0010
1000
0001
0010
0001
,
2000
0000
0000
3100
0000
0000
0002
0000
0000
0013
0000
0000
1000
0000
0010
0000
0100
0000
0001
0000
0010
0001
0000
0000
,
0100
0000
0010
0000
1000
0000
0001
0000
0000
0010
0000
0000
0200
0000
0000
0000
0000
0000
0001
0000
0000
0000
0000
0000
,
0310
0000
1000
0000
0010
0000
0100
0000
0001
0000
0100
0000
0010
0000
0100
0000
0010
0000
1000
0000
0001
0000
1000
0000
0001
0000
0010
0000
0100
0000
1000
0000
0100
0000
0010
0000
0001
0010
0001
0000
0100
0000
0010
0000
1000
0000
0010
0000
,
0100
0000
0010
0000
0100
0000
0001
0000
1000
0000
0001
0000
1000
0000
0010
0000
1000
0000
0010
0000
0100
0000
0010
0000
1000
0000
0100
0000
0010
0000
0001
0000
0010
0000
0100
0000
1000
0001
1000
0000
0100
0000
1000
0000
0010
0000
0100
0000
,
0001
0000
0100
0000
0010
0000
0100
0000
0010
0000
1000
0000
0001
0000
1000
0000
0001
0000
0010
0000
0001
0000
1000
0000
0010
0000
0100
0000
0010
0000
0100
0000
0001
0000
0100
0000
0001
1000
0001
0000
0100
0000
0010
0000
0100
0000
0001
0000
,
1000
0000
0100
0000
0010
0000
0000
0000
0010
0000
0100
0000
1000
0001
1000
0000
0010
0000
0100
0000
0010
0000
1000
0000
0002
0000
0000
0000
0000
0000
0003
0000
0010
0000
0100
0000
1000
0000
0000
0000
0000
0000
0000
0000
0000
0000
0000
0000
,
0100
0000
0001
0000
0100
0000
0000
0000
0001
0000
0010
0000
0001
0000
0000
0000
0100
0000
0001
0000
0100
0000
0010
0000
1000
0001
1000
0000
0100
0000
0000
0000
0010
0000
0000
0000
0100
0000
0000
0000
0000
0000
1000
0000
0001
0000
1000
0000
,
0010
0000
0000
0000
0100
0001
0100
0000
0001
0000
0000
0000
0100
0000
0010
0000
1000
0000
0000
0000
1000
0000
0001
0000
1000
0010
0100
0000
0001
0000
0000
0000
0010
0000
0000
0000
0100
0000
0000
0000
0000
0000
1000
0000
0010
0000
0100
0000
,
0001
0000
0001
1000
0000
1000
0010
0100
0001
1000
0001
0010
0100
0000
1000
0000
0001
0000
1000
0010
0100
0001
1000
0001
,
0010
0000
0000
0000
0001
0000
0000
0000
1000
0000
0010
0000
0100
0000
0001
0000
1000
0000
0001
0000
0010
0000
0100
0000
1000
0000
0000
0000
0001
1000
0001
0000
0100
0000
0010
0000
1000
0000
0001
0000
0010
0000
0001
0000
1000
0000
0010
0000
,
0100
0000
0001
0000
1000
0001
0100
0010
1000
0100
1000
0001
0100
0000
0010
0000
1000
0000
0001
1000
0010
1000
0001
0010
,
0001
0000
1000
0000
0010
0000
0100
0000
0001
0000
1000
0000
0001
0010
0001
0000
0100
0000
0010
0000
1000
0000
0001
0000
1000
0000
0000
0000
0000
0000
0100
0000
1000
0000
0010
0000
0100
0000
0001
0000
1000
0000
0001
0000
0010
0000
0000
0000
,
0002
0000
0000
0013
0000
0000
0200
0000
0000
0301
0000
0000
0010
0000
0010
1000
0000
1000
0002
0000
0000
0000
0000
0000
,
0103
0000
0001
0100
0000
0100
0001
0000
0000
0100
0000
0000
0001
0000
1000
0000
0100
0000
2000
0000
0000
0001
0000
0000
,
3020
0000
0000
0031
0000
0000
0200
0000
0000
1300
0000
0000
0010
0000
0010
1000
0000
1000
0100
0000
0010
0100
0000
0000
,
0001
0000
0010
0000
0100
0000
0010
0000
0000
0001
0000
0000
2000
0000
0000
3001
0100
0001
1000
0100
1000
0001
0100
0010
,
2000
0000
0000
3010
0000
0000
0002
0000
0000
0103
0000
0000
0010
0000
0010
0100
0000
0100
0001
0000
0010
0001
0000
0000
,
1000
0000
0001
1000
0000
0001
0100
0000
0000
0010
0000
0000
1000
0000
0001
0000
0100
0000
0010
0000
0000
1000
0000
0000
,
0200
0000
0000
0310
0000
0000
0002
0000
0000
1003
0000
0000
0010
0000
0010
0100
0000
0100
0010
0000
1000
0001
0000
0000
,
0100
0000
0001
0000
1000
0000
0100
0000
0000
0010
0000
0000
0001
0000
0000
1000
0010
1000
0001
0100
0001
1000
0100
1000
,
0002
0000
0000
0013
0000
0000
2000
0000
0000
3100
0000
0000
0001
0000
0100
0000
0010
0000
1000
0000
0100
1000
0000
0000
,
0010
0000
0100
0000
0001
0000
1000
0000
0000
0100
0000
0000
0001
0100
0001
1000
0100
1000
0001
0010
0001
1000
0010
0100
,
0220
0000
0000
M000
000M
M000
000M
0000
0000
M000
000M
M000
000M
0000
0000
0000
0000
0000
0000
0000
0000
0000
0000
0000
,
0330
0000
0000
0000
;

//---------------dance-single - Blank----------------
#NOTES:
     dance-single:
     Blank:
     Hard:
     8:
     0.462,0.396,0.086,0.029,0.319:
0000
0000
0000
0000
,
0000
0000
0000
0000
,
1000
0000
0000
0001
0000
0000
0100
0010
1000
0002
0000
0000
,
0103
0010
0100
0010
1000
0001
1000
0000
0000
0100
0000
0000
,
0001
0000
0000
0000
0001
0000
1000
0000
0000
0000
1000
0000
0010
0000
0000
0100
0000
0000
0010
0000
0000
0000
0000
0000
,
1000
0001
1000
0001
0100
0001
1000
0001
1000
0010
0000
0000
,
0100
0001
0100
1000
,
0010
1000
0010
1000
0010
1000
0010
0000
0000
0100
0000
0000
,
1000
0001
1000
0001
0000
0000
0100
0010
0100
0010
0000
0000
,
0001
1000
0001
1000
0010
1000
0001
0000
0000
0110
0000
0000
,
1000
1000
0001
0001
0100
0010
0100
0000
,
0010
1000
0001
0010
0001
0001
1000
1000
,
0010
0100
0010
0100
0001
1000
0001
0000
,
1000
0010
1000
0010
0100
0000
0011
0000
,
0010
0010
0100
0100
0001
1000
0010
0000
,
0100
0001
1000
0010
1000
1000
0100
0100
,
1000
0001
0100
0010
1000
0001
0010
0000
,
0100
0010
0100
1000
0100
0000
0011
0000
,
1000
0000
1000
0001
0000
0001
1000
0000
1000
0010
0000
0000
,
0100
0010
0100
0000
0010
0100
0010
0000
,
0001
0000
0001
1000
0000
1000
0001
0000
0001
0010
0000
0000
,
0100
1000
0100
0001
0100
0000
1010
0000
,
0100
0000
0100
0010
0000
0010
0100
0000
0100
0001
0000
0000
,
1000
0100
1000
0000
0001
0010
0001
0000
,
0010
0000
0010
0100
0000
0100
0010
0000
0010
1000
0000
0000
,
0001
0100
1000
0100
0001
0000
1010
0000
,
1000
0000
1000
0010
0000
0010
0100
0000
0100
0001
0000
0000
,
1000
0001
0010
1000
0010
0000
0101
0000
,
0010
1000
0100
1000
0010
1000
0100
0010
,
0001
0100
0001
0010
0001
0100
0010
1000
,
0001
0100
1000
0100
0001
0010
0001
0100
,
1000
0000
0000
0100
0000
0000
0001
0000
0000
0010
0000
0000
0100
0000
0000
0000
0010
0000
0100
0000
0000
0000
0000
0000
,
1000
0000
0000
0001
0000
0000
0010
1000
0001
1000
0000
0000
,
0001
0010
0001
0010
0001
1000
0010
1000
0001
0010
0000
0000
,
0001
0010
0100
0010
0001
0010
1000
0010
,
0001
0010
0100
0010
0001
0100
1000
0100
,
1000
0100
0001
0100
1000
0100
0010
0100
,
1000
0000
0000
0010
0000
0000
0001
0000
0000
0100
0000
0000
0010
0000
0000
0000
0000
0100
0010
0000
0000
0000
0000
0000
,
1000
0000
1000
0001
0000
0001
0010
0000
0010
0100
0000
0000
,
1000
0100
0010
0000
1000
0001
0010
0000
,
0001
0000
0001
0100
0000
0100
0010
0000
0010
1000
0000
0000
,
0001
1000
0010
0100
0001
0000
1100
0000
,
0100
0000
0100
0010
0000
0010
1000
0000
1000
0001
0000
0000
,
0010
0001
1000
0000
0010
1000
0001
0000
,
0100
0000
0100
0010
0000
0010
1000
0000
1000
0001
0000
0000
,
0010
0001
0010
1000
0010
0000
1100
0000
,
0010
0000
0010
0001
0000
0001
1000
0010
0100
0010
0000
0000
,
1000
0001
0100
0010
1000
0100
0001
0100
,
2200
0001
0000
0000
,
3300
0000
0000
0000
;

//---------------dance-single - Blank----------------
#NOTES:
     dance-single:
     Blank:
     Medium:
     6:
     0.398,0.373,0.162,0.086,0.109:
0000
0000
0000
0000
,
0000
0000
0000
0000
,
1000
0000
0000
0001
0000
0000
0100
0000
0010
0100
0000
0000
,
0001
1000
0001
1000
0001
0000
0100
0000
,
0010
0000
0000
1000
0000
0000
0001
0010
0001
0010
0000
0000
,
0100
0000
0000
1000
0000
0000
0001
1000
0001
1000
0000
0000
,
0100
0110
0001
0110
,
1000
0010
0100
0010
1000
0000
0001
0000
,
1000
0011
0001
1010
,
0100
0010
1000
0001
0010
0000
0100
0000
,
1000
0010
1000
0000
0001
0010
0001
0000
,
0100
0010
1000
0010
0100
0100
0001
0001
,
0010
0001
0010
0000
0100
1000
0100
0000
,
1000
0001
1000
0001
1000
0000
0110
0000
,
0100
0001
0100
0000
0010
1000
0010
0000
,
0001
0010
0100
0010
0100
0100
1000
1000
,
0001
1000
0001
0000
0100
0010
0100
0000
,
0001
0010
0001
1000
0010
0000
0101
0000
,
0100
0000
0000
0001
0000
0000
0010
0000
0010
1000
0000
0000
,
0100
0000
0010
0000
1000
0001
0010
0001
,
0100
0000
0000
0010
0000
0000
1000
0000
1000
0001
0000
0000
,
0100
0010
0100
0010
1000
0000
0011
0000
,
0100
0000
0000
0001
0000
0000
0010
0000
0010
1000
0000
0000
,
0100
0000
0001
0000
0010
0001
0010
0001
,
1000
0000
0000
0001
0000
0000
0100
0000
0100
0001
0000
0000
,
1000
0010
0100
0010
0100
0000
1001
0000
,
0010
0010
0100
0000
0100
0100
0010
0000
,
1000
0001
1000
0001
1000
0000
0110
0000
,
0001
0100
0010
0100
0001
0100
0010
0100
,
0001
1000
0010
1000
0001
1000
0100
1000
,
2020
3030
0220
0330
,
2002
0000
0000
3003
0000
0000
0100
0000
0010
0200
0000
0000
,
0301
0000
0000
1000
0000
0000
0010
0000
0100
0010
0000
0000
,
1000
0001
1000
0001
1000
0000
0100
0000
,
0010
0000
0000
0001
0000
0000
1000
0010
1000
0010
0000
0000
,
0100
0001
0100
0001
0000
0000
0010
0000
0000
1000
0000
0000
,
0001
1000
0001
1000
0000
0000
0010
0100
0010
0100
0000
0000
,
1000
0001
1000
0010
0100
0000
0110
0000
,
1000
0000
0000
0001
0000
0000
0100
0000
0100
0010
0000
0000
,
1000
0000
0100
0000
0010
0001
0010
0001
,
1000
0000
0000
0010
0000
0000
0100
0000
0100
0001
0000
0000
,
1000
0001
0010
0001
0100
0000
1010
0000
,
0100
0000
0000
1000
0000
0000
0010
0000
0010
0001
0000
0000
,
0100
0000
0010
0000
1000
0001
1000
0001
,
0010
0000
0000
0100
0000
0000
1000
0000
1000
0001
0000
0000
,
1000
0010
0100
0010
1000
0000
0011
0000
,
0100
0100
0010
0000
0001
0001
1000
0000
,
0100
0001
1000
0001
0100
0000
0110
0000
,
2002
0000
0000
0000
,
3003
0000
0000
0000
;

//---------------dance-single - Blank----------------
#NOTES:
     dance-single:
     Blank:
     Easy:
     4:
     0.305,0.326,0.276,0.257,0.000:
0000
0000
0000
0000
,
0000
0000
0000
0000
,
0100
0100
0010
0010
,
1000
0001
0110
1001
,
0100
1000
0010
0001
,
0010
1001
0100
1001
,
0200
0001
0010
0301
,
0020
1000
0100
1030
,
0001
0110
1000
0110
,
1000
0001
0220
0330
,
0100
0010
0100
0001
,
1000
0000
0001
0000
1000
0010
1000
0000
,
0100
0001
0100
1000
,
0010
0100
2002
3003
,
0010
0001
0010
1000
,
0001
0000
0100
0000
0010
0100
0010
0000
,
1000
0001
0010
1000
,
0100
0010
2002
3003
,
0100
0010
1000
0001
,
0100
0100
0011
1010
,
0100
0001
0100
1000
,
0001
0010
0200
0300
,
1000
0010
0001
0100
,
0010
0010
1100
0101
,
0010
1000
0001
1000
,
0010
0001
0200
0300
,
0010
0010
0001
0001
,
1000
0010
0200
0300
,
2002
0000
0000
0003
,
0200
0000
0000
3300
,
0220
0330
2002
3003
,
0022
0000
0033
0110
,
1000
0100
0001
0010
,
0100
0011
0010
1100
,
2000
0001
0010
3001
,
0002
1000
0010
1003
,
0100
1010
0010
0101
,
1000
0001
0110
1001
,
1000
0100
0001
0010
,
1000
0100
0110
1001
,
0010
0100
0001
0100
,
0010
0100
0002
0003
,
1000
0100
0010
1000
,
0001
0100
0011
1010
,
0100
0001
0010
0001
,
0100
0010
2000
3000
,
0100
0100
0010
0010
,
0001
0100
2000
3000
,
0220
0000
0000
0000
,
0330
0000
0000
0000
;

//---------------dance-single - Blank----------------
#NOTES:
     dance-single:
     Blank:
     Beginner:
     1:
     0.101,0.091,0.076,0.000,0.000:
0000
0000
0000
0000
,
0000
0000
0000
0000
,
1000
0000
0001
0000
,
1000
0000
0000
0000
,
0010
0000
0010
0000
,
0010
0000
0000
0000
,
0100
0000
0100
0000
,
0100
0000
0000
0000
,
0010
0000
0100
0000
,
0010
0000
0000
0000
,
0001
0000
0000
0000
,
1000
0000
1000
0000
,
0010
0000
0000
0000
,
0100
0000
0000
0000
,
0010
0000
0000
0000
,
0100
0000
0100
0000
,
0001
0000
0000
0000
,
1000
0000
0000
0000
,
0110
0000
0000
0000
,
0001
0000
1000
0000
,
1001
0000
0000
0000
,
0100
0000
0000
0000
,
0110
0000
0000
0000
,
1000
0000
0001
0000
,
1001
0000
0000
0000
,
0010
0000
0100
0000
,
0110
0000
0000
0000
,
1000
0000
0001
0000
,
0100
0000
0000
0000
,
0000
0000
0000
0000
,
0010
0000
0001
0000
,
1000
0000
0000
0010
,
0010
0000
0000
0000
,
0100
0000
0001
0000
,
1000
0000
0000
0000
,
0010
0000
1000
0000
,
0001
0000
0000
0000
,
0100
0000
0010
0000
,
0110
0000
0000
0000
,
1000
0000
0001
0000
,
1001
0000
0000
0000
,
0010
0000
0000
0000
,
0100
0000
0000
0000
,
0001
0000
0100
0000
,
0110
0000
0000
0000
,
1000
0000
0001
0000
,
0100
0000
0001
0000
,
0010
0000
0100
0000
,
0010
0000
0000
0000
;

//---------------dance-double - Blank----------------
#NOTES:
     dance-double:
     Blank:
     Easy:
     5:
     0.317,0.326,0.171,0.295,0.000:
00000000
00000000
00000000
00000000
,
00000000
00000000
00000000
00000000
,
00100000
01000000
00001000
00020000
,
00030010
00000100
00000110
00000001
,
00000100
00010000
00200000
00301000
,
00011000
01000000
00011000
00000010
,
00000001
00000001
00001000
00001000
,
00000010
00000100
00000110
00001000
,
01000000
01000000
00100000
00100000
,
10000000
00010000
00110000
01010000
,
00200000
00302000
00023000
00030020
,
00001030
00000000
00000001
00000000
00000100
00000100
00000100
00000000
,
00000020
00020030
00032000
02003000
,
03010000
00000000
10000000
10000000
10000000
00000000
01100000
00000000
,
00200000
00302000
00023000
00030200
,
00000310
00000000
00000001
00000000
00000100
00000100
00000100
00000000
,
00000020
00200030
00302000
02003000
,
03100000
00000000
00010000
00010000
00010000
00000000
10100000
00000000
,
10000000
00100000
01000000
00010000
,
00001000
00000010
00000100
00000001
,
00000001
00000010
00000100
00001000
,
00010000
00000000
00100000
00000000
01000000
00000000
10000000
00010000
,
10000000
00010000
01000000
00100000
,
00000100
00001000
00000010
00000001
,
00000001
00001000
00000010
00000100
,
00100000
00000000
00010000
00000000
01000000
00000000
10000000
00010000
,
01000000
00000100
00001000
00000100
,
00010000
00001000
02000000
03000000
,
00220000
00000000
00000000
00030000
,
00002000
00000000
00000000
00303000
,
00022000
00033000
00002020
00003030
,
00000202
00000000
00000303
00011000
,
01000000
00010000
00200000
00301000
,
00000100
00011000
01000000
00011000
,
00000001
00000001
00000100
00000100
,
00000010
00000100
00000101
00010000
,
00100000
00100000
10000000
10000000
,
01000000
00010000
00110000
00100000
,
10000000
01000000
00100000
00001000
,
00010000
00000100
00000010
00000001
,
00000001
00000100
00000010
00010000
,
00001000
00000000
01000000
00000000
10000000
00000000
01000000
00010000
,
01000000
00100000
10000000
00100000
,
00010000
00000010
00001000
00000010
,
00000001
00000100
00001000
00010000
,
00001000
00000000
01000000
00000000
00100000
00000000
01000000
00010000
,
01000000
00100000
00001000
00010000
,
00000010
00000000
00000100
00000000
00000001
00000001
00001000
00001000
,
00000220
00000000
00000000
00000000
,
00000330
00000000
00000000
00000000
;

//---------------dance-double - Blank----------------
#NOTES:
     dance-double:
     Blank:
     Challenge:
     9:
     0.582,0.699,0.086,0.057,0.500:
00000000
00000000
00000000
00000000
,
00000000
00000000
00000000
00000000
,
00100000
00000000
00000000
10000000
00000000
00000000
00010000
00000000
00000000
01000000
00000000
00000000
00001000
00000000
00010000
00000000
00001000
00000000
00100000
00000000
00000000
00000000
00000000
00000000
,
00010000
00000000
00000010
00000000
00001000
00000000
00000010
00000000
00000010
00000100
00000000
00000100
00000002
00000000
00000000
00000000
00000000
00000000
00001003
00000000
00000000
00000010
00000000
00000000
,
00001000
00010000
00000000
00000000
00001000
00010000
00000000
00000000
00001000
00010000
00000000
00000000
00001000
00000000
00100000
00000000
00010000
00000000
01000000
00000000
00000000
00000000
00000000
00000000
,
10000000
00100000
01000000
00010000
00100000
00001000
00010000
00000010
00000100
00000001
00000000
00000000
,
00001000
00000000
00001000
00000010
00000000
00000010
00000100
00000000
00000100
00000001
00000000
00000001
00001000
00000000
00000010
00000000
00010000
00000000
00001000
00000000
00001000
01000000
00000000
01000000
,
00100000
00000000
10000000
00000000
00010000
00000000
10000000
00000000
00010000
00000000
00100000
00000000
00010000
00000000
00000000
10000000
00000000
10000000
00010000
00000000
00010000
00100000
00000000
00100000
,
00001000
00000000
00010000
00000000
00000010
00000000
00000100
00000000
00000100
00000001
00000000
00000001
00001000
00000000
00000100
00000000
01000000
00000000
00100000
00000000
00100000
10000000
00000000
10000000
,
00010000
00000000
10000000
00010000
00000000
01000000
00010000
00000000
01000000
00001000
00000000
00010000
00001000
00000000
00000000
00010000
00000000
00000000
00000010
00000000
00000000
00000000
00000000
00000000
,
00000001
00000100
00010000
00000100
00000001
00000100
00010000
00000000
,
00010000
00100000
10000000
00100000
00010000
01000000
10000000
01000000
,
10000000
01000000
00001000
01000000
10000000
01000000
00001000
00000000
,
00001000
00000010
00000001
00000100
00001000
00000000
1001MMMM
00000000
,
10000000
00100000
00001000
00100000
10000000
00100000
00001000
00000000
,
00001000
00000100
00000001
00000100
00000001
00000010
00000100
00001000
,
00000001
00000010
00010000
00000010
00000001
00000010
00010000
00000000
,
00010000
00100000
10000000
01000000
00010000
00000000
MMMM1001
00000000
,
00010000
00010000
00001000
00001000
01000000
01000000
00000100
00000000
,
00000010
00001000
00100000
00001000
00000010
00000001
00000100
00001000
,
01000000
10000000
01000000
00001000
01000000
10000000
01000000
00000000
,
01000000
10000000
00100000
00010000
00000010
00000000
00001001
00000000
,
01000000
01000000
00001000
00001000
00100000
00100000
00000100
00000000
,
00001000
00000100
00000001
00000100
00010000
00000100
00000001
00000100
,
00010000
00001000
01000000
10000000
01000000
00010000
01000000
00000000
,
01000000
10000000
00100000
00010000
01000000
00000000
MMMM1001
00000000
,
00000010
00001000
00000010
00000001
00000010
00001000
00000100
00000000
,
01000000
00010000
00100000
00010000
02000000
00000000
00010000
00000000
,
03010000
00000000
00010000
00100000
00000000
00100000
00001000
00000000
00001000
00010000
00000000
00010000
00000010
00000000
00000010
00000100
00000000
00000100
00000001
00000000
00000001
00000010
00000000
00000010
,
00000100
00000000
00000100
00001000
00000000
00001000
01000000
00000000
01000000
00100000
00000000
00100000
10000000
00000000
01000000
00000000
00100000
00000000
01000000
00000000
10000000
00000000
00010000
00000000
,
00100000
00000000
00100000
00001000
00000000
00001000
00010000
00000000
00010000
01000000
00000000
01000000
00100000
00000000
00100000
00001000
00000000
00001000
00010000
00000000
00010000
01000000
00000000
01000000
,
00100000
10000000
00100000
00001000
00100000
00000000
00011000
00000000
,
00010000
00000010
00000000
00000000
00001000
00100000
00000000
00000000
00010000
00000010
00000000
00000000
00010000
00000000
00001000
00000000
01000000
00000000
00100000
00000000
00000000
10000000
00000000
00000000
,
00100000
00000000
01000000
00000000
00010000
00000000
00100000
00000000
00001000
00000000
00010000
00000000
00000010
00000000
00010000
00000000
00001000
00000000
00000100
00000000
00000000
00001000
00000000
00000000
,
00100000
00000000
00100000
00010000
00000000
00010000
10000000
00000000
10000000
00100000
00000000
00100000
01000000
00000000
00100000
00000000
10000000
00000000
00010000
00000000
00010000
00100000
00000000
00100000
,
00000010
00000000
00001000
00000000
00000001
00000000
00001000
00000000
00000010
00000000
00010000
00000000
00001000
00000000
00000000
00100000
00000000
00000000
00010000
00000000
00000000
01000000
00000000
00000000
,
00100000
00000000
10000000
00000000
00000000
10000000
00100000
00000000
00100000
01000000
00000000
01000000
00010000
00000000
00100000
00000000
00000000
00010000
00100000
00000000
00100000
00000010
00000000
00000010
,
00000100
00000000
00000100
00000001
00000000
00000001
00001000
00000000
00001000
00000010
00000000
00000010
00020000
00000000
00000000
00000000
00000000
00000000
00031000
00000000
00000000
01000000
00000000
00000000
,
00100000
10000000
00100000
00001000
00100000
10000000
00100000
00001000
,
00010000
01000000
10000000
01000000
00010000
01000000
10000000
01000000
,
00100000
00001000
00010000
01000000
00100000
00001000
00010000
00000000
,
01000000
10000000
00100000
00010000
01000000
00000000
MMMM1001
00000000
,
00001000
00000010
00000001
00000010
00001000
00000010
00000001
00000100
,
00010000
00000100
00000001
00000100
00010000
00000100
00000001
00000100
,
00010000
00000010
00000001
00000010
00010000
00000010
00000001
00000000
,
00001000
00000100
00000001
00000010
00001000
00000000
1001MMMM
00000000
,
01000000
00010000
00000010
00010000
00100000
00010000
00000100
00000000
,
00000010
00000001
00000100
00001000
00000010
00000000
01100000
00000000
,
00002202
00000000
00000000
00000000
,
00003303
00000000
00000000
00000000
;

//---------------dance-double - Blank----------------
#NOTES:
     dance-double:
     Blank:
     Medium:
     7:
     0.393,0.373,0.333,0.190,0.010:
00000000
00000000
00000000
00000000
,
00000000
00000000
00000000
00000000
,
01000000
00001000
00010000
00001000
01000000
00001000
00020000
00000000
,
00030010
00010000
00001000
00010000
00000020
00000000
00000130
00000000
,
00001001
00011000
10010000
00011000
,
00000110
00001001
00000110
00001001
,
00010000
00010000
00001000
00000000
00001000
00001000
01000000
00000000
,
01000000
00100000
10000000
00100000
01000000
00000000
01100000
00000000
,
00001000
00001000
00010000
00000000
00010000
00010000
00000010
00000000
,
00000100
00000001
00000010
00000001
00000100
00000000
00011000
00000000
,
01000000
01000000
00100000
00100000
10000000
10000000
00010000
00000000
,
00001000
00010000
00000010
00000100
,
00000010
00000010
00000100
00000100
00000001
00000001
00001000
00000000
,
00001000
00000100
00000001
00000100
00001000
00000000
00011000
00000000
,
10000000
10000000
00010000
00010000
01000000
01000000
00100000
00000000
,
10000000
01000000
00010000
00011000
,
00001000
00001000
00000001
00000001
00000100
00000100
00000010
00000000
,
00000100
00010000
00022000
00033000
,
00200000
10000000
00001000
10300000
,
00001000
00010000
00000001
00001000
,
00000020
00000001
00010000
00000031
,
00001000
00010000
00011000
00010000
,
02000000
10000000
00001000
13000000
,
00010000
00100000
00000010
00001000
,
00000200
00000001
00010000
00000301
,
00001000
00010000
00011000
00100000
,
01000000
00010000
00100000
00000010
,
00000100
00000001
00002002
00003003
,
00000220
00000000
00000000
00000000
00000000
00000000
00000000
00000000
00000000
00000000
00000000
00000000
00000000
00000000
00000000
00000000
00000000
00000000
00000000
00000000
00000000
00000000
00001000
00000001
,
00001000
00000000
00000000
00000000
00000000
00000000
00000330
00011000
,
02200000
00000000
00000000
03300000
20020000
00000000
00000000
30030000
,
02200000
00000000
00000000
00000000
00000000
03300000
01100000
00000000
,
10010000
00011000
00001001
00011000
,
10010000
01100000
10010000
01100000
,
00010000
00010000
00100000
00000000
00100000
00100000
00001000
00000000
,
00010000
00000010
00001000
00000010
00010000
00000000
00001100
00000000
,
00000001
00000001
00001000
00000000
00000100
00000100
00000010
00000000
,
00000010
00010000
00001000
00010000
00001000
00000000
01100000
00000000
,
00010000
00010000
10000000
10000000
00100000
00100000
01000000
00000000
,
00010000
00100000
00001000
00010000
,
00000010
00000010
00001000
00001000
00000001
00000001
00000100
00000000
,
00000100
00000001
00000100
00001000
00000100
00000000
00011000
00000000
,
01000000
01000000
00100000
00100000
10000000
10000000
00010000
00000000
,
00100000
01000000
00010000
00100000
,
00000010
00000010
00001000
00001000
00000001
00000001
00000100
00000000
,
00000001
00000010
00001000
00000010
00000001
00000000
00011000
00000000
,
00100000
00100000
10000000
10000000
00010000
00010000
01000000
00000000
,
10000000
00100000
00010000
00100000
10000000
00010000
10000000
00010000
,
00220000
00000000
00000000
00000000
,
00330000
00000000
00000000
00000000
;

//---------------dance-double - Blank----------------
#NOTES:
     dance-double:
     Blank:
     Hard:
     8:
     0.489,0.443,0.390,0.048,0.000:
00000000
00000000
00000000
00000000
,
00000000
00000000
00000000
00000000
,
01000000
01000000
00100000
00100000
01000000
01000000
20020000
00030000
,
30100000
01000000
00010000
00100000
00000010
00000000
00001001
00000000
,
00000001
00000100
00010000
00000100
00000001
00000100
00010000
00000000
,
00010000
00000010
00000001
00000010
00010000
00000010
00000001
00000000
,
00000110
00001001
00011000
10010000
,
01100000
00000000
10010000
00000000
00100000
10000000
00100000
00010000
,
10010000
01100000
10010000
00011000
,
00001000
00000010
00000001
00000010
00001000
00000000
00000110
00000000
,
00000100
00000100
00000001
00000001
00000100
00000100
00001000
00001000
,
00000100
00000001
00000100
00001000
00000100
00000001
00000100
00000000
,
00000010
00000010
00000001
00000001
00000010
00000010
00001000
00001000
,
00000010
00000001
00000010
00001000
00000010
00000000
00011000
00000000
,
00100000
00100000
10000000
10000000
00100000
00100000
00010000
00010000
,
00100000
10000000
00100000
00010000
00100000
10000000
00100000
00000000
,
10000000
10000000
01000000
01000000
00010000
00010000
01000000
01000000
,
10000000
01000000
00010000
01000000
10000000
00000000
00011000
00000000
,
00100000
00010000
10000000
00010000
00100000
00010000
10000000
00010000
,
00100000
00001000
00010000
00001000
00100000
00000010
00000100
00000010
,
00001000
00000001
00000100
00000001
00001000
00000001
00000100
00000010
,
00010000
00000100
00010000
00001000
00010000
00000000
00011000
00000000
,
00001000
00000001
00000010
00000001
00001000
00000001
00000010
00000001
,
00001000
00000010
00010000
00000010
00010000
00001000
00100000
00001000
,
01000000
00010000
10000000
00010000
01000000
00010000
10000000
00000000
,
00010000
00100000
10000000
00100000
00010000
00000000
01100000
00000000
,
00010000
00100000
10000000
00000000
10000000
01000000
00010000
00000000
,
00010000
00100000
10000000
01000000
00010000
00000000
MMMM1001
00000000
,
00001000
00001000
00000010
00000010
00000001
00000001
00000100
00000100
,
00001000
00001000
00000010
00000010
00000001
00000001
00000100
00001100
,
00011000
00010000
00100000
00100000
10010000
10000000
01000000
01000000
,
10010000
00010000
00100000
00100000
01100000
00000000
00011000
00000000
,
00001000
00000010
00000001
00000010
00001000
00000010
00000001
00000000
,
00000001
00000100
00010000
00000100
00000001
00000100
00010000
00000000
,
00011000
10010000
00011000
00001001
,
00000110
00001001
00000110
00001000
,
10010000
00011000
00001001
00011000
,
10010000
00000000
01100000
00000000
10010000
00000000
10000000
00100000
,
01000000
00010000
00100000
00010000
01000000
00010000
00100000
00010000
,
01000000
00010000
00100000
00001000
00010000
00000010
00000100
00000010
,
00001000
00000001
00000010
00000001
00001000
00000001
00000010
00000001
,
00000100
00001000
00000100
00000001
00000100
00000000
00011000
00000000
,
00100000
00010000
10000000
00010000
00100000
00010000
10000000
00010000
,
01000000
00100000
10000000
00100000
01000000
00010000
00100000
00000010
,
00001000
00000100
00000001
00000100
00001000
00000100
00000001
00000100
,
00010000
00000100
00000001
00000100
00010000
00000000
00011000
00000000
,
10000000
00100000
00010000
00100000
10000000
01000000
00010000
00000000
,
00010000
00100000
10000000
01000000
00010000
00100000
10000000
01000000
,
02200000
00002000
00000000
00003000
,
03300000
00000000
00000000
00000000
;
