#TITLE:Song For Denise;
#SUBTITLE:;
#ARTIST:Piano Fantasia;
#TITLETRANSLIT:;
#SUBTITLETRANSLIT:;
#ARTISTTRANSLIT:;
#GENRE:;
#CREDIT:;
#BANNER:Song For Denise banner.png;
#BACKGROUND:Song For Denise bkd.png;
#LYRICSPATH:;
#CDTITLE:;
#MUSIC:Song For Denise.mp3;
#OFFSET:0.402;
#SAMPLESTART:40.251;
#SAMPLELENGTH:12.000;
#SELECTABLE:YES;
#BPMS:0.000=100.150,172.000=99.800,188.000=100.000;
#STOPS:35.979=-0.016
,115.958=-0.014
;
#BGCHANGES:;
#KEYSOUNDS:;

//---------------dance-single - Blank----------------
#NOTES:
     dance-single:
     Blank:
     Beginner:
     1:
     0.093,0.082,0.031,0.000,0.000:
0000
0000
0000
0000
,
0000
0000
0000
0000
,
0000
0000
0000
0000
,
0010
0000
0000
0000
,
1000
0000
1000
0000
,
1000
0000
0000
0000
,
0001
0000
0001
0000
,
0001
0000
0000
0000
,
0010
0000
0010
0000
,
0110
0000
0000
0000
,
1000
0000
1000
0000
,
1001
0000
0000
0000
,
0100
0000
0100
0000
,
0110
0000
0000
0000
,
0001
0000
1000
0000
,
0010
0000
0000
0000
,
0100
0000
0100
0000
,
0010
0010
0000
0000
,
1000
1000
0000
0000
,
0001
0001
0000
0000
,
0100
0100
0000
0000
,
0010
0010
0000
0000
,
1000
1000
0000
0000
,
0100
0100
0000
0000
,
0001
0001
0000
0000
,
0010
0000
0000
0000
,
1000
0000
0001
0000
,
1000
0000
0000
0000
,
0010
0000
0100
0000
,
0010
0000
0000
0000
,
1000
0000
0100
0000
,
0001
0000
0000
0000
,
0001
0000
0010
0000
,
1000
0000
0000
0000
,
0010
0000
0010
0000
,
0010
0000
0000
0000
,
0100
0000
0100
0000
,
0100
0000
0000
0000
,
0010
0000
1000
0000
,
0001
0000
0000
0000
,
0100
0000
0001
0000
,
1000
0000
0000
0000
,
0010
0000
0100
0000
,
1000
0000
0000
0000
,
0010
0000
0100
0000
,
0001
0000
0000
0000
,
1000
0000
0010
0000
,
0001
0000
0000
0000
,
0100
0000
0010
0000
,
0001
0000
0000
0000
,
0010
0000
0001
0000
,
1000
0000
0000
0000
,
0010
0000
0100
0000
,
1001
0000
0000
0000
;

//---------------dance-single - Blank----------------
#NOTES:
     dance-single:
     Blank:
     Easy:
     2:
     0.178,0.188,0.093,0.062,0.000:
0000
0000
0000
0000
,
0000
0000
0000
0000
,
0000
0000
0000
0000
,
0010
0000
0000
0000
1000
1000
1000
0000
,
0001
0000
1000
0000
,
0010
0000
0000
0000
0100
0100
0100
0000
,
0001
0000
1000
0000
,
0010
0000
0000
0000
0100
0100
0100
0000
,
0001
1000
0001
1000
,
0010
0110
0000
0000
,
1000
1000
0001
0001
,
0010
1010
0000
0000
,
0100
0100
0001
0001
,
0010
0011
0000
0000
,
0100
0100
1000
1000
,
0010
0110
0000
0000
,
0100
0010
1000
0001
,
0010
0110
0000
1000
,
0010
0110
0000
0001
,
0100
0110
0000
1000
,
0001
1001
0200
0000
,
0310
1010
0000
0100
,
0001
0101
0000
0010
,
1000
0101
0000
0010
,
1000
0001
0020
0000
,
0130
1000
0000
0000
,
0100
0001
1000
0010
,
0001
0000
0000
0000
,
0010
0100
0001
1000
,
0100
0000
0000
0000
,
0010
0001
1000
0010
,
0100
0000
0000
0000
,
0001
0010
1000
0100
,
0001
0000
0000
0000
1000
1000
1000
0000
,
0010
0000
0100
0000
,
0001
0000
0000
0000
0010
0010
0010
0000
,
0100
0000
1000
0000
,
0010
0020
0000
0000
,
0030
0100
0001
0010
,
0200
0000
0000
0000
,
0300
1000
0001
0020
,
0000
0000
0000
0000
,
0030
0100
0001
1000
,
2000
0000
3000
0000
,
0010
0000
1000
0000
,
0100
0000
0000
0000
0001
0001
0001
0000
,
0010
0000
0100
0000
,
1000
0000
0000
0000
0010
0010
0010
0000
,
0100
0000
0001
0000
,
0010
0000
0000
0000
0100
0100
0100
0000
,
1000
0000
0010
0000
,
0001
0000
0000
0000
0100
0100
0100
0000
,
0010
0000
1000
0000
,
2002
0000
0000
0000
,
3003
0000
0000
0000
;

//---------------dance-single - Blank----------------
#NOTES:
     dance-single:
     Blank:
     Medium:
     5:
     0.362,0.335,0.294,0.031,0.101:
0000
0000
0000
0000
,
0000
0000
0000
0000
,
0000
0000
0000
0000
,
0010
0000
0000
0010
0000
0000
1000
0000
0001
0000
1000
0000
0010
0000
0100
0000
,
0001
0000
0000
0010
0000
0000
0001
0000
1000
0000
0000
0010
0000
0000
0100
0000
,
0001
0000
0000
1000
0000
0000
0010
0000
0100
0000
0001
0000
0010
0000
0001
0000
,
1000
0000
0000
0010
0000
0000
0100
0000
0010
0000
0000
0001
0000
0000
0010
0000
,
0100
0000
0000
0001
0000
0000
1000
0000
0100
0000
0010
0000
0100
0000
1000
0000
,
0010
0000
0000
0100
0000
0000
0001
0000
1000
0000
0000
0010
0000
0000
0100
0000
,
0110
0000
1001
0000
0001
0010
0100
1000
,
1010
0000
0000
0000
1001
0000
0000
0001
0010
0000
0000
0000
0001
0000
1000
0000
,
1010
0000
1001
0000
0100
0010
1000
0001
,
0011
0000
0000
0000
1001
0000
0000
1000
0010
0000
0000
0000
0100
0000
0001
0000
,
1001
0000
0101
0000
0010
1000
0001
0010
,
0011
0000
0000
0000
1001
0000
0000
1000
0010
0000
0000
0000
0100
0000
0010
0000
,
1010
0000
0101
0000
0010
1000
0001
0010
,
0001
1000
0010
0100
,
0010
1000
0010
0000
0100
0000
0000
0000
0000
0000
0001
0000
1000
0000
0001
0000
,
0010
0001
0010
0000
0001
0000
0000
0000
0000
0000
1000
0000
0010
0000
0100
0000
,
0010
0100
0010
0000
1000
0000
0000
0000
0000
0000
0001
0000
0100
0000
0001
0000
,
1000
0001
1000
0000
0010
0000
0000
0000
0200
0000
0000
0000
0000
0000
0000
0000
,
0310
1000
0010
0000
0100
0000
0000
0000
0000
0000
0001
0000
0010
0000
0100
0000
,
0010
0100
0010
0000
0001
0000
0000
0000
0000
0000
1000
0000
0010
0000
1000
0000
,
0010
0100
0010
0000
0100
0000
0000
0000
0000
0000
0001
0000
1000
0000
0001
0000
,
0010
0001
0010
0000
0100
0000
0000
0000
2000
0000
0000
0000
0000
0000
0000
0000
,
3010
0000
0100
0000
0001
0100
0001
1000
,
0010
1001
0100
1001
,
0010
0000
0100
0000
0001
1000
0100
0010
,
0100
1001
0010
0101
,
0010
0000
1000
0000
0001
0010
0100
1000
,
0010
0101
0010
1100
,
0010
0000
0100
0000
0001
1000
0010
0100
,
0010
1001
0100
1010
,
0100
0000
0000
0010
0000
0000
0100
0000
0010
0000
0100
0000
0010
0000
0000
0000
,
1000
0000
0000
1000
0000
0000
0010
0000
0100
0000
0000
0100
0000
0000
0001
0000
,
1000
0000
0000
1000
0000
0000
0010
0000
0100
0000
0001
0000
0100
0000
0001
0000
,
0010
0000
0000
0010
0000
0000
0001
0000
1000
0000
0000
1000
0000
0000
0010
0000
,
0100
0000
1000
0000
0010
1000
0001
0010
,
0001
1001
1000
0110
,
0001
0000
1000
0000
0010
0100
0001
0100
,
0010
1001
0010
0101
,
1000
0000
0010
0000
0100
0010
0100
0010
,
1000
0011
1000
0101
,
0010
0000
1000
0000
0001
0010
0100
1000
,
0010
0110
1000
0110
,
0001
0000
1000
0000
0010
0100
0001
0100
,
0010
1001
0100
1010
,
0100
0000
0001
0000
0010
0100
1000
0100
,
0010
0101
1000
0110
,
0001
0000
1000
0000
0010
0001
0010
1000
,
0001
0110
1000
0101
,
0010
0000
1000
0000
0010
0100
0001
1000
,
0001
0000
0110
0000
1000
0010
0100
0001
,
2002
0000
0000
0000
,
3003
0000
0000
0000
;

//---------------dance-single - Blank----------------
#NOTES:
     dance-single:
     Blank:
     Hard:
     7:
     0.502,0.418,0.008,0.108,0.511:
0000
0000
0000
0000
,
0000
0000
0000
0000
,
0000
0000
0000
0000
,
0010
0000
0100
0010
0000
0100
0010
0000
1000
0000
0010
0000
0100
0000
0001
0000
,
1000
0000
1000
0001
0000
0001
1000
0000
0010
0000
0100
0001
0000
0001
0100
0000
,
0010
0000
1000
0001
0000
0100
0001
0000
0010
0000
0100
0000
1000
0000
0010
0000
,
0100
0000
0001
1000
0000
0001
1000
0000
0010
0000
0100
0001
0000
0100
0001
0000
,
0010
0000
0010
1000
0000
1000
0001
0000
0100
0000
1000
0000
0100
0000
0001
0000
,
1000
0000
1000
0010
0000
0010
0100
0000
0001
0000
1000
0010
0000
0100
0001
0000
,
0100
0000
1000
0001
0000
1000
0001
0000
0100
0000
0010
0000
1000
0000
0001
0000
,
0010
0000
0100
1000
0000
0100
1000
0000
0010
0000
0100
0001
0000
1000
0001
0000
,
0010
0000
0100
1000
0000
0001
1000
0000
0010
0000
0100
0000
0001
0000
0100
0000
,
1000
0000
0100
0001
0000
1000
0010
0000
0100
0000
0010
1000
0000
1000
0001
0000
,
0010
0000
0100
1000
0000
0100
1000
0000
0010
0000
0100
0000
0001
0000
1000
0000
,
0001
0000
0001
0100
0000
0100
0010
0000
1000
0000
1000
0100
0000
0100
0010
0000
,
0001
0000
0001
1000
0000
1000
0010
0000
0100
0000
0001
0000
1000
0000
0010
0000
,
0100
0000
0010
1000
0000
0010
0100
0000
0010
0000
0100
0001
0000
0010
0001
0000
,
1000
0001
1000
0001
1000
0000
0000
0000
0010
0000
0100
0001
0100
0000
0010
0000
,
1000
0001
1000
0001
1000
0000
0000
0000
0100
0000
0010
0001
0010
0000
0100
0000
,
1000
0010
1000
0010
1000
0000
0000
0000
0001
0000
0100
0001
0100
0000
0010
0000
,
1000
0100
1000
0100
1000
0000
0000
0000
0020
0000
0000
0000
0000
0000
0000
0000
,
0130
0001
0100
0001
0100
0000
0000
0000
0010
0000
1000
0001
1000
0000
0100
0000
,
0010
0001
0010
0001
0010
0000
0000
0000
0100
0000
1000
0001
1000
0000
0010
0000
,
0100
0001
0100
0001
0100
0000
0000
0000
0010
0000
0100
0010
0100
0000
0010
0000
,
1000
0001
1000
0001
1000
0000
0000
0000
0200
0000
0000
0000
0000
0000
0000
0000
,
0310
0000
1000
0002
0000
0000
0000
0000
0103
0000
0010
0000
1000
0000
0001
0000
,
0010
0000
0100
0000
1000
0000
0010
1000
0000
0000
0100
0000
0010
0000
0001
0000
,
1000
0000
0010
0200
0000
0000
0000
0000
0310
0000
0100
0000
0001
0000
1000
0000
,
0001
0000
0010
0000
0100
0000
1000
0001
0000
0000
0100
0000
0001
0000
0100
0000
,
0010
0000
1000
0002
0000
0000
0000
0000
0003
0000
1000
0000
0001
0000
0100
0000
,
0010
0000
1000
0000
0001
0000
0010
0001
0000
0000
1000
0000
0010
0000
0100
0000
,
0001
0000
0010
0200
0000
0000
0000
0000
1300
0000
0100
0000
0010
0000
0001
0000
,
1000
0000
0010
0000
0100
0000
0001
0200
0000
0000
0000
0000
0300
0000
0000
0000
,
0010
0000
1000
0001
0000
1000
0010
0000
0100
0000
0001
0000
1000
0000
0001
0000
,
0010
0000
0001
1000
0000
0010
0100
0000
0001
0000
1000
0100
0000
0010
0100
0000
,
1000
0000
0010
0100
0000
0001
1000
0000
0001
0000
0010
0000
0100
0000
1000
0000
,
0010
0000
0100
0001
0000
1000
0001
0000
0010
0000
0100
1000
0000
0001
1000
0000
,
0010
0000
0100
0001
0200
0000
0000
0000
0310
0000
1000
0000
0001
0000
0010
0000
,
0100
0000
1000
0100
0010
0001
0000
0100
0000
0010
0000
0100
0000
0002
0000
0000
,
1003
0000
0010
1000
0000
0010
0100
0000
0001
0000
1000
0000
0001
0000
0010
0000
,
0100
0000
0010
0000
0001
1000
0000
0010
0000
0100
0000
0020
0000
0000
0000
0000
,
0130
0000
0001
1000
0000
0001
1000
0000
0010
0000
0100
0000
0001
0000
0010
0000
,
0100
0000
1000
0001
0000
1000
0001
0000
0100
0000
0010
0000
1000
0000
0010
0000
,
0100
0000
0100
0001
0000
0001
1000
0000
0001
0000
0010
0000
0100
0000
1000
0000
,
0010
0000
0100
0001
0000
1000
0001
0000
0010
0000
0100
1000
0000
0010
0100
0000
,
0010
0000
1000
0001
2000
0000
0000
0000
3010
0000
0100
0000
0001
0000
0010
0000
,
0001
0000
1000
0010
0100
0010
0000
1000
0000
0001
0000
0010
0000
0100
0000
1000
,
0000
0020
0000
0000
0130
0000
0001
0000
0010
0000
0100
0000
1000
0000
0010
0000
,
0100
0000
0001
1000
0001
0100
0000
0010
0000
1000
0000
0001
0000
0000
0001
0000
,
1000
0000
0000
0010
0000
0000
0100
0000
0010
0000
1000
0000
0001
0000
0010
0000
,
0100
0000
0010
0001
1000
0010
0000
0100
0000
0000
0001
0000
0000
0010
0000
0000
,
0100
1000
0001
0100
0010
1000
0001
0010
,
0001
1000
0000
0010
0000
0100
0000
0010
1000
0010
0100
0010
0100
0000
0010
0000
,
2002
0000
0000
0000
,
3003
0000
0000
0000
;

//---------------dance-single - Blank----------------
#NOTES:
     dance-single:
     Blank:
     Challenge:
     9:
     0.712,0.691,0.418,0.395,0.818:
0000
0000
0000
0000
,
0000
0000
0000
0000
,
0000
0000
0000
0000
,
0000
0000
0010
0000
0000
0000
0000
0000
0100
0000
0000
0000
0001
1000
0001
1000
0001
0000
0020
0000
0000
0000
0000
0000
0030
0000
0000
0000
00M0
0000
0000
0000
,
0000
0100
0000
0000
1000
0000
0010
0100
0001
0001
0000
1000
0001
0000
0100
0000
,
0010
0000
0010
1000
0000
1000
0001
0000
1MM1
0000
M1M1
0000
1MM1
0000
11MM
0000
,
0010
0000
0010
1000
0000
1000
0001
0000
1000
0000
1000
0010
0000
0010
0001
0000
,
1000
0000
1000
0100
0000
0100
0001
0000
1MM1
0000
M1M1
0000
1MM1
0000
1M1M
0000
,
0010
0000
0010
0100
0000
0100
0001
0000
1000
0000
1000
0001
0000
0001
0010
0000
,
1010
0000
0010
0100
0101
0001
1000
0000
0010
0000
1000
0000
1001
0000
0001
0000
,
0100
0000
0010
1000
1001
0001
0010
0100
1000
0010
0000
0010
0100
0000
0001
0000
,
1000
0000
0010
0100
0110
0010
1000
0000
0001
0000
0010
0000
0110
0000
0100
0000
,
1000
0000
0010
0100
0101
0001
1000
0010
0100
0001
0000
0010
0100
0000
1000
0000
,
0010
0000
0100
0001
1001
1000
0010
0000
0001
0000
0010
0000
1010
0000
1000
0000
,
0001
0000
0010
0100
1100
1000
0001
0100
1000
0100
0000
0001
1000
0000
0010
0000
,
0100
0000
0001
0010
0110
0100
1000
0000
0010
0000
0100
0000
0101
0000
0001
1000
,
0010
0010
0000
0100
0000
0001
0000
1000
0000
0010
0100
0001
1000
0100
0001
0100
,
1000
0000
0010
0000
0100
0000
0001
0000
0200
0000
0000
0000
0000
0000
0000
0000
0310
0000
1000
0000
0M01
0000
0010
0000
0001
0010
0001
0000
2000
0000
0000
0000
,
3010
0000
0100
0000
M001
0000
0100
0000
2000
0000
0000
0000
0000
0000
0000
0000
3100
0000
0001
0000
1000
0000
0010
0000
0100
0001
0100
0000
0020
0000
0000
0000
,
1030
0000
0100
0000
0010
0000
0001
0000
2000
0000
0000
0000
0000
0000
0000
0000
3010
0000
0100
0000
M001
0000
1000
0000
0001
0100
0001
0000
0020
0000
0000
0000
,
0130
0000
0000
1000
0000
0000
00M1
0000
0000
0100
0000
0000
0020
0000
0000
0000
0000
0000
0000
0000
0000
0000
0000
0000
1030
0000
0010
0000
1000
0000
0001
0000
0010
0000
0001
0000
1000
0000
0100
0000
1000
0000
0001
0000
0100
0000
0001
0000
,
0010
0000
0100
0000
1000
0000
0001
0000
0200
0000
0000
0000
0000
0000
0000
0000
0310
0000
1000
0000
0M01
0000
0100
0000
0010
0001
0010
0000
0200
0000
0000
0000
,
0310
0000
1000
0000
0M01
0000
0010
0000
0200
0000
0000
0000
0000
0000
0000
0000
1300
0000
0010
0000
0100
0000
0001
0000
1000
0001
1000
0000
0020
0000
0000
0000
,
0130
0000
1000
0000
01M0
0000
0001
0000
0200
0000
0000
0000
0000
0000
0000
0000
0310
0000
1000
0000
0M01
0000
0010
0000
0100
1000
0100
0000
0002
0000
0000
0000
,
0103
0000
0000
1000
0000
0000
001M
0000
0000
0100
0000
0000
0002
0000
0000
0000
0000
0000
0000
0000
0000
0000
0000
0000
1003
0000
0010
0000
0100
0000
0001
0000
0010
0000
0001
0000
1000
0000
0010
0000
0100
0000
0001
0000
0100
0000
0010
0000
,
1000
0000
0010
0100
0001
1000
0001
0000
0010
0000
0110
0000
1100
0000
1001
0000
,
1000
0000
0010
0000
0100
0000
0001
0100
1000
0100
0001
0000
1000
0000
0010
0000
,
0100
0000
0001
0010
0100
1000
0001
0000
1000
0000
1010
0000
0011
0000
1010
0000
,
1000
0000
0001
0000
0010
0000
0100
1000
0100
0001
0100
0000
0010
0000
1000
0000
,
0001
0000
0100
0010
1000
0001
0010
0000
0100
0000
1100
0000
1001
0000
0101
0000
,
0100
0000
0010
0000
1000
0000
0001
0010
0100
1000
0010
0000
0100
0000
0001
0000
,
0010
0000
0100
1000
0100
0001
0100
0000
1000
0000
1010
0000
0110
0000
0011
0000
,
1000
0000
0001
0000
0010
0000
0100
1000
0010
0100
0000
1000
0100
0001
1000
0000
,
0010
0000
0010
1000
0000
1000
0001
0000
MM11
0000
1MM1
0000
1M1M
0000
1MM1
0000
,
1000
0000
1000
0010
0000
0010
0100
0000
0001
0000
0001
0100
0000
0100
1000
0000
,
0001
0000
0001
0010
0000
0010
1000
0000
1001
0010
0000
0000
0100
0000
0000
0010
,
1000
0000
0010
0000
0000
0000
0100
0000
0001
0000
1000
0000
0001
0010
0001
0010
0001
0000
0100
0000
0000
0000
0010
0000
1000
0000
0001
0000
0010
0000
0000
0000
,
0001
0010
0100
0001
0100
0010
0100
0000
0000
1000
0000
0000
0010
0000
0000
0100
0000
0000
0101
0000
0000
1000
0000
0000
,
0010
0000
0000
0000
0000
0000
0100
0000
0000
0001
0000
0000
1000
0000
0000
0200
0000
0000
0000
0000
0000
0320
0000
0000
0000
0000
0000
0032
0000
0000
0M00
0000
0000
2003
0000
0000
00M0
0000
0000
3010
0200
0000
000M
0000
0000
0000
0000
0000
,
M301
0000
0010
0100
1000
0001
0100
0000
1010
0000
0110
0000
0101
0000
0110
0000
,
0010
0000
1000
0001
0010
0002
0000
0023
0000
0230
000M
2300
00M0
0000
0M00
0000
,
3010
0000
0100
0001
1000
0001
0010
0000
1100
0000
1001
0000
0101
0000
1001
0000
,
0010
0000
0000
0000
0100
0000
0001
0020
0000
0000
0000
0000
0230
0000
0000
0000
23M0
0000
0000
0000
0M00
0000
0000
0000
3010
0000
0000
0000
0100
0000
0000
0000
,
0001
0000
1000
0010
0001
0010
1000
0000
1001
0000
1010
0000
0101
0000
1001
0000
,
0010
0000
0100
0001
1000
0001
0010
0000
0100
1000
0000
0001
0100
0000
0110
0000
,
0001
0100
0010
1000
0010
1000
0001
0000
0000
0010
0000
0000
0100
0000
0000
1000
0000
0000
1010
0000
0000
0010
0000
0000
,
0100
0000
0001
1000
0010
0200
0000
0302
0000
0203
0000
2300
000M
3200
0000
0302
,
M000
0023
0000
0000
013M
0000
10M0
0000
0010
0000
0100
0000
0101
0000
0001
0000
,
1000
0000
0001
0010
0100
2000
0000
3020
0000
0230
M000
2300
00M0
0000
3200
0000
,
M320
0000
1M30
0001
0010
0100
1100
1000
,
0010
0000
0000
0000
0000
0000
0100
0000
0000
0001
0000
0000
1000
0000
0000
0002
0000
0000
0000
0000
0000
0103
0020
0000
0000
0000
0000
0000
0000
0000
023M
0000
0000
0000
0000
0000
0000
0000
0000
2300
0000
0000
00M0
0000
0000
0000
0000
0000
,
3200
0000
M000
0000
0310
1000
0001
0020
0M00
0031
1000
0020
0000
0031
1000
0200
,
00M0
0000
1300
0000
0001
0000
0200
0000
0000
0000
0310
0000
1000
0000
0001
0000
0M00
0000
1000
0000
0100
0000
0001
0000
0000
0000
1000
0010
0100
0000
0000
0000
,
0020
0000
0000
0200
0000
0000
0000
0000
0000
0000
0000
0000
0000
0000
0000
0000
,
0330
0000
0000
0000
;

//---------------dance-double - Blank----------------
#NOTES:
     dance-double:
     Blank:
     Easy:
     4:
     0.347,0.293,0.263,0.046,0.000:
00000000
00000000
00000000
00000000
,
00000000
00000000
00000000
00000000
,
00000000
00000000
00000000
00000000
,
00100000
00000000
10000000
00000000
00010000
00100000
00010000
00000000
,
00100000
00001000
00010000
00000000
00001000
00010000
00001000
00000000
,
00010000
00000000
00000010
00000000
00000100
00000001
00001000
00000000
,
00000100
00010000
00001000
00000000
01000000
00010000
01000000
00000000
,
00100000
00000000
10000000
00000000
00010000
10000000
00010000
00000000
,
00100000
00001000
00100000
00000000
00001000
00010000
00001000
00000000
,
00011000
00000000
00001100
00000000
00001000
00000001
00000100
00000010
,
00001010
00001100
00010000
00001000
,
01001000
00000000
01100000
00000000
00100000
10000000
00010000
00100000
,
00101000
00011000
00000100
00000001
,
00001010
00000000
00010100
00000000
01000000
00001000
01000000
00100000
,
10100000
10010000
00100000
00001000
,
00011000
00000000
00001010
00000000
00000010
00001000
00000001
00001000
,
00001100
00011000
00001000
01000000
,
00100000
10000000
00010000
00000000
00100000
00010000
00100000
00001000
,
00010000
00001000
00010000
00000000
00000010
00000100
00000001
00001000
,
00000100
00010000
00001000
00000000
00010000
00001000
01000000
00100000
,
10000000
00010000
00100000
00000000
02020000
00000000
03030000
00000000
,
00100000
00001000
00010000
00000000
00001000
00010000
00000010
00000100
,
00000001
00001000
00000001
00000000
00000010
00000100
00001000
00000100
,
00010000
00001000
00010000
00000000
00001000
01000000
00100000
10000000
,
00010000
00100000
00010000
00000000
00202000
00000000
00303000
00000000
,
00010000
00001000
00010000
00000000
00001000
00000000
00000010
00000000
,
00000001
00000100
00001000
00000100
00000001
00000000
00001000
00000000
,
00000100
00010000
00001000
00000000
01000000
00000000
00100000
00000000
,
10000000
00100000
00010000
00100000
10000000
00000000
01000000
00000000
,
00100000
00010000
00001000
00000000
00010000
00000000
00000010
00000000
,
00000100
00000001
00001000
00000100
00000001
00000000
00000100
00000000
,
00001000
00000010
00000100
00000000
00000001
00000000
00001000
00000000
,
00000100
00010000
00001000
00010000
00001000
00000000
01000000
00000000
,
00100000
00000000
10000000
00000000
00010000
00100000
00001000
00000000
,
00010000
00000010
00010000
00000000
00000010
00000100
00000001
00000000
,
00001000
00000000
00000100
00000000
00010000
00001000
00010000
00000000
,
00001000
01000000
00100000
00000000
10000000
00010000
10000000
00000000
,
00110000
00000000
00101000
00000000
00001000
00010000
00001000
00000000
,
00010000
00000000
00000010
00000000
00000100
00000001
00001000
00000000
,
00001001
00000000
00001100
00000000
00000100
00010000
00001000
00000000
,
01000000
00000000
00100000
00000000
10000000
00010000
10000000
00000000
,
00110000
00000000
00101000
00000000
00010000
00000100
00010000
00000000
,
00000010
00000000
00000100
00000000
00000001
00001000
00000010
00000000
,
00000101
00000000
00001100
00000000
00000010
00001000
00000100
00000000
,
00010000
00000000
00001000
00000000
01000000
00100000
10000000
00000000
,
01100000
00000000
01010000
00000000
00100000
00001000
00100000
00000000
,
00001000
00000000
00010000
00000000
00000010
00000100
00000001
00000000
,
00001100
00000000
00011000
00000000
00001000
01000000
00100000
00000000
,
10000000
00000000
00010000
00000000
00100000
00001000
00010000
00000000
,
00011000
00000000
00010100
00000000
00001000
00000010
00001000
00000000
,
00000001
00000000
00000010
00000000
00000100
00001000
00000100
00000000
,
00011000
00000000
00001000
00000000
01000000
00100000
10000000
00000000
,
00010000
00010000
00100000
00100000
01000000
01000000
10000000
00100000
,
02200000
00000000
00000000
00000000
,
03300000
00000000
00000000
00000000
;

//---------------dance-double - Blank----------------
#NOTES:
     dance-double:
     Blank:
     Medium:
     6:
     0.381,0.356,0.062,0.046,0.190:
00000000
00000000
00000000
00000000
,
00000000
00000000
00000000
00000000
,
00000000
00000000
00000000
00000000
,
00100000
00000000
00000000
01000000
00000000
00000000
00010000
00000000
01000000
00000000
00010000
00000000
00100000
00000000
00001000
00000000
,
00010000
00000000
00000000
00010000
00000000
00000000
00000010
00000000
00000100
00000000
00000000
00000001
00000000
00000000
00001000
00000000
,
00000100
00000000
00000000
00010000
00000000
00000000
00001000
00000000
01000000
00000000
00100000
00000000
10000000
00000000
00010000
00000000
,
00100000
00000000
00000000
00010000
00000000
00000000
00100000
00000000
00001000
00000000
00000000
00010000
00000000
00000000
00000100
00000000
,
00001000
00000000
00000000
00000010
00000000
00000000
00000100
00000000
00000001
00000000
00001000
00000000
00000100
00000000
00010000
00000000
,
00001000
00000000
00000000
01000000
00000000
00000000
00100000
00000000
10000000
00000000
00000000
00010000
00000000
00000000
00100000
00000000
,
00001000
00000000
00000000
00010000
00000000
00000000
00000100
00000000
00001000
00000000
00000001
00000000
00001000
00000000
00000100
00000000
,
00010000
00000000
00000000
00001000
00000000
00000000
01000000
00000000
00100000
00000000
00000000
10000000
00000000
00000000
00010000
00000000
,
00100000
00000000
00000000
00001000
00000000
00000000
00010000
00000000
00000100
00000000
00001000
00000000
00000010
00000000
00000100
00000000
,
00000001
00000000
00000000
00001000
00000000
00000000
00000100
00000000
00010000
00000000
00000000
00001000
00000000
00000000
01000000
00000000
,
00100000
00000000
00000000
10000000
00000000
00000000
00010000
00000000
10000000
00000000
00010000
00000000
00100000
00000000
00001000
00000000
,
00010000
00000000
00000000
00000100
00000000
00000000
00001000
00000000
00000010
00000000
00000000
00000100
00000000
00000000
00000001
00000000
,
00001000
00000000
00000000
00000100
00000000
00000000
00010000
00000000
00001000
00000000
01000000
00000000
00001000
00000000
01000000
00000000
,
00100000
00000000
00000000
10000000
00000000
00000000
00010000
00000000
00100000
00000000
00000000
00001000
00000000
00000000
00100000
00000000
,
00010000
10000000
00010000
10000000
00010000
00000000
00000000
00000000
00000000
00000000
00001000
00000000
00100000
00000000
00001000
00000000
,
00010000
00001000
00010000
00001000
00010000
00000000
00000000
00000000
00000000
00000000
00000010
00000000
00000100
00000000
00000010
00000000
,
00001000
00000010
00001000
00000010
00001000
00000000
00000000
00000000
00000000
00000000
00000100
00000000
00010000
00000000
00000100
00000000
,
00010000
00001000
00010000
00001000
00010000
00000000
00000000
00000000
02002000
00000000
00000000
00000000
03003000
00000000
00000000
00000000
,
00100000
10000000
00100000
10000000
00100000
00000000
00000000
00000000
00000000
00000000
01000000
00000000
00001000
00000000
01000000
00000000
,
00001000
00010000
00001000
00010000
00001000
00000000
00000000
00000000
00000000
00000000
00000010
00000000
00000100
00000000
00000010
00000000
,
00001000
00000010
00001000
00000010
00001000
00000000
00000000
00000000
00000000
00000000
00000100
00000000
00010000
00000000
00000100
00000000
,
00010000
00001000
00010000
00001000
00010000
00000000
00000000
00000000
02002000
00000000
00000000
00000000
03003000
00000000
00000000
00000000
,
00100000
00000000
00000000
10000000
00000000
00000000
00010000
00000000
10000000
00000000
00010000
00000000
00100000
00000000
00001000
00000000
,
00010000
00000000
00000000
00000010
00000000
00000000
00000100
00000000
00000001
00000000
00000000
00001000
00000000
00000000
00000100
00000000
,
00010000
00000000
00000000
00001000
00000000
00000000
00010000
00000000
00001000
00000000
01000000
00000000
00100000
00000000
01000000
00000000
,
00010000
00000000
00000000
10000000
00000000
00000000
00010000
00000000
00100000
00000000
00000000
00001000
00000000
00000000
00010000
00000000
,
00001000
00000000
00000000
00010000
00000000
00000000
00000010
00000000
00000100
00000000
00000001
00000000
00001000
00000000
00000100
00000000
,
00000010
00000000
00000000
00000001
00000000
00000000
00001000
00000000
00000010
00000000
00000000
00000100
00000000
00000000
00000010
00000000
,
00010000
00000000
00000000
00001000
00000000
00000000
00010000
00000000
00001000
00000000
01000000
00000000
00100000
00000000
10000000
00000000
,
00010000
00000000
00000000
00100000
00000000
00000000
00010000
00000000
00100000
00000000
00000000
00001000
00000000
00000000
00010000
00000000
,
00000100
00000000
00001010
00000000
00000100
00010000
00001000
00010000
,
00001000
01010000
00100000
10010000
,
00100000
00000000
00001000
00000000
00010000
00000010
00000100
00000001
,
00001000
00000110
00001000
00010100
,
00001000
01000000
00100000
01000000
00010000
10000000
00010000
00000000
,
00100000
00001000
00010000
00000000
00000010
00000100
00000010
00000000
,
00001000
00000001
00001000
00000100
00010000
00001000
00010000
00000000
,
00001000
01000000
00100000
00000000
10000000
00010000
00100000
00000000
,
00001000
00010000
00000100
00010000
00000010
00000100
00000001
00000000
,
00001000
00000100
00000010
00000000
00000001
00010000
00001000
00000000
,
01000000
00100000
10000000
00010000
00100000
01000000
10000000
00000000
,
00100000
01000000
00010000
00000000
00100000
00001000
00100000
00000000
,
00001000
00010000
00000010
00000100
00000001
00001000
00000100
00000000
,
00010000
00001000
01000000
00000000
00100000
10000000
00010000
00000000
,
00100000
00001000
00010000
00001000
00010000
00000010
00000100
00000000
,
00000001
00001000
00000100
00000000
00010000
00001000
01000000
00000000
,
00100000
10000000
00010000
00100000
00001000
00100000
00001000
00000000
,
00010000
00000010
00000100
00000000
00000001
00001000
00000100
00000000
,
00010000
00001000
01000000
00001000
00100000
00010000
01000000
00000000
,
00010000
00100000
00001000
00010000
00000010
00010000
00001000
00010000
,
00022000
00000000
00000000
00000000
,
00033000
00000000
00000000
00000000
;

//---------------dance-double - Blank----------------
#NOTES:
     dance-double:
     Blank:
     Hard:
     8:
     0.559,0.481,0.093,0.077,0.620:
00000000
00000000
00000000
00000000
,
00000000
00000000
00000000
00000000
,
00000000
00000000
00000000
00000000
,
00100000
00000000
01000000
00010000
00000000
01000000
00010000
00000000
00100000
00000000
00001000
00000000
00010000
00000000
00000010
00000000
,
00000100
00000000
00000001
00000010
00000000
00000100
00001000
00000000
00000010
00000000
00010000
00000100
00000000
00010000
00001000
00000000
,
01000000
00000000
00100000
10000000
00000000
00010000
00100000
00000000
01000000
00000000
10000000
00000000
00100000
00000000
01000000
00000000
,
00001000
00000000
00010000
00000100
00000000
00010000
00000010
00000000
00000100
00000000
00000001
00000010
00000000
00000001
00001000
00000000
,
00000010
00000000
00000100
00000010
00000000
00001000
00000100
00000000
00010000
00000000
00001000
00000000
01000000
00000000
00010000
00000000
,
00100000
00000000
00001000
00100000
00000000
00010000
00100000
00000000
00010000
00000000
01000000
00100000
00000000
10000000
00100000
00000000
,
01100000
00000000
01000000
00001000
00000000
00010000
00001000
00000000
00010000
00000000
00000010
00000000
00000100
00000000
00000001
00000000
,
00001001
00000000
00000100
00000010
00000000
00001000
00000010
00000000
00001010
00000000
00001000
00000100
00000000
00010000
00001000
00000000
,
01001000
00000000
01000000
00100000
00000000
10000000
00010000
00000000
00100000
00000000
01000000
00000000
10000000
00000000
00100000
00000000
,
01100000
00000000
01000000
00010000
00000000
00100000
00001000
00000000
00011000
00000000
00010000
00000010
00000000
00000100
00000010
00000000
,
00001010
00000000
00001000
00000001
00000000
00000010
00000100
00000000
00000010
00000000
00000001
00000000
00001000
00000000
00000100
00000000
,
00010100
00000000
00010000
00001000
00000000
01000000
00100000
00000000
10010000
00000000
00010000
00100000
00000000
00010000
01000000
00000000
,
01100000
00000000
01000000
00001000
00000000
00010000
00001000
00000000
00010000
00000000
00000010
00000000
00000100
00000000
00000001
00000000
,
00001001
00000000
00001000
00000100
00000000
00010000
00001000
00000000
01001000
00000000
01000000
00010000
00000000
10000000
00010000
00000000
,
00100000
01000000
00010000
01000000
00100000
00000000
00000000
00000000
00000000
01000000
00001000
01000000
00001000
00000000
00010000
00000000
,
00000010
00000100
00001000
00000100
00000010
00000000
00000000
00000000
00000000
00000001
00001000
00000001
00001000
00000000
00000100
00000000
,
00010000
00000100
00010000
00001000
00010000
00000000
00000000
00000000
00000000
00001000
01000000
00100000
01000000
00000000
00100000
00000000
,
10000000
00010000
10000000
00010000
00100000
00000000
00000000
00000000
20000000
00000000
32000000
00000000
03200000
00000000
00320000
00000000
,
00031000
00000010
00000100
00000010
00001000
00000000
00000000
00000000
00000000
00000001
00001000
00000001
00000010
00000000
00000100
00000000
,
00001000
00100000
00001000
00100000
00001000
00000000
00000000
00000000
00000000
01000000
00100000
10000000
00100000
00000000
01000000
00000000
,
00010000
01000000
00001000
01000000
00001000
00000000
00000000
00000000
00000000
00010000
00000100
00010000
00000100
00000000
00001000
00000000
,
00000010
00000100
00000001
00001000
00000001
00000000
00000000
00000000
00000002
00000000
00000023
00000000
00000230
00000000
00002300
00000000
,
00013000
00000000
00001000
01000000
00010000
01000000
00010000
00000000
10000000
00000000
00010000
00000000
00100000
00000000
00001000
00000000
,
00010000
00000000
00000010
00010000
00000010
00010000
00000010
00000000
00000100
00000000
00000001
00001000
00000001
00001000
00000001
00000000
,
00000010
00000000
00000100
00001000
00000100
00001000
00000100
00000000
00010000
00000000
00001000
00000000
01000000
00000000
00100000
00000000
,
10000000
00000000
00010000
00100000
00010000
00100000
00010000
00000000
01000000
00000000
00100000
10000000
00100000
10000000
00100000
00000000
,
01000000
00000000
00001000
00010000
00001000
00010000
00001000
00000000
00010000
00000000
00000010
00000000
00000100
00000000
00000001
00000000
,
00000010
00000000
00000100
00010000
00000100
00010000
00000100
00000000
00010000
00000000
00001000
01000000
00001000
01000000
00001000
00000000
,
00100000
00000000
01000000
10000000
01000000
10000000
01000000
00000000
00100000
00000000
00010000
00000000
01000000
00000000
00001000
00000000
,
00010000
00000000
00000010
00001000
00000010
00001000
00000010
00000000
00000100
00000000
00000001
00001000
00000001
00001000
00000001
00000000
,
00000100
00000000
00000100
00000010
00000000
00000010
00010000
00000000
00001000
00000000
01000000
00000000
00100000
00000000
10000000
00000000
,
00010000
00000000
00100000
00001000
00000000
01000000
00010000
00000000
01000000
00000000
00100000
10000000
00000000
00010000
00100000
00000000
,
00001000
00000000
00010000
00000010
00000000
00000100
00000010
00000000
00001000
00000000
00000001
00000000
00000010
00000000
00000100
00000000
,
00010000
00000000
00001000
01000000
00000000
00001000
01000000
00000000
00100000
00000000
10000000
00010000
00000000
00100000
00010000
00000000
,
01000000
00001000
00010000
00001000
00010000
00000000
00001000
00000000
00010000
00000000
00000010
00000000
00000100
00000000
00000001
00000000
,
00001000
00000000
00000010
00000000
00000100
00000001
00000000
00001000
00000000
00000100
00000000
00010000
00000000
00001000
00000000
00000000
,
01000000
00000000
00100000
10000000
00000000
10000000
00010000
00000000
00100000
00000000
00001000
00000000
01000000
00000000
00001000
00000000
,
00010000
00000000
00000010
00000100
00000010
00001000
00000000
00000001
00000000
00001000
00000000
00000200
00000000
00000000
00000000
00000000
,
00010300
00000000
00001000
01000000
00000000
00100000
01000000
00000000
00010000
00000000
00100000
00000000
00001000
00000000
00100000
00000000
,
00000010
00000000
00001000
00000001
00000100
00000010
00000100
00000010
00000100
00000000
00000001
00000000
00001000
00000000
00000100
00000000
,
00010000
00000000
00001000
01000000
00000000
00010000
01000000
00000000
00100000
00000000
10000000
00000000
00010000
00000000
00100000
00000000
,
00001000
00000000
00010000
00001000
00000000
00010000
00000010
00000000
00000100
00000000
00000001
00000000
00001000
00000000
00000001
00000000
,
00000010
00000100
00000010
00000100
00001000
00000000
00000010
00000000
00000100
00000000
00010000
00000000
00000100
00000000
00000001
00000000
,
00001000
00000000
00000100
00000000
00000010
00000001
00000000
00001000
00000000
00000100
00000000
00010000
00000000
00001000
00000000
00100000
,
00000000
00010000
00000000
00000000
01000000
00000000
00010000
00000000
10000000
00000000
00010000
00000000
00100000
00000000
01000000
00000000
,
10000000
00000000
00100000
01000000
00010000
01000000
00000000
00010000
00000000
00100000
00000000
00001000
00000000
00000000
00010000
00000000
,
00000010
00000000
00000100
00000001
00000000
00001000
00000001
00000000
00001000
00000000
00000100
00000000
00010000
00000000
00001000
00000000
,
01000000
00000000
00100000
10000000
00010000
10000000
00000000
00010000
00000000
00000000
00100000
00000000
00000000
00001000
00000000
00000000
,
00010000
00000000
00000000
00010000
00001000
00000000
00000000
00010000
00000100
00000000
00000000
00010000
00000010
00000000
00000100
00000000
,
00000001
00001000
00000000
00000100
00000000
00010000
00000000
00001000
00000000
01000000
00001000
01000000
00001000
01000000
00100000
10000000
,
00020000
00000000
00000000
00000000
,
00030000
00000000
00000000
00000000
;

//---------------dance-double - Blank----------------
#NOTES:
     dance-double:
     Blank:
     Challenge:
     11:
     0.551,0.565,0.170,0.046,0.616:
00000000
00000000
00000000
00000000
,
00000000
00000000
00000000
00000000
,
00000000
00000000
00000000
00000000
,
00000000
00000000
10000000
00000000
00000000
00000000
00000000
00000000
00100000
00000000
00000000
00000000
01000000
00010000
01000000
00010000
01000000
00000000
00100000
00000000
00000000
00000000
00000000
00000000
00000000
00000000
00000000
00000000
00000000
00000000
00000000
00000000
,
00000000
00010000
00000000
00000000
00001000
00000000
00100000
00000000
00001000
00010000
00000000
00010000
00001000
00000000
01000000
00000000
,
00001000
00000000
00010000
00000010
00000000
00000010
00000100
00000000
00000001
00000000
00001000
00000000
00000100
00000000
00001000
00000000
,
00000100
00000000
00010000
00001000
00000000
00001000
01000000
00000000
00100000
00000000
10000000
00010000
00000000
00100000
00001000
00000000
,
00010000
00000000
00000100
00001000
00000000
00000010
00001000
00000000
00000010
00000000
00000100
00000000
00000001
00000000
00001000
00000000
,
00000100
00000000
00010000
00001000
00000000
00100000
00001000
00000000
00010000
00000000
00001000
00010000
00000000
00010000
00001000
00000000
,
10000000
00000000
00000001
00000000
00010000
00001000
00010000
00000000
,
00000001
10000000
00000001
10000000
,
00000001
00000000
10000000
00000000
00001000
00010000
00001000
00000000
,
10000000
00000001
10000000
00000001
,
10000000
00000000
00000001
00000000
00010000
00001000
00010000
00000000
,
00000001
10000000
00000001
10000000
,
00000001
00000000
10000000
00000000
00001000
00010000
00001000
00000000
,
01000000
00001000
00000000
01000000
00000000
00100000
00000000
10000000
00000000
00001000
00010000
00000010
00010000
00001000
00010000
00000100
,
00001000
00000010
00000001
00000010
00001000
00000000
00000000
00000000
00010000
00100000
10000000
00100000
00010000
00000000
00000000
00000000
,
00001000
00000100
00000001
00000100
00001000
00000000
00000000
00000000
00010000
01000000
10000000
01000000
00010000
00000000
00000000
00000000
,
00010000
00000100
00000001
00000100
00010000
00000000
00000000
00000000
00001000
01000000
10000000
01000000
00001000
00000000
00000000
00000000
,
00010000
00000000
00000000
00100000
00000000
00000000
01000000
00000000
00000000
10000000
00000000
00000000
00100000
00000000
00000000
00000000
00000000
00000000
00000000
00000000
00000000
00000000
00000000
00000000
00010000
00000000
00001000
00000000
00010000
00000000
00000010
00000000
00001000
00000000
00000010
00000000
00000100
00000000
00000001
00000000
00001000
00000000
00000100
00000000
00001000
00000000
00000100
00000000
,
00010000
00001000
00000100
00001000
00010000
00000000
00000000
00000000
00001000
00010000
01000000
00010000
00001000
00000000
00000000
00000000
,
00010000
00001000
00000010
00001000
00010000
00000000
00000000
00000000
00001000
00010000
00100000
00010000
00001000
00000000
00000000
00000000
,
00010000
00000010
00000001
00000010
00010000
00000000
00000000
00000000
00001000
01000000
10000000
01000000
00001000
00000000
00000000
00000000
,
00010000
00000000
00000000
00001000
00000000
00000000
01000000
00000000
00000000
00100000
00000000
00000000
10000000
00000000
00000000
00000000
00000000
00000000
00000000
00000000
00000000
00000000
00000000
00000000
00100000
00000000
01000000
00000000
00010000
00000000
00100000
00000000
00010000
00000000
01000000
00000000
00100000
00000000
01000000
00000000
00010000
00000000
00100000
00000000
00001000
00000000
00010000
00000000
,
00001000
00000000
00010000
00000010
00000100
00000001
00001000
00000000
00000001
00000000
00000010
00000000
00000100
00000000
00001000
00000000
,
00000010
00000000
00010000
00000000
00001000
00000000
01000000
00100000
00000000
00000000
10000000
00000000
00010000
00000000
00100000
00000000
,
00001000
00000000
00010000
00000010
00000100
00000010
00001000
00000000
00000001
00000000
00000010
00000000
00000100
00000000
00010000
00000000
,
00001000
00000000
01000000
00000000
00100000
00000000
10000000
00010000
00000000
00000000
00100000
00000000
00001000
00000000
00010000
00000000
,
00000010
00000000
00010000
00000100
00000001
00000100
00010000
00000000
00000010
00000000
00010000
00000000
00001000
00000000
01000000
00000000
,
00100000
00000000
10000000
00000000
00010000
00000000
00100000
00001000
00000000
00000000
00010000
00000000
00000010
00000000
00000100
00000000
,
00010000
00000000
00000100
00000001
00010000
00001000
01000000
00000000
00100000
00000000
10000000
00000000
00010000
00000000
00100000
00000000
,
00001000
00000000
00010000
00000000
00000010
00000000
00000100
00000001
00000000
00000000
00001000
00000000
00000100
00000000
00010000
00000000
,
00001000
00000000
01000000
00100000
00000000
10000000
00010000
00000000
00100000
00000000
00001000
00000000
00000100
00000000
00000001
00000000
,
00000010
00000000
00000100
00001000
00000000
00000001
00010000
00000000
00001000
00000000
01000000
00100000
00000000
10000000
00001000
00000000
,
01000000
00000000
00100000
10000000
00000000
00010000
00100000
00000000
00001000
00000000
00010000
00000000
00000010
00000000
00000100
00000000
,
00000001
00000000
00001000
00000100
00000000
00010000
00001000
00000000
01000000
00000000
00100000
10000000
00000000
00010000
01000000
00000000
,
00001000
00010000
00100000
00010000
00001000
00000000
00010000
00000000
00000010
00000000
00000100
00000000
00000001
00000000
00001000
00000000
,
00000010
00000000
00001000
00000100
00010000
00001000
00000000
00011000
00000000
01001000
00000000
01100000
00000000
20100000
00000000
00000000
,
30010000
00000000
00100000
00010000
00001000
00010000
00100000
00000000
00001000
00000000
00010000
00000000
00000010
00000000
00000100
00000000
,
00000001
00000000
00001000
00000100
00000001
00000100
00000000
00001100
00000000
00010100
00000000
00012000
00000000
00000000
00000000
00000000
,
01003000
00000000
00100000
10000000
00010000
00100000
00001000
00000000
00010000
00000000
00000010
00000000
00000100
00000000
00000001
00000000
,
00001000
00000000
00000010
00000001
00000010
00001000
00000010
00000001
00000010
00001000
00000001
00001000
00000100
00000000
00010000
00000000
,
00001000
00000000
01000000
10000000
01000000
00010000
01000000
00000000
00100000
00000000
10000000
00000000
00010000
00000000
00100000
00000000
,
00001000
00000000
00010000
00000010
00000001
00000010
00010000
00000000
00000001
00000000
00000010
00000100
00001000
00000001
00001000
00000000
,
00000100
00010000
00001000
01000000
00100000
00000000
10000000
00000000
00010000
00000000
00100000
00000000
00001000
00000000
00010000
00000000
,
00000010
00000000
00001000
00000100
00000010
00000001
00000000
00001001
00000000
00001100
00000000
00010100
00000000
01001000
00000000
01100000
,
00000000
20100000
00000000
00000000
30010000
00000000
00100000
00000000
00001000
00000000
00010000
00000000
00000010
00000000
00000100
00000000
,
00000001
00000000
00000010
00000100
00001000
00010000
00000000
00011000
00000000
01001000
00000000
00110000
00000000
00000000
00010000
00000000
,
00010010
00000000
00000100
00000001
00001000
00000000
00000100
00000000
00010000
00000000
00001000
00000000
01000000
00000000
00100000
00000000
,
10000000
00000000
00010000
00100000
00001000
00010000
00000000
00010010
00000000
00000000
00000011
00000000
00000000
00001001
00000000
00000000
,
00001100
00000000
00000100
00010000
00001000
01000000
00100000
10000000
00010000
10000000
01000000
00010000
01000000
00100000
00001000
00010000
,
10000000
00010000
00001000
01000000
00100000
10000000
00001000
00010000
00000010
00000100
00000001
00001000
00000100
00000010
00000001
00001000
,
00002002
00000000
00000000
00000000
00020000
00000000
00000000
00030000
00000000
00000000
00000000
00000000
00000000
00000000
00000000
00000000
,
00003003
00000000
00000000
00000000
;
