#TITLE:Somebody's Watching Me;
#SUBTITLE:Mastered;
#ARTIST:Mysto & Pizzi;
#TITLETRANSLIT:;
#SUBTITLETRANSLIT:;
#ARTISTTRANSLIT:;
#GENRE:;
#CREDIT:;
#BANNER:banner.png;
#BACKGROUND:bg.png;
#LYRICSPATH:;
#CDTITLE:;
#MUSIC:Somebody's Watching Me.mp3;
#OFFSET:0.000;
#SAMPLESTART:0.000;
#SAMPLELENGTH:12.000;
#SELECTABLE:YES;
#BPMS:0.000=125.000
;
#STOPS:
;
#BGCHANGES:;
#KEYSOUNDS:;
#ATTACKS:;

//---------------dance-single - ----------------
#NOTES:
     dance-single:
     :
     Beginner:
     1:
     0.099,0.102,0.009,0.073,0.000,67.000,1.000,8.000,0.000,0.000,0.000,0.099,0.102,0.009,0.073,0.000,67.000,1.000,8.000,0.000,0.000,0.000:
0000
0000
0000
0000
,
0000
0000
0000
0000
,
0100
0000
0000
0000
,
0010
0000
0001
0000
,
1000
0000
0000
0000
,
0100
0000
1000
0000
,
0002
0000
0003
0000
,
2000
0000
3000
0000
,
0010
0000
0000
0000
,
0100
0000
0000
0000
,
0001
0000
0000
0000
,
0010
0000
0000
0000
,
1000
0000
0000
0000
,
0001
0000
0000
0000
,
0100
0000
0000
0000
,
0010
0000
0000
0000
,
1000
0000
0000
0000
,
0100
0000
0000
0000
,
0010
0000
0010
0000
,
0010
0000
0000
0000
,
0001
0000
0000
0000
,
0100
0000
0000
0000
,
1000
0000
1000
0000
,
0001
0000
0001
0000
,
0100
0000
0000
0000
,
0010
0000
0000
0000
,
1000
0000
0000
0000
,
0100
0000
0000
0000
,
0001
0000
0000
0000
,
0100
0000
0000
0000
,
2000
0000
3000
0000
,
0002
0000
0003
0000
,
1000
0000
0000
0000
,
0100
0000
0000
0000
,
0001
0000
0000
0000
,
0010
0000
0000
0000
,
0100
0000
0000
0000
,
0001
0000
0000
0000
,
2000
0000
3000
0000
,
0002
0000
0003
0000
,
0100
0000
0000
0000
,
0010
0000
0000
0000
,
1000
0000
1000
0000
,
1000
0000
0000
0000
,
0001
0000
0000
0000
,
0010
0000
0000
0000
,
0100
0000
0100
0000
,
0010
0000
0010
0000
,
1000
0000
1000
0000
,
0010
0000
0000
0000
,
0001
0000
0001
0000
,
0100
0000
0000
0000
,
1000
0000
1000
0000
,
0001
0000
0001
0000
,
0020
0000
0030
0000
,
0200
0000
0300
0000
,
1001
0000
0000
0000
;

//---------------dance-single - ----------------
#NOTES:
     dance-single:
     :
     Easy:
     3:
     0.222,0.204,0.027,0.082,0.000,159.000,3.000,9.000,0.000,0.000,0.000,0.222,0.204,0.027,0.082,0.000,159.000,3.000,9.000,0.000,0.000,0.000:
0000
0000
0000
0000
,
0000
0000
0000
0000
,
0000
1000
0000
0001
,
0000
0100
0100
0100
,
0000
0010
0000
1000
,
0000
0001
0001
0000
,
0200
0010
0310
0000
,
0002
1000
1003
0000
,
0000
0100
0001
0100
,
0000
0010
1000
0001
,
0000
0100
0010
1000
,
0000
0100
0010
0001
,
0000
1000
0001
0100
,
0010
0010
1000
0100
,
0000
0010
1000
0001
,
0000
0100
0010
0001
,
0000
0100
1000
0100
,
0000
0010
0001
1000
,
0100
0010
0000
0010
,
1000
0001
0000
0100
,
0000
0010
1000
0100
,
0000
0001
1000
0010
,
0100
0100
0000
0001
,
0000
1000
0000
0010
,
0000
0100
0001
1000
,
0000
0001
0010
0100
,
0000
0001
1000
0010
,
0000
0100
0010
0200
,
0300
0001
1000
0010
,
0100
0100
0001
0001
,
1000
1000
0001
0000
,
0100
0010
1000
0001
,
0000
0100
1000
0100
,
0001
0100
0010
1000
,
0000
0001
0010
1000
,
0010
0001
0100
0010
,
0000
1000
0001
0100
,
0100
0010
1000
0100
,
0000
0010
0001
1000
,
0010
0100
0001
0010
,
0000
1000
0001
0010
,
0000
0100
1000
0100
,
0010
0001
0000
0001
,
1000
0010
0000
0100
,
0000
1000
0001
0010
,
0000
0100
1000
0010
,
0200
0001
0301
0000
,
2000
0010
3010
0000
,
0100
0100
0000
0001
,
0000
1000
0010
0010
,
0000
0100
0000
0001
,
0000
1000
1000
0010
,
0000
0100
0000
0001
,
0000
1000
1000
0000
,
0220
0000
0000
0330
,
2002
0000
0000
3003
,
0110
0000
0000
0000
;

//---------------dance-single - ----------------
#NOTES:
     dance-single:
     :
     Medium:
     5:
     0.331,0.305,0.182,0.036,0.000,231.000,20.000,4.000,4.000,0.000,0.000,0.331,0.305,0.182,0.036,0.000,231.000,20.000,4.000,4.000,0.000,0.000:
0000
0000
0000
0000
,
0000
0000
0000
0000
,
0000
0001
0000
1000
0001
0000
0100
0000
,
0000
0000
0010
0010
0010
0000
0001
0000
,
0000
0100
0000
0010
0100
0000
1000
0000
,
0000
0001
0100
0010
1000
0000
0100
0000
,
0001
0001
0001
0001
,
1000
1000
1000
1000
,
0100
0001
0100
1000
,
0010
0000
0100
1000
0001
1000
0010
0000
,
0100
0001
1000
0010
,
0100
0000
0001
0000
0010
0100
1000
0000
,
0000
0100
0010
1000
,
0100
0000
0010
0000
0001
1000
0010
0000
,
0000
0100
0010
1000
,
0000
0010
0100
0001
,
0000
0010
0100
0010
0100
0000
1000
0000
,
0000
0100
0010
0100
0010
0000
0000
1001
,
0000
0100
0010
1001
,
0110
0000
1001
0000
0000
0001
0001
0001
,
0000
0100
0010
0100
0010
0000
1000
0000
,
0000
0010
0100
0010
0100
0000
0000
1001
,
0001
0001
0001
0001
,
1000
1000
1000
1000
,
0000
0100
0010
0000
1000
0000
0001
0000
,
0000
0100
1000
0000
0001
0000
1000
0000
,
0000
0100
0010
0100
0010
0000
1000
0000
,
0000
0001
0100
0000
0010
0000
0100
M0MM
,
0M00
0100
0010
1000
,
0011
0011
1100
1100
,
0001
0000
1000
0000
0001
0000
0100
0010
,
0000
0100
0000
0010
0100
0000
0001
0000
,
2020
3030
0100
0000
0010
0000
1000
0000
,
0100
0000
0010
0000
0001
1000
0010
0000
,
0000
0100
0010
0000
1000
0000
0001
0000
,
0010
0000
0100
0000
0010
0000
0010
0100
,
0000
0010
1000
0101
,
0101
0000
0010
0000
1000
0001
0100
0000
,
0000
0010
1000
0000
0010
0000
1000
0010
,
0000
0010
0100
0000
0001
0000
0010
0000
,
0000
0100
0010
0100
0010
0000
0001
0000
,
0000
0010
0100
0010
0100
0000
0000
1001
,
0000
0000
0010
1001
,
0110
0000
1001
0000
0000
0010
0010
0010
,
0000
1000
0001
1000
0001
0000
0100
0000
,
0000
0001
1000
0001
1000
0000
0000
0110
,
0100
0100
0100
0100
,
0010
0010
0010
0010
,
0100
0000
0100
0000
0000
0100
0000
0100
,
0000
0100
0010
0010
,
0010
0000
0010
0000
0000
0010
0000
0010
,
0000
0010
1000
0001
1000
0000
0100
0000
,
0001
0000
0001
0000
0000
0001
0000
0001
,
0000
0001
1000
0010
0100
0000
0010
0000
,
2001
0001
0000
3001
,
0120
0000
0100
0000
0000
1000
1030
0001
,
1001
0000
0000
0000
;

//---------------dance-single - ----------------
#NOTES:
     dance-single:
     :
     Hard:
     8:
     0.519,0.513,0.109,0.064,0.236,381.000,12.000,7.000,0.000,5.000,0.000,0.519,0.513,0.109,0.064,0.236,381.000,12.000,7.000,0.000,5.000,0.000:
0000
0000
0000
0000
,
0000
0000
0000
0000
,
0010
1000
0000
1000
0001
0000
0010
0100
,
0000
0000
1000
0001
0100
0000
0001
0000
1000
0000
1000
0000
0100
0000
0100
0000
,
0010
1000
0000
1000
0001
0000
0010
0100
,
0000
0001
0010
0100
1000
1000
0001
0001
,
0100
0010
0100
0010
0100
0010
0100
0010
0100
0000
0000
0000
0001
0000
0000
0000
,
1000
0001
1000
0001
1000
0001
1000
0001
1000
0000
0000
0000
0100
0000
0000
0000
,
0001
0010
1000
0010
0100
0001
0010
0000
,
0100
0000
0100
0010
1000
0001
0001
0000
,
0100
1000
0010
0010
0100
0001
1000
0000
,
0010
0100
0001
0001
1000
0010
0100
0000
,
1000
0100
0001
0100
1000
0010
0100
0010
,
1000
0000
0010
0001
1000
0010
0100
0000
,
1000
0001
1000
0001
1000
0001
1000
0001
1000
0000
0000
0000
0010
0000
0000
0000
,
0100
0010
0100
0010
0100
0010
0100
0010
0100
0000
0000
0000
0001
0000
0000
0000
,
0100
0010
0000
0010
1000
0000
1000
0001
,
0000
0100
0000
0100
0010
0010
0001
0001
,
0000
0100
0000
1000
0010
0000
0100
0001
,
0000
0000
0010
1000
0001
0000
0100
0000
0010
0000
1000
0000
0100
0000
0010
0000
,
0000
0001
0000
0100
0010
0000
1000
0100
,
0000
0010
0000
0001
1000
1000
0010
0100
,
0001
1000
0001
1000
0001
1000
0001
1000
0001
0000
0000
0000
0100
0000
0000
0000
,
0010
1000
0010
1000
0010
1000
0010
1000
0010
0000
0000
0000
0000
0000
0000
0000
,
0000
0010
1000
0001
0010
0100
0010
0000
,
0000
0001
1000
0010
0100
1000
0100
0000
,
0000
0000
1000
0001
1000
0000
0001
0000
0100
0000
0010
0000
0100
0000
1000
0000
,
0000
0100
0001
0010
0001
0100
0010
0200
,
0300
0001
1000
0010
0100
0001
0010
0000
,
0011
0011
1100
1100
,
0001
0010
0001
0010
0001
0010
0001
0010
0001
0000
0000
0000
0100
0000
0000
0000
,
0010
1000
0010
1000
0010
1000
0010
1000
0010
0000
0000
0000
0100
0000
0000
0000
,
2002
0003
3010
0100
1000
0100
0001
0100
,
0001
0010
0100
1000
0010
0100
0001
0000
,
0000
1000
0001
0100
0010
1000
0100
0010
,
0001
0100
0010
1000
0001
0000
0001
0010
,
0000
0000
0100
0010
1000
0100
0011
0001
,
1001
1000
0010
0100
0001
0010
0100
0000
,
1000
0001
1000
0001
1000
0001
1000
0001
1000
0000
0000
0000
0010
0000
0000
0000
,
0100
0010
0100
0010
0100
0010
0100
0010
0100
0000
0000
0000
0001
0000
0000
0000
,
0010
0001
0000
0001
0100
0000
0100
0010
,
0000
1000
0000
0100
0001
0001
0100
1000
,
0000
0010
0000
0100
0010
0000
1000
0100
,
0000
0000
1000
0001
0100
0000
0010
0000
1000
0000
0001
0000
0010
0000
0100
0000
,
0000
0001
0000
0001
1000
0000
1000
0010
,
0000
0100
0000
0001
1000
1000
0010
0100
,
0001
1000
0001
1000
0001
1000
0001
1000
0001
0000
0000
0000
0010
0000
0000
0000
,
0100
0010
0100
0010
0100
0010
0100
0010
0100
0000
0000
0000
0001
0000
0000
0000
,
1100
0000
1100
0000
0001
0100
0010
1000
,
0000
1000
0001
0100
0001
0000
0010
0001
,
0100
0000
0010
0000
0100
1000
0010
0100
,
0010
0100
1000
0001
1000
0000
0010
0100
,
0001
0000
0001
0000
0100
0010
0000
1100
,
0000
0010
0100
0001
1000
0001
0010
0100
,
2200
0001
0000
3301
,
0202
0010
0000
0010
,
1000
0000
0303
0000
;

//---------------dance-single - ----------------
#NOTES:
     dance-single:
     :
     Challenge:
     9:
     0.645,0.796,0.591,0.091,0.191,422.000,65.000,10.000,38.000,0.000,0.000,0.645,0.796,0.591,0.091,0.191,422.000,65.000,10.000,38.000,0.000,0.000:
0000
0000
0000
0000
,
0000
0000
0000
0000
,
0010
1000
110M
0100
0010
0000
0011
0001
,
0100
0010
101M
0010
0100
0001
0011
0100
,
1000
0010
011M
0100
0001
0000
0011
0010
,
0100
1000
101M
0010
0100
0001
0010
0100
,
1000
0000
0100
0010
0001
0000
1000
0100
0010
0000
0001
0000
0010
0000
1000
0000
,
0001
0000
0100
0010
1000
0000
0001
0100
0010
0000
1000
0000
0100
0000
0001
0000
,
1000
0010
011M
0100
0001
0010
0011
0000
,
0100
0000
110M
1000
0010
0100
0101
0000
,
0010
0100
M101
0001
1000
0010
0110
0000
,
0001
0010
M110
0100
1000
0001
0101
0000
,
0010
1000
1M01
0001
0010
0100
1100
1000
,
0010
0000
011M
0010
1000
0001
0011
0000
,
0100
0000
0001
1000
0010
0000
1000
0001
0010
0000
0001
0000
0100
0000
1000
0000
,
0001
0000
1000
0010
0100
0000
0001
0100
0010
0000
1000
0000
0010
0000
0100
0000
,
1000
0100
0001
0100
1000
0000
0010
0000
,
0100
0001
0010
0100
1000
0000
0010
0110
,
0000
0000
0001
0000
0000
0000
1000
0000
0001
0000
0100
0010
1000
0000
0001
0000
,
0010
0100
0010
0000
0000
1001
1010
1001
,
0100
0010
1000
0001
0010
0000
0110
0000
,
1000
0100
0001
0010
1000
0000
0001
0100
,
1000
0000
0100
0001
1000
0000
0001
1000
0010
0000
1000
0000
0010
0000
0001
0000
,
0010
0000
0100
1000
0001
0000
0010
0001
0100
0000
0010
0000
1000
0000
0000
0000
,
0010
0100
M101
0001
0010
1000
1010
0000
,
0010
0100
110M
0100
0001
0010
1010
0000
,
0100
0000
0001
1000
10M1
0000
0010
0000
1000
0000
0100
0000
0110
0000
0010
0000
,
0000
0001
1M01
1000
0010
0100
0210
0002
,
0303
0M0M
0000
0000
1000
0000
0000
0000
1010
0000
0000
0000
0010
0000
0000
0000
0100
0000
0000
0000
0001
0000
0000
0000
0011
0000
0000
0000
0000
0000
0000
0000
,
M1MM
1M1M
M1MM
1MM1
,
0100
0000
1000
0100
0010
0000
0100
0010
0001
0000
0010
0000
1000
0000
0001
0000
,
0100
0000
0001
1000
0010
0000
0100
0001
0010
0000
0100
0000
0010
0000
0001
0000
,
0202
0303
1M10
0010
0100
0001
0011
0010
,
0100
1000
101M
0010
0001
0100
0101
0020
,
2030
3100
01M1
0100
1000
0001
0101
0100
,
0010
1000
1M01
0010
0100
0000
0200
0002
,
0303
0000
101M
0010
0100
0001
0011
0010
,
0001
0100
M110
0100
0001
1000
1100
0000
,
0100
0000
1000
0100
0001
0000
1000
0010
0001
0000
1000
0000
0100
0000
0001
0000
,
0010
0000
0001
0100
1000
0000
0001
0010
1000
0000
0001
0000
0010
0000
1000
0000
,
0100
0001
0100
1000
0001
0000
0100
0000
,
0010
1000
0001
0010
0100
0000
0010
0110
,
0000
0000
0001
0000
0000
0000
1000
0000
0100
0000
0010
0001
1000
0000
0001
0000
,
0010
0100
1000
0000
0000
0011
1001
0011
,
1000
0100
0001
0010
1000
0000
0001
0000
,
0010
1000
0100
0001
0010
0000
0100
1000
,
0001
0000
0010
0100
1000
0000
0001
0010
0100
0000
0001
0000
0010
0000
0100
0000
,
0001
0000
1000
0010
0100
0000
0001
0010
0100
0000
0010
0000
1000
0000
0010
0000
,
0110
0000
M101
0000
0010
0100
1100
0010
,
1000
0001
10M1
0001
0010
0000
0110
0100
,
1000
0000
1M01
0000
0001
0100
0110
0010
,
1000
0100
11M0
0001
0100
0000
0110
0001
,
1000
0000
0M11
0000
0010
0100
1100
0100
,
0010
0001
10M1
0001
0010
1000
1100
0100
,
0001
0010
0100
0010
0001
0010
0100
1000
0100
0000
0001
1000
0010
1000
0001
0010
,
0100
0010
0001
0010
0100
1000
0010
0100
0001
0000
1000
0100
0010
0001
0100
0020
,
2000
0000
3030
0000
;

//---------------dance-double - ----------------
#NOTES:
     dance-double:
     :
     Easy:
     4:
     0.243,0.231,0.064,0.173,0.000,161.000,7.000,19.000,0.000,0.000,0.000,0.243,0.231,0.064,0.173,0.000,161.000,7.000,19.000,0.000,0.000,0.000:
00000000
00000000
00000000
00000000
,
00000000
00000000
00000000
00000000
,
00000000
01000000
00000000
00000000
01000000
00000000
01000000
00000000
,
00000000
00010000
00001000
00000100
,
00000000
00000010
00000000
00000000
00000010
00000000
00000010
00000000
,
00000000
00001000
00011000
00100000
,
02000000
00010000
00000000
03010000
,
00001000
00000200
00000000
00010000
,
00000300
00100000
00010000
00001000
,
00000000
00000010
00010000
00001000
,
00000000
01000000
00100000
10000000
,
00000000
00100000
00001000
00000010
,
00000000
00010000
00001000
00010000
,
00000100
00001000
00000010
00000100
,
00002000
00010000
00000000
00013000
,
00100000
00000020
00000000
00000130
,
00000000
00010000
00010000
00010000
,
00000000
00000100
00000000
00000000
00000100
00000000
00000000
00000200
,
00000000
00000000
00000300
00010000
,
00001000
00000000
00010000
00000000
00000000
01000000
01000000
00000000
,
00000000
00000100
00001000
00000010
,
00000000
00010000
00000000
00000000
00010000
00000000
00000000
00020000
,
00000000
00001000
00000000
00031000
,
00100000
00000000
02000000
00000000
00000000
00100000
03100000
00000000
,
00000000
00010000
00000100
00000010
,
00000000
00001000
01000000
10000000
,
00000000
00100000
00001000
00000010
,
00000000
00010000
00001000
00100000
,
00000020
00000130
00001000
00010000
,
00001000
00001000
00010000
00010000
,
00000100
00000100
00100000
00100000
,
01000000
10000000
00010000
00100000
,
00101000
00001000
00000100
00000100
,
00000010
00000001
00001000
00000010
,
00000000
00000100
00001000
00010000
,
00001000
00000000
00010000
00000000
01000000
00000000
00000000
01000000
,
00000000
00100000
10000000
00110000
,
00110000
00001000
00010000
00000010
,
00000200
00001000
00000000
00001300
,
00010000
02000000
00000000
03010000
,
00000000
00100000
00100000
00100000
,
00000000
00000010
00000000
00000000
00000010
00000000
00000000
00000020
,
00000000
00000000
00000030
00001000
,
00001000
00000000
00010000
00000000
00000000
00100000
00100000
00000000
,
00000000
10000000
00100000
00001000
,
00000000
00000001
00000000
00000000
00000001
00000000
00000000
00000002
,
00000000
00000100
00000000
00000103
,
00001000
00000000
00020000
00000000
00000000
00001000
00031000
00000000
,
00000000
00100000
00000000
00001000
,
00000000
00010000
00000000
00000100
,
00000000
00000001
00000000
00001000
,
00000000
00100000
00000000
10000000
,
00000000
01000000
00000000
00001000
,
00000000
00000010
00000001
00000100
,
00020200
00000000
00000000
00030300
,
00202000
00000000
00000000
00303000
,
00022000
00000000
00033000
00000000
;

//---------------dance-double - ----------------
#NOTES:
     dance-double:
     :
     Medium:
     6:
     0.397,0.411,0.100,0.373,0.000,254.000,11.000,41.000,0.000,0.000,0.000,0.397,0.411,0.100,0.373,0.000,254.000,11.000,41.000,0.000,0.000,0.000:
00000000
00000000
00000000
00000000
,
00000000
00000000
00000000
00000000
,
01000000
00010000
00000000
10000000
00010000
00000000
01000000
00010000
,
00000000
00100000
00100000
00000000
00001000
00000000
00010000
00000000
,
00000010
00001000
00000000
00000001
00001000
00000000
00000010
00001000
,
00000000
00000010
00000010
00000000
00000100
00000000
00000001
00000000
,
00001000
00000200
00020300
00032000
,
02003000
03200000
20300000
30020000
,
00230000
00000000
00310000
00000000
00000100
00010000
00000100
00000000
,
00001000
00000000
00000010
00000000
00000100
00000001
00000100
00000000
,
00000010
00001000
00000001
00001000
,
00000100
00000000
00010000
00001000
00010000
00001000
00010000
00000000
,
00001000
01000000
00100000
10000000
,
00010000
00100000
00010000
00100000
,
00002000
00023000
00030020
00000230
,
00000302
00002003
00003200
00002300
,
00003100
00010000
00000000
00000100
00010000
00000000
00001000
00010000
,
00000000
00001000
00001000
00000000
01000000
00000000
00100000
00000000
,
10000000
00010000
00000000
01000000
00010000
00000000
10000000
00010000
,
00000000
00100000
00100000
00000000
00001000
00000000
00010000
00000000
,
00000010
00000100
00000000
00000001
00000100
00000000
00000010
00000100
,
00000000
00000010
00000010
00000000
00001000
00000000
00000001
00000000
,
00020000
00032000
02003000
03200000
,
20300000
30020000
00230000
00000000
,
00301000
00000000
00010000
00000000
00000100
00010000
00000100
00000000
,
00001000
00000000
00000001
00000000
00000100
00000010
00000100
00000000
,
00000001
00001000
00000100
00010000
,
00001000
00000000
01000000
00001000
01000000
00001000
01000000
00000000
,
00100000
10000000
00010000
00100000
,
00001000
00101000
00010000
00011000
,
00000010
00010010
00001000
00011000
,
00100000
00010000
10000000
00100000
,
01010000
00000000
00100000
00000000
01000000
00010000
01000000
00000000
,
00010000
00000000
00100000
00000000
00001000
00100000
00001000
00000000
,
00010000
00000010
00000100
00000001
,
00000010
00000000
00000100
00001000
00000100
00001000
00000100
00000000
,
00010000
00001000
01000000
01001000
,
01100000
00000000
10000000
00100000
01000000
00100000
01000000
00000000
,
00020000
00230000
00302000
00023000
,
00030020
00000230
00000302
00002003
,
00003100
00001000
00000000
00000001
00001000
00000000
00000100
00001000
,
00000000
00000010
00000010
00000000
00000100
00000000
00000001
00000000
,
00001000
00000100
00000000
00010000
00000100
00000000
00001000
00000100
,
00000000
00010000
00010000
00000000
00001000
00000000
01000000
00000000
,
00100000
10000000
00000000
00010000
10000000
00000000
00100000
10000000
,
00000000
00100000
00100000
00000000
01000000
00000000
00010000
00000000
,
00200000
00302000
00023000
00030020
,
00020030
00032000
02003000
03200000
,
10300000
00000000
10010000
00000000
00000000
00100000
00000000
00010000
,
00000000
00010000
00000000
00001000
00010000
00000000
00000010
00000000
,
00000100
00000000
00001001
00000000
00000000
00000100
00000000
00001000
,
00000000
00000100
00000000
00010000
00001000
00000000
01000000
00000000
,
00100000
00000000
10010000
00000000
00000000
00100000
00000000
00001000
,
00000000
00010000
00000000
00001000
00010000
00000000
00000010
00000000
,
00000100
00000001
00001000
00000001
00000100
00000010
00001000
00000010
,
00000100
00000001
00001000
00000010
00000100
00000010
00010000
00001000
,
00022000
00000000
00033000
00000000
;

//---------------dance-double - ----------------
#NOTES:
     dance-double:
     :
     Hard:
     8:
     0.626,0.821,0.136,0.890,0.027,369.000,15.000,98.000,0.000,0.000,0.000,0.626,0.821,0.136,0.890,0.027,369.000,15.000,98.000,0.000,0.000,0.000:
00000000
00000000
00000000
00000000
,
00000000
00000000
00000000
00000000
,
00010000
00001000
00000000
00010000
00000100
00000000
00010000
00001000
,
00000000
00000000
00010000
00000100
00010000
00000000
00000100
00000000
00001000
00000000
00001000
00000000
00000010
00000000
00000100
00000000
,
00000001
00001000
00000000
00000010
00001000
00000000
00000010
00000100
,
00000000
00000001
00001000
00000100
00000010
00000001
00001000
00000010
,
00000200
00000302
00002003
00003020
00000230
00000302
00002003
00003020
,
00020030
00030200
00002300
00003020
00020030
00030200
00002300
00003020
,
00001030
00000010
00000000
00010000
00000010
00000000
00000010
00001000
,
00000000
00000100
00000000
00000100
00010000
00001000
01000000
00100000
,
10000000
00010000
00000000
10000000
01000000
00000000
10000000
00010000
,
00000000
00000000
01000000
00010000
01000000
00000000
00010000
00000000
00100000
00000000
00010000
00000000
00100000
00000000
00001000
00000000
,
00010000
00000010
00000000
00001000
00000010
00000000
00010000
00000010
,
00000000
00000100
00000001
00001000
00000001
00000010
00000100
00001000
,
00000200
00020300
00032000
02003000
03000200
00020300
00032000
02003000
,
03000200
00020300
00032000
00203000
00300200
00020300
00032000
00203000
,
00310000
10000000
00000000
00100000
01000000
00000000
00010000
10000000
,
00000000
00010000
00000000
00100000
00001000
00010000
00000100
00001000
,
00000010
00000100
00000000
00000100
00000001
00000000
00000001
00001000
,
00000000
00000000
00000100
00001000
00000100
00000000
00010000
00000000
00001000
00000000
01000000
00000000
00001000
00000000
01000000
00000000
,
00100000
10000000
00000000
00010000
10000000
00000000
00010000
00100000
,
00000000
00100000
00001000
00010000
00001000
01000000
00100000
10000000
,
00020000
02030000
03200000
20300000
30020000
02030000
03200000
20300000
,
30020000
02030000
03002000
00203000
00320000
02030000
03002000
00203000
,
00301000
00010000
00000000
00000010
00010000
00000000
00000010
00000100
,
00000000
00000001
00001000
00000100
00000010
00000001
00000010
00000100
,
00001000
00000010
00000000
00000010
00000100
00000000
00000100
00000001
,
00000000
00000000
00001000
00000100
00001000
00000000
00000100
00000000
00010000
00000000
00001000
00000000
01000000
00000000
00100000
00000000
,
10000000
00010000
00000000
00010000
00100000
00000000
00100000
00001000
,
00000000
00001000
00010000
00000010
00000100
00000001
00001000
00000010
,
00000100
00001001
00000010
00001001
,
00001000
00000100
00010000
00001000
01000000
00100000
10000000
00000000
,
00110000
00000000
01000000
00010000
10000000
00010000
00100000
00001000
,
00010000
00000010
00000100
00000001
00001000
00000001
00000010
00000200
,
00002300
00003010
00000100
00000001
00000100
00000010
00001000
00000010
,
00001000
00000100
00010000
00001000
00010000
00000000
00001000
01000000
,
00100000
00000000
10000000
00100000
01000000
00010000
00100000
00001000
,
00100000
00001000
00010000
00000010
00000100
00000001
00001000
00000000
,
00002000
00003200
00000320
00000032
00002003
00003200
00000320
00000032
,
00002003
00003020
00000230
00000302
00002003
00003020
00000230
00000302
,
00001003
00000100
00000000
00000100
00010000
00000000
00010000
00001000
,
00000000
01000000
00100000
10000000
00010000
00100000
01000000
10000000
,
00010000
00100000
00000000
00100000
00001000
00000000
00001000
00010000
,
00000000
00000000
00001000
00010000
00001000
00000000
00100000
00000000
00001000
00000000
00010000
00000000
00000010
00000000
00000100
00000000
,
00000001
00001000
00000000
00001000
00000100
00000000
00000010
00000001
,
00000000
00000001
00001000
00000010
00000100
00000001
00001000
00000100
,
00020000
00032000
02003000
03200000
00320000
00032000
02003000
03200000
,
00302000
20003000
30200000
02300000
03002000
20003000
30200000
02300000
,
03001000
00000000
00001000
00000000
00000000
00101000
00000000
00110000
,
00000000
01010000
00000000
10000000
00010000
00000000
01000000
00100000
,
10100000
00000000
10010000
00000000
00000000
00110000
00000000
00101000
,
00000000
00000000
00010000
00001000
00010000
00000000
00000010
00000000
00000100
00000000
00000001
00000000
00001000
00000000
00000001
00000000
,
00000011
00000000
00001001
00000000
00000000
00001100
00000000
00010100
,
00000000
00010000
00001000
01000000
00100000
10000000
00010000
00100000
,
02000000
03200000
00320000
20030000
32000000
03200000
00320000
20030000
,
30200000
02300000
03002000
00023000
00230000
02300000
03001000
00010000
,
00022000
00000000
00033000
00000000
;

//---------------dance-double - ----------------
#NOTES:
     dance-double:
     :
     Challenge:
     11:
     0.775,0.821,0.645,0.109,0.541,514.000,71.000,12.000,0.000,0.000,0.000,0.775,0.821,0.645,0.109,0.541,514.000,71.000,12.000,0.000,0.000,0.000: // measure 0
00000000
00000000
00000000
00000000
,  // measure 1
00000000
00000000
00000000
00000000
,  // measure 2
00010000
00001000
00011000
00010000
00000100
00000000
00001010
00000010
,  // measure 3
00000001
00000000
00000001
00001000
00001100
00000000
00001000
00000000
00000010
00000000
00000001
00000000
00001001
00000000
00001000
00000000
,  // measure 4
00000100
00010000
00010100
00000100
00001000
00000000
01100000
01000000
,  // measure 5
00010000
10000000
10100000
00100000
01000000
00010000
00100000
00001000
,  // measure 6
00100000
00010000
01000000
00100000
00010000
00100000
01000000
00010000
10000000
00010000
00100000
01000000
10000000
01000000
00010000
01000000
,  // measure 7
10000000
01000000
00100000
00010000
01000000
00100000
00010000
00100000
10000000
00100000
00010000
00100000
01000000
00010000
00100000
00001000
,  // measure 8
00010000
00000010
00010010
00010000
00001000
01000000
01100000
00000000
,  // measure 9
00100000
00000000
10010000
10000000
00100000
01000000
01010000
00000000
,  // measure 10
00010000
00100000
00101000
00100000
00001000
00010000
00010010
00000000
,  // measure 11
00000010
00000000
00001000
00000001
00001001
00000000
00001000
00000000
00000100
00000000
00001000
00000000
00001100
00000000
00000100
00000000
,  // measure 12
01000000
00100000
10100000
10000000
00010000
00100000
00110000
00100000
,  // measure 13
00001000
00000000
00010100
00000100
00001000
00000001
00001001
00001000
,  // measure 14
00000010
00001000
00000100
00000001
00000100
00001000
00000100
00000010
00000100
00001000
00000001
00000100
00000010
00001000
00000010
00000001
,  // measure 15
00000010
00001000
00000001
00000010
00001000
00000010
00000001
00000100
00000010
00001000
00000100
00000010
00000100
00001000
00000100
00010000
,  // measure 16
00001000
01000000
10010000
01000000
00100000
00000000
10010000
00100000
,  // measure 17
00000000
01000000
10010000
00100000
01000000
01000000
00010000
00100000
,  // measure 18
00000010
00000100
00001001
00000100
00000010
00000000
00001001
00000100
,  // measure 19
00000000
00000000
00000010
00000001
00001001
00000000
00000100
00000000
00000010
00000000
00000100
00000000
00001001
00000000
00000100
00000000
,  // measure 20
01000000
00010000
10010000
00100000
01000000
00000000
10010000
01000000
,  // measure 21
00000000
00100000
10010000
01000000
00010000
00010000
00100000
00001000
,  // measure 22
00010000
00001000
10000000
00100000
00010000
00100000
10000000
00001000
00010000
00001000
00010000
00000010
00000100
00000001
00000100
00001000
,  // measure 23
00000100
00000001
00000100
00000010
00001000
00000001
00000010
00001000
00000010
00000001
00000100
00000010
00001000
00000100
00010000
00001000
,  // measure 24
01000000
00100000
10100000
10000000
00010000
00100000
00101000
00000000
,  // measure 25
00001000
00010000
00010010
00000010
00000100
00000001
00001001
00001000
,  // measure 26
00000100
00000000
00000010
00000001
00000011
00000000
00000001
00000000
00001000
00000000
00000100
00000000
00010100
00000000
00010000
00000000
,  // measure 27
00000000
00000000
00001000
01000000
01001000
00000000
01000000
00000000
00100000
00000000
10000000
00000000
00020000
00000000
00200000
00000000
,  // measure 28
00330000
10000000
01100000
10000000
00010000
00100000
00101000
00000000
,  // measure 29
00010010
00101000
00010100
01001000
,  // measure 30
00100000
00010000
01000000
00100000
10000000
00100000
00010000
00100000
10000000
00100000
01000000
00010000
00100000
00001000
00010000
00000010
,  // measure 31
00000100
00000001
00000100
00001000
00000100
00000001
00000100
00000010
00001000
00000100
00000001
00000100
00001000
00000010
00000100
00000010
,  // measure 32
00000200
00000300
00001001
00001000
00000100
00010000
00011000
00001000
,  // measure 33
01000000
00100000
10100000
10000000
00010000
00100000
01100000
02000000
,  // measure 34
23000000
30100000
01100000
01000000
00010000
00100000
00101000
00001000
,  // measure 35
00010000
00000000
00000010
00000100
00000110
00000000
00000001
00000000
00002000
00000000
00003200
00000000
00000320
00000000
00000032
00000000
,  // measure 36
00000203
00000300
00001010
00001000
00000100
00010000
00011000
00001000
,  // measure 37
01000000
00100000
10100000
10000000
00010000
00100000
02100000
00000000
,  // measure 38
13000000
01000000
00010000
01000000
10000000
00100000
01000000
00010000
00100000
10000000
00100000
00010000
01000000
00100000
01000000
00010000
,  // measure 39
00100000
00001000
00010000
00000010
00000100
00000001
00000100
00001000
00000100
00000001
00000100
00000010
00001000
00000100
00001000
00000100
,  // measure 40
00010000
00001000
10010000
00100000
01000000
00000000
10010000
01000000
,  // measure 41
00000000
00100000
10010000
00100000
00000010
00000100
00001001
00000010
,  // measure 42
00000000
00000000
00000100
00000000
00001001
00000000
00000010
00000000
00000100
00000000
00001000
00000001
00001001
00000000
00000010
00000000
,  // measure 43
00000100
00000010
00001001
00000000
00001000
00000100
00010000
00001000
,  // measure 44
01000000
00100000
10010000
00100000
01000000
00000000
10010000
01000000
,  // measure 45
00000000
00100000
10010000
01000000
00010000
00100000
00001000
00010000
,  // measure 46
00001000
00100000
00010000
10000000
00010000
00100000
00001000
00100000
00010000
01000000
10000000
01000000
00010000
00100000
00001000
00010000
,  // measure 47
00000010
00000100
00000001
00000100
00001000
00000100
00000001
00000100
00000010
00001000
00000100
00010000
00001000
00000100
00001000
00010000
,  // measure 48
00011000
00000000
01001000
00000000
00100000
10000000
00100000
01000000
,  // measure 49
00010000
00100000
00001000
00010000
00010010
00000000
00001010
00000000
,  // measure 50
00000101
00000000
00001100
00000000
00001000
00000100
00010000
00001000
,  // measure 51
01000000
00100000
01000000
00100000
10000000
00010000
00100000
01000000
,  // measure 52
11000000
00000000
01010000
00000000
00010000
00100000
00001000
00010000
,  // measure 53
00000100
00001000
00000010
00001000
00000100
00000010
00000001
00000010
,  // measure 54
00000100
00000010
00001000
00000001
00001000
00000100
00000001
00000100
00001000
00000100
00000010
00010000
00000010
00000100
00001000
00000001
,  // measure 55
00001000
00000100
00010000
00001000
01000000
00100000
00010000
00100000
10000000
00100000
00010000
00100000
01000000
00010000
01000000
00100000
,  // measure 56
00002000
00000000
00003000
00000000
;
