#TITLE:Setting Fire To Sleeping Giants;
#SUBTITLE:;
#ARTIST:The Dillinger Escape Plan;
#TITLETRANSLIT:;
#SUBTITLETRANSLIT:;
#ARTISTTRANSLIT:;
#GENRE:;
#CREDIT:;
#BANNER:;
#BACKGROUND:;
#LYRICSPATH:;
#CDTITLE:;
#MUSIC:sftsg.mp3;
#OFFSET:0.056;
#SAMPLESTART:69.962;
#SAMPLELENGTH:12.000;
#SELECTABLE:YES;
#BPMS:0.000=168.000,1.000=169.000,3.000=166.000,5.000=165.000,8.000=164.000,9.000=166.000,10.000=169.000,12.000=162.000,13.000=165.000,15.000=168.000,19.000=170.000,21.000=163.000,23.000=164.000,24.000=169.000,25.000=164.000,26.000=169.000,29.000=165.000,29.979=167.000,31.000=164.000,33.000=172.000,34.000=167.000,36.000=166.000,38.000=168.000,41.000=163.000,42.000=169.000,45.000=160.000,46.000=166.000,47.000=171.000,48.000=169.000,49.000=163.000,51.000=167.000,55.000=168.000,57.000=164.000,63.458=166.000,65.000=169.000,66.000=164.000,69.000=167.000,71.000=173.000,73.000=164.000,74.000=166.000,75.000=168.000,76.000=159.000,77.000=166.000,79.000=168.000,81.000=169.000,82.000=168.000,83.000=163.000,84.000=177.000,85.000=165.000,87.000=167.000,88.000=165.000,89.000=169.000,91.000=173.000,92.000=165.000,97.000=156.000,98.000=163.000,99.000=165.000,100.000=168.000,101.000=169.000,102.000=167.000,103.000=173.000,104.000=166.000,108.000=162.000,109.000=170.000,110.000=167.000,111.000=174.000,112.000=164.000,114.000=165.000,115.000=166.000,117.000=164.000,118.000=169.000,119.000=170.000,122.000=168.000,124.000=164.000,125.000=166.000,128.000=171.000,129.000=163.000,130.000=167.000,132.000=166.000,133.000=168.000,134.000=165.000,136.000=170.000,137.000=166.000,139.000=165.000,141.000=170.000,142.000=175.000,143.000=165.000,144.000=164.000,145.000=165.000,146.000=168.000,147.000=163.000,148.000=167.000,149.000=166.000,150.000=173.000,151.000=166.000,152.000=175.000,153.000=165.000,154.000=168.000,156.000=162.000,157.000=165.000,158.000=167.000,160.000=174.000,161.000=163.000,162.000=162.000,163.000=167.000,164.000=163.000,165.000=171.000,166.000=181.000,167.000=164.000,169.000=167.000,170.000=164.000,171.000=177.000,172.000=171.000,173.000=164.000,174.000=170.000,176.000=167.000,177.000=162.000,179.000=165.000,181.000=179.000,182.000=174.000,184.000=160.000,186.000=163.000,188.000=167.000,190.000=169.000,191.000=161.000,192.000=164.000,193.000=161.000,194.000=170.000,195.000=177.000,196.000=165.000,202.000=167.000,204.000=170.000,205.000=168.000,206.000=165.000,207.000=164.000,208.000=166.000,209.000=164.000,210.000=174.000,211.000=169.000,212.000=166.000,214.000=165.000,216.000=170.000,221.000=168.000,222.000=164.000,231.000=162.000,232.000=166.000,233.000=173.000,234.000=168.000,235.000=170.000,237.000=162.000,240.000=168.000,241.000=170.000,244.000=165.000,245.000=168.000,249.000=157.000,250.000=168.000,252.000=172.000,255.000=168.000,256.000=167.000,258.000=169.000,261.000=166.000,269.000=165.000,270.000=163.000,273.000=171.000,274.000=167.000,277.000=168.000,280.000=169.000,282.000=163.000,284.000=167.000,290.000=159.000,291.000=170.000,293.000=158.000,294.000=160.000,295.000=167.000,299.000=165.000,300.000=168.000,301.000=178.000,303.000=160.000,304.000=182.000,305.000=175.000,306.000=162.000,307.000=157.000,308.000=170.000,309.000=162.000,310.000=174.000,312.000=176.000,314.000=167.000,315.000=158.000,316.000=157.000,318.000=173.000,320.000=171.000,321.000=160.000,322.000=159.000,323.000=162.000,324.000=169.000,325.000=168.000,327.000=160.000,328.000=169.000,329.000=182.000;
#STOPS:60.188=0.315
;
#BGCHANGES:;
#KEYSOUNDS:;

//---------------dance-single - ----------------
#NOTES:
     dance-single:
     :
     Beginner:
     2:
     0.207,0.207,0.025,0.235,0.000:
0000
1000
0000
1000
,
0000
0001
0000
1000
,
0001
0100
0000
0100
,
0000
0010
0000
1000
,
0010
0200
0300
0000
,
0002
0003
0000
0010
,
0100
2000
3000
0000
,
0020
0030
0000
0000
,
0000
0100
0000
0100
,
0000
0010
0000
1000
,
0001
0010
0000
0010
,
0000
0100
0000
0010
,
0100
2000
3000
0000
,
0002
0003
0000
0100
,
0000
0010
0000
0000
,
0000
0000
0000
0000
,
0200
0000
0000
0000
,
0000
0300
0010
0010
,
2000
0000
0000
0000
,
0000
3000
0001
0001
,
0020
0000
0000
0000
,
0000
0030
0100
0100
,
2000
0000
0000
0000
,
0000
3000
0010
0010
,
0100
0000
0100
0000
,
0001
0000
1000
0001
,
1000
0000
1000
0000
,
0010
0000
0100
0001
,
0020
0030
0000
0200
,
0300
0000
1000
0001
,
2000
3000
0000
0020
,
0030
0000
0000
0000
,
0100
0000
0100
0000
,
0001
0000
1000
0001
,
0010
0000
0010
0000
,
0100
0000
1000
0001
,
2000
3000
0000
0020
,
0030
0000
0100
0000
,
0001
0000
1000
0000
,
0010
0000
0010
0000
,
0200
0000
0000
0000
,
0000
0300
0001
0001
,
2000
0000
0000
0000
,
0000
3000
0100
0100
,
0020
0000
0000
0000
,
0000
0030
0001
0001
,
0200
0000
0000
0000
,
0000
0300
0010
0010
,
2000
0000
3000
0000
,
0002
0000
0003
0000
,
0020
0000
0030
0000
,
0200
0000
0300
1000
,
2000
0000
3000
0000
,
0020
0000
0030
0000
,
0200
0000
0300
0000
,
0002
0000
0003
0010
,
0010
0010
0000
0000
,
0110
0000
0110
0000
,
1000
1000
0000
0000
,
1001
0000
0010
0010
,
0000
0000
0000
0000
,
0000
0000
0000
0000
,
0000
0010
0000
0000
,
1000
0000
0000
0000
,
0001
0001
0000
1000
,
0000
0010
0000
0100
,
0000
0000
0000
0000
,
0001
0000
0000
1000
,
0000
0000
0000
0010
,
0010
0000
0100
0000
,
0001
0000
1000
0000
,
0000
0000
0000
0000
,
0100
0100
0010
0000
,
1000
0000
0001
0000
,
0100
0000
0010
0010
,
0000
1000
0000
0001
,
0000
0010
0010
0000
,
0000
0100
0000
0000
,
1000
0000
0000
0000
,
0010
0010
0000
0100
,
0000
0001
0000
0000
,
1000
1000
0000
0000
,
0000
0001
0001
0000
;

//---------------dance-single - ----------------
#NOTES:
     dance-single:
     :
     Easy:
     5:
     0.378,0.347,0.193,0.268,0.000:
0000
1010
0000
0010
,
0000
0100
0000
0000
0001
0000
0010
0000
,
0100
1100
0000
0001
,
0000
1000
0000
0000
0010
0000
0100
0000
,
0001
0011
0000
0100
,
0000
1000
0000
0000
0010
0000
1000
0000
,
0001
0101
0000
0100
,
0000
0010
0000
0000
1000
0000
0100
0000
,
0010
0011
0000
1000
,
0000
0010
0000
0000
0100
0000
0001
0000
,
0010
0110
0000
1000
,
0000
0010
0000
0000
0100
0000
0001
0000
,
1000
1100
0000
0010
,
0000
0001
0000
0000
0100
0000
0010
0000
,
1000
1001
0000
0010
,
0000
0000
0000
0000
,
0020
0000
0000
0130
0020
0000
0030
2000
,
0000
0001
0010
0100
,
3002
0000
0000
1003
0002
0000
0003
0200
,
0000
0001
0010
0001
,
2300
0000
0000
3001
2000
0000
3000
0020
,
0000
1000
0100
1000
,
0230
0000
0000
0301
0200
0000
0300
0002
,
0000
0000
0010
0000
0100
0000
1000
0003
,
0011
0000
0000
0000
0100
0000
0000
1000
,
0000
0010
1000
0100
,
0110
0000
0000
0000
0001
0000
0000
0100
,
0000
0010
1000
0001
,
0011
0000
0000
0000
0100
0000
0000
1000
,
0000
0010
0100
0001
,
1001
0000
0000
0000
1000
0000
0000
0010
,
0000
0100
0001
0010
,
0110
0000
0000
0000
1000
0000
0000
0010
,
0000
0100
0001
1000
,
1100
0000
0000
0000
0010
0000
0000
0001
,
0000
0100
0010
1000
,
1001
0000
0000
0000
0010
0000
0000
0100
,
0000
0001
0010
0100
,
1100
0000
0000
0000
1000
0000
0000
0010
,
0000
0000
0100
0100
,
0020
0000
0000
0130
0020
0000
0030
2000
,
0000
0100
0010
0001
,
3200
0000
0000
0310
0200
0000
0300
0002
,
0000
1000
0100
0010
,
2003
0000
0000
3100
2000
0000
3000
0020
,
0000
1000
0100
1000
,
0032
0000
0000
1003
0002
0000
0003
0200
,
0000
0001
0010
0001
,
0310
1000
0100
0110
,
0010
0001
0100
0110
,
0001
0010
1000
1001
,
1000
0000
0100
0000
0001
0000
1000
0010
,
0100
0001
0010
0110
,
0100
1000
0010
0110
,
1000
0010
0001
1001
,
0001
0100
1000
1001
,
0010
0000
0010
0000
0000
1000
0000
0000
,
1000
0000
1000
0001
1000
0000
1000
0001
,
0100
0000
0100
0000
0000
0010
0000
0000
,
1000
0000
1000
0001
1000
0000
2000
0000
,
0000
0002
0000
0000
,
3003
0000
0000
0000
,
0000
0000
0010
0000
0000
1000
0000
0000
,
0001
0000
0000
0010
0000
0000
0000
0100
,
0000
1000
0000
0001
1000
0000
0000
0010
,
0000
0000
0100
0000
0000
0001
0000
0000
,
0010
0000
0100
0000
0000
1000
0000
1000
,
0010
0000
0000
0100
0000
0000
0001
0000
,
0000
1000
0000
0000
0000
0010
0000
0100
,
0000
0001
0100
0000
0000
0010
0000
0000
,
1000
0000
0000
0001
0000
0000
0010
0000
,
0100
0000
0000
1000
0000
0001
0000
0000
,
0100
0000
0010
0000
0000
0100
0000
0000
,
0001
0000
0000
0010
0000
0000
0100
0000
,
0000
1000
0000
0010
0000
1000
0001
0000
,
0000
0010
0000
0000
0100
0000
0000
1000
,
0000
0000
0010
0000
0100
0000
0000
0001
,
0000
0000
1000
0000
0000
0001
0000
0000
,
0010
0000
0000
0100
0000
0000
0000
1000
,
0000
0010
0000
0100
0010
0000
0000
1000
,
0000
0000
0001
0000
0000
0010
0000
0000
,
2000
0000
0002
0000
3003
0020
0000
0200
,
0000
0330
2000
0000
0002
0000
3003
0000
;

//---------------dance-single - ----------------
#NOTES:
     dance-single:
     :
     Medium:
     8:
     0.664,0.624,0.293,0.277,0.000:
0000
0000
1001
0000
0000
0010
0100
0000
,
0000
0001
0000
0000
0010
0001
0100
1000
,
0100
0001
0010
0000
0000
0100
1000
0000
,
0000
0010
0000
0000
0001
0010
1000
0001
,
1000
0010
0100
1000
0100
0001
2000
0000
,
3001
0100
1000
0100
0002
0000
0013
0001
,
0010
0001
1000
0010
0100
0001
0100
0001
,
1000
0100
0010
0001
0010
0200
0000
0300
,
0000
0000
0010
0000
0000
0001
0100
0000
,
0000
0010
0000
0000
1000
0100
0001
0100
,
1000
0010
0100
0000
0000
0001
0100
0000
,
0000
0010
0000
0000
1000
0010
0001
0010
,
1000
0001
0010
0100
1000
0100
0020
0000
,
0031
0100
1000
0100
0002
0000
0013
0001
,
0010
0001
1000
0010
0100
0000
0001
1000
,
0002
0003
0000
0000
,
1000
0010
1000
0001
1000
0010
1000
0001
,
0010
0001
1000
0010
0200
0301
0200
0301
,
0010
0100
1000
0100
0010
0100
1000
0010
,
0100
0010
1000
0001
0020
0130
0020
0130
,
1000
0001
0100
0001
1000
0001
0100
0010
,
1000
0010
1000
0100
0020
0031
0020
0031
,
0100
0010
1000
0010
0100
0010
1000
0001
,
0010
0001
1000
0100
0020
0130
0020
0130
,
1000
0000
0000
0001
0010
0000
0000
0100
,
0000
0000
1000
0010
0001
0010
1000
0001
,
1000
0000
0000
0100
0010
0000
0000
0001
,
0000
0000
0010
0100
0001
0100
1000
0010
,
0100
0010
0001
0010
0200
0000
0310
1000
,
0100
0010
0200
0000
1300
0010
0100
0001
,
1000
0001
0010
0100
1000
0010
0100
0001
,
1000
0001
0010
0200
0000
0300
0000
0000
,
1000
0000
0000
0010
0100
0000
0000
0001
,
0000
0000
0010
0001
0010
1000
0010
0001
,
1000
0000
0000
0010
0100
0000
0000
0001
,
0000
0000
1000
0010
0001
0010
1000
0001
,
1000
0100
0010
0100
2000
0000
3010
0100
,
1000
0100
0020
0000
1030
0100
0010
0001
,
1000
0010
0100
0001
0010
0100
1000
0010
,
0100
0001
1000
0010
0100
0100
0100
0100
,
0001
1000
0001
0010
0001
1000
0001
0100
,
0010
0100
0001
0010
0200
1300
0200
1300
,
0010
0100
0010
1000
0010
0100
0010
1000
,
0001
1000
0001
0010
0200
0310
0200
0310
,
0001
1000
0001
0100
0001
1000
0001
0010
,
0100
0010
0100
1000
0020
0130
0020
0130
,
0001
1000
0010
1000
0001
1000
0010
0100
,
0001
0100
0010
1000
0200
0310
0200
0310
,
0001
0100
0001
0100
1000
0100
1000
0100
,
0010
1000
0010
1000
0010
0001
0010
0001
,
1000
0100
0001
0100
0001
0010
1000
0010
,
0100
1000
0010
0100
0001
1000
0002
0000
,
1003
0010
1000
0010
0001
0010
0001
0010
,
0100
1000
0100
1000
0100
0001
0100
0001
,
0010
1000
0010
0100
1000
0010
0100
1000
,
0100
0000
0010
0000
1000
0000
0001
0000
1000
0000
0010
0000
0200
0000
0000
0300
,
0110
0000
0110
0000
0000
1001
0000
0000
,
0011
0000
1000
0001
1001
0000
1000
0001
,
1001
0000
0011
0000
0000
0110
0000
0000
,
1100
0000
0001
1000
1001
0000
1001
0000
,
0000
0200
0000
0000
,
0000
0000
03M0
00M0
00M0
00M0
00M0
0000
,
00M0
0000
0001
0001
0000
0010
0010
0000
,
0100
0100
0000
1000
1000
0000
0000
0110
,
0000
1001
0000
1000
0100
0001
0000
0100
,
0100
0000
0010
0010
0000
0001
0001
0000
,
1000
0010
2000
0000
3000
0001
0010
0001
,
1000
1000
0000
0010
0010
0000
0100
0100
,
0000
0001
0001
0000
0000
0011
0000
1100
,
0000
1000
0010
0001
0000
0010
0010
0000
,
1000
1000
0000
0100
0100
0000
0011
0000
,
1001
0000
0000
0110
0000
1001
0000
0000
,
0011
0000
1100
0000
0000
0001
0001
0000
,
0010
0010
0000
0100
0100
0000
1000
1000
,
0000
0011
0000
1100
0000
0001
0100
1000
,
0000
0100
0100
0000
0001
0001
0000
1000
,
1000
0000
0011
0000
1001
0000
0000
0110
,
0000
0000
1000
1000
0000
0001
0001
0000
,
0010
0010
0000
0100
0100
0000
0000
1001
,
0000
0110
0000
1000
0010
0001
0000
0010
,
0010
0000
1000
1000
0000
0001
0001
0000
,
1001
0000
1010
0000
0000
0110
0000
1001
,
0000
0011
2200
3300
;

//---------------dance-single - ----------------
#NOTES:
     dance-single:
     :
     Hard:
     9:
     0.882,1.000,0.930,0.737,0.067:
0000
0000
1000
0010
1000
0001
1000
0010
,
1000
0010
0100
0010
1000
0100
0010
0001
,
0010
0001
0100
0010
1000
0010
0100
0010
,
1000
0001
0010
0001
1000
0100
0001
0100
,
0001
0100
1000
0010
0100
0001
0010
0001
,
1000
0010
0100
0001
0010
0001
1000
0010
,
1000
0010
0100
0001
0010
0100
1000
0010
,
0100
0000
0001
0000
1000
0001
1000
0000
0010
0000
0200
0000
0000
0000
0300
0000
,
0000
0000
0001
0010
0001
1000
0001
0010
,
0001
0010
0100
1000
0010
0100
0001
1000
,
0001
1000
0010
0100
0010
1000
0010
1000
,
0100
0010
0100
0010
0001
0100
1000
0100
,
1000
0100
0001
0010
0100
1000
0010
0100
,
0001
0010
0100
1000
0010
0100
0001
1000
,
0001
0000
1000
0000
0010
0000
0100
0000
0001
0000
0010
0001
1000
0000
0001
1000
,
0001
0000
0000
0000
,
2000
0010
0010
3001
2000
0010
0010
3002
,
0010
0013
1000
0010
0100
0001
0100
0001
,
2000
0100
0100
3001
2000
0100
0100
3002
,
0100
0103
1000
0010
0100
0001
1000
0001
,
2000
0010
0010
3001
2000
0010
0010
3002
,
0010
0013
1000
0001
0010
0100
0010
0100
,
2000
0010
0010
3001
2000
0010
0010
3002
,
0010
0013
1000
0001
0010
0100
1000
0010
,
1000
0010
1000
0001
0010
0001
1000
0100
,
1000
0001
0100
0001
1000
0010
0001
0010
,
1000
0100
1000
0001
0010
0001
1000
0010
,
1000
0010
0100
0010
1000
0100
0001
0100
,
1000
0010
0100
0001
0010
0100
1000
0010
,
0100
0001
0010
0100
1000
0010
0100
0001
,
1000
0100
0010
0001
0100
0010
1000
0001
,
0010
0100
1000
0000
0010
0000
0200
0000
0000
0000
0300
0000
0000
0000
0000
0000
,
1001
0000
0000
0000
0110
0000
0000
0MM0
0000
0000
1010
0000
0000
0000
M0M0
0000
,
0000
0000
0101
0000
0000
0M0M
0000
0000
0011
0000
0000
0000
0210
0000
1300
0000
,
0000
MM00
0000
0000
1100
0000
0000
MM00
0000
0000
0021
0000
0000
0000
0000
0000
,
0000
0000
0000
2000
3000
1000
1000
1000
,
0031
0100
1000
0100
0001
1000
0001
0010
,
1000
0010
0001
0100
0010
1000
0001
0010
,
0100
0010
0100
1000
0010
0100
0001
0100
,
0010
0000
0100
0000
0010
0000
0100
0000
0010
0100
0010
0100
0010
0100
0010
0100
,
0002
0100
0100
1003
0002
0100
0100
2003
,
0100
3100
0001
0010
0100
1000
0100
1000
,
0002
0010
0010
1003
0002
0010
0010
2003
,
0010
3010
0001
0010
0100
1000
0001
1000
,
0002
0100
0100
1003
0002
0010
0010
2003
,
0010
0000
3010
0000
0001
0000
0010
0000
0001
1000
0010
0100
0001
1000
0100
1000
,
0002
0010
0013
1000
0002
0100
0100
2003
,
0100
3100
0001
0010
0100
1000
0010
0100
,
0002
0000
0200
0003
0002
0300
0200
0003
2000
0300
0200
3000
2000
0300
0200
3000
,
0020
0300
2000
0030
0020
3000
2000
0030
0020
3000
0002
0030
0020
0003
0002
0030
,
2000
0003
0200
3000
0002
0300
0200
0003
0002
0300
0020
0003
2000
0030
0020
3000
,
0200
0030
2000
0300
0020
3000
0200
0030
0001
0300
1000
0000
1001
0000
0000
0000
,
2000
0000
0020
3000
2000
0030
0020
3000
0002
0030
0020
0003
0002
0030
0020
0003
,
0200
0030
2000
0300
0200
3000
2000
0300
0200
3000
0002
0300
0200
0003
0002
0300
,
0020
0003
2000
0030
0020
3000
0200
0030
2000
0300
0020
3000
0200
0030
2000
0300
,
0200
3000
0020
0300
2000
0030
0002
3000
1000
0003
0010
0000
0110
0000
0000
0000
,
1001
0000
0011
0000
1000
1001
1000
0000
,
0110
0000
0001
1000
1001
0000
0100
0010
,
1010
0000
1001
0000
0010
0011
0010
0000
,
0110
0000
0100
1000
1001
0000
1001
0000
,
0000
0020
0000
0000
,
0000
0000
0000
0030
,
0000
0000
1001
1001
0000
0110
0110
0000
,
0011
0011
0000
1001
1001
0000
0000
0110
,
0000
0101
0000
1000
1001
1001
0000
0011
,
0011
0000
0110
0110
0000
1001
1001
0000
,
0110
0000
1001
0000
0000
0101
0000
0000
,
1100
1100
0000
1001
1001
0000
0110
0110
,
0000
0011
0011
0000
0000
0101
0000
1100
,
0000
0010
1010
1010
0000
1001
1001
0000
,
0110
0110
0000
0011
0011
0000
1010
0000
,
0101
0000
0000
0011
0000
1100
0000
0000
,
1001
0000
0110
0000
0000
0011
1001
0000
,
0110
1100
0000
1001
0101
0000
0110
1010
,
0000
1001
0000
0110
0000
1000
1001
0101
,
0000
0110
1010
0000
1001
0011
0000
0110
,
1100
0000
0110
0000
1001
0000
0000
0101
,
0000
0000
1010
1001
0000
0011
0110
0000
,
0011
1001
0000
0110
0110
0000
0000
1100
,
0000
0101
0000
0010
0110
0110
0000
1100
,
1001
0000
0110
0101
0000
0011
1010
0000
,
0110
0000
1001
0000
0000
0011
0000
1010
,
0000
1100
0202
0303
;

//---------------dance-single - ----------------
#NOTES:
     dance-single:
     :
     Challenge:
     12:
     1.000,1.000,0.997,0.587,0.142:
0000
0000
1000
0100
0001
1000
0010
0001
,
1000
0100
0001
1000
0010
0001
0010
0100
,
0010
0100
0001
0010
1000
0001
0100
1000
,
0001
0010
1000
0001
0100
1000
0001
0010
,
0100
1000
0010
0001
0010
1000
0001
1000
,
0100
0001
0100
1000
0001
1000
0010
0100
,
0010
0100
0001
0010
0100
1000
0010
0100
,
0001
0000
1000
0000
0010
0100
0001
0000
1000
0000
0200
0000
0000
0000
0000
0000
,
1300
0000
0001
0100
1000
0001
0010
1000
,
0001
0100
1000
0001
0010
1000
0010
0100
,
0010
0100
1000
0100
0001
1000
0010
0001
,
1000
0100
0001
1000
0010
0001
0010
0100
,
0010
0100
0001
0010
1000
0010
0001
1000
,
0001
0100
1000
0100
0001
0010
0100
0010
,
0100
0000
0010
0000
0100
1000
0100
0010
0001
0100
0010
0100
0010
1000
0001
0010
,
0100
0000
0000
0000
0000
0010
1001
1000
,
0100
0100
0100
1000
0100
0100
0100
1000
,
0010
0010
0001
0100
0010
1100
0010
1100
,
0010
0010
0010
1000
0010
0010
0010
1000
,
0100
0100
0001
0010
0100
1010
0100
1010
,
0100
0100
0100
1000
0100
0100
0100
1000
,
0010
0010
0001
0100
0010
1100
0010
1100
,
0010
0010
0010
1000
0010
0010
0010
1000
,
0100
0100
0001
1000
0001
1100
0001
1100
,
0001
0010
1000
0001
0100
1000
0001
0010
,
1000
0001
0100
1000
0100
0010
0100
0010
,
1000
0010
0001
1000
0100
0001
1000
0010
,
0001
1000
0100
0001
0100
0010
0100
0010
,
0001
0100
1000
0100
0010
0100
1000
0100
,
0001
0100
1000
0100
0010
0100
0010
0100
,
0001
0010
0100
1000
0010
0100
0001
1000
,
0100
0010
0001
0000
0100
0000
0002
0000
0000
0000
0003
0000
0000
0000
0000
0000
,
1000
0010
1000
0000
0001
1000
0001
0000
0100
0000
0010
1000
0001
0000
1000
0000
,
0010
0100
0001
0100
0010
0000
1000
0000
0001
0000
0010
0000
0001
0000
0010
0000
,
0100
1000
0001
0000
1000
0001
1000
0000
0010
0000
0100
0001
0100
0000
0010
0000
,
1000
0001
0010
0001
1000
0000
0010
0000
0100
0000
0001
0000
0010
0000
0001
0000
,
0100
0010
1000
0000
0010
1000
0010
0000
1000
0000
0001
0010
0001
0000
0100
0000
,
0010
1000
0001
1000
0100
0000
0010
0000
0001
0000
0100
0000
0001
0000
0100
0000
,
0010
0000
1000
0000
0001
0000
0010
0000
0100
1000
0010
0100
0001
0000
0100
0010
,
1000
0001
0010
0100
1000
0010
0100
0001
0100
0001
1000
0001
0010
0100
1000
0001
,
0010
0010
0010
0001
0010
0010
0010
0001
,
0100
0100
1000
0010
0100
0011
0100
0011
,
0100
0100
0100
0001
0100
0100
0100
0001
,
0010
0010
1000
0100
0100
0011
0100
0011
,
0100
0100
0100
0001
0100
0100
0100
0001
,
0010
0010
1000
0001
1000
0101
1000
0101
,
0010
0010
0010
0001
0010
0010
0010
0001
,
0100
0100
1000
0010
0100
0011
0100
0011
,
0200
0000
200M
0300
0200
3000
002M
0300
2000
0030
020M
3000
0020
0300
020M
0030
,
2000
0300
0M20
3000
0002
0030
0M20
0003
2000
0030
0M02
3000
0020
0003
0M02
0030
,
2000
0003
02M0
3000
0002
0300
02M0
0003
2000
0300
00M2
3000
0200
0003
20M0
0300
,
0200
3000
002M
0300
2000
0030
020M
3000
0020
0300
010M
0030
1000
0000
101M
0000
,
0200
0000
M002
0300
0020
0003
M200
0030
0002
0300
M200
0003
0020
0300
M002
0030
,
0200
0003
002M
0300
2000
0030
020M
3000
0020
0300
020M
0030
2000
0300
002M
3000
,
2000
0030
0M20
3000
0002
0030
0M20
0003
2000
0030
0M02
3000
0020
0003
M002
0030
,
0200
0003
20M0
0300
0200
3000
00M2
0300
2000
0003
02M0
3000
0001
0300
0100
0000
,
1010
0001
1010
0001
0100
0011
0100
0010
,
1100
0010
0100
0010
1100
0010
0100
0001
,
1010
0001
1010
0001
1000
0101
1000
0001
,
1100
0001
0100
0001
1100
0001
1100
0000
,
0000
0000
0010
0010
0010
0010
0010
0010
,
0010
0020
0100
0100
0100
0100
0200
0300
,
0200
0330
1011
1011
0000
1101
1101
0000
,
1011
1011
0000
0111
0111
0000
0000
1001
,
0000
0110
0000
2000
0011
3011
0000
1101
,
1101
0000
0111
0111
0000
1101
1101
0000
,
1001
0000
1001
0000
0000
0110
0000
0000
,
1110
1110
0000
1101
1101
0000
1110
1110
,
0000
1011
1011
0000
0000
0110
0000
1001
,
0000
0002
1010
1013
0000
1101
1101
0000
,
0111
0111
0000
1011
1011
0000
1100
0000
,
0011
0000
0000
1010
0000
0101
0000
0000
,
0011
0000
1100
0000
0000
0111
0111
0000
,
1011
1011
0000
0111
0111
0000
1101
1101
,
0000
0110
0000
1001
0000
2000
0011
3011
,
0000
1101
1101
0000
1011
1011
0000
1101
,
1101
0000
1010
0000
0101
0000
0000
0011
,
0000
0000
1011
1011
0000
0111
0111
0000
,
1011
1011
0000
1110
1110
0000
0000
0110
,
0000
1001
0000
2000
0101
3101
0000
1101
,
1101
0000
1110
1110
0000
1101
1101
0000
,
0110
0000
0101
0000
0000
0011
0000
1010
,
0000
1100
0202
0303
;

//---------------dance-double - Blank----------------
#NOTES:
     dance-double:
     Blank:
     Challenge:
     12:
     0.876,1.000,0.871,0.704,0.046:
00000000
00000000
10000000
00100000
00010000
10000000
01000000
00010000
,
10000000
00100000
00010000
10000000
01000000
00010000
00001000
00000010
,
00000001
00001000
00000001
00000100
00001000
00000001
00000010
00001000
,
00000001
00000100
00001000
00000001
00000010
00001000
00010000
01000000
,
10000000
01000000
00010000
00100000
10000000
00100000
00010000
10000000
,
00010000
01000000
10000000
01000000
00010000
10000000
00010000
00100000
,
00001000
00010000
00000001
00000100
00001000
00000100
00000001
00001000
,
00000001
00000000
00000010
00000000
00000100
00001000
00000100
00000000
00000010
00000000
00000002
00000000
00000003
00000000
00000000
00001000
,
00000001
00001000
00000001
00001000
00000001
00000000
00000100
00000000
00001000
00000000
00000001
00000000
00000010
00000000
00001000
00000000
,
00000001
00000100
00001000
00000001
00000010
00001000
00010000
00100000
,
10000000
00100000
00010000
01000000
10000000
00010000
00100000
10000000
,
00010000
01000000
10000000
00010000
00100000
10000000
00010000
10000000
,
01000000
00100000
00010000
00100000
10000000
00100000
00010000
10000000
,
00010000
01000000
10000000
01000000
00010000
00100000
00001000
00010000
,
00000010
00000100
00000001
00000010
00000200
00000000
00000000
00000000
,
00000000
00000300
00000000
00000000
,
00000100
00000100
00000100
00001000
00000100
00000100
00000100
00001000
,
00000010
00000010
00000001
00000100
00001000
00010000
00100000
10000000
,
00100000
00100000
00100000
10000000
00100000
00100000
00100000
10000000
,
01000000
01000000
10000000
01000000
00010000
00001000
00000010
00000001
,
00000010
00000010
00000010
00001000
00000010
00000010
00000010
00001000
,
00000100
00000100
00000001
00000100
00001000
00010000
00100000
10000000
,
01000000
01000000
01000000
10000000
01000000
01000000
01000000
10000000
,
00100000
00100000
00010000
00100000
10000000
00100000
00010000
01000000
,
00010000
00100000
10000000
00010000
01000000
10000000
00010000
00100000
,
10000000
00010000
01000000
10000000
00010000
00100000
00001000
00010000
,
00000001
00000010
00001000
00000001
00000100
00001000
00000001
00000010
,
00001000
00000001
00000100
00001000
00000010
00010000
00001000
01000000
,
00010000
10000000
00010000
01000000
10000000
01000000
00010000
10000000
,
00010000
00100000
10000000
00100000
00010000
01000000
00100000
10000000
,
01000000
00100000
00010000
00100000
00001000
00010000
00000010
00000100
,
00000001
00000010
00000100
00000000
00001000
00000000
00000020
00000000
00000030
00000000
00000000
00000000
00000000
00000000
00000000
00000000
,
00001001
00000000
00011000
00000000
00000000
01100000
00000000
00000000
,
00000000
11000000
00000000
00000000
01100000
00000000
10000000
00020000
,
00030000
00000000
11000000
00000000
00000000
20020000
00000000
00000000
,
00000000
00000000
00000000
00100000
00000000
00100000
00100000
00100000
,
30130000
10000000
00010000
00100000
00001000
00010000
00000010
00000100
,
00000001
00000010
00001000
00000010
00000100
00001000
00000100
00010000
,
00001000
01000000
10000000
01000000
00010000
00100000
01000000
10000000
,
00100000
00000000
01000000
00000000
00010000
10000000
00100000
01000000
00010000
10000000
00100000
01000000
00010000
00100000
00010000
01000000
,
00100000
00100000
00100000
10000000
00100000
00100000
00100000
10000000
,
01000000
01000000
10000000
01000000
00010000
00001000
00000010
00000001
,
00000010
00000010
00000010
00001000
00000010
00000010
00000010
00001000
,
00000100
00000100
00000001
00000010
00001000
00010000
01000000
10000000
,
00100000
00100000
00100000
10000000
00100000
00100000
00100000
10000000
,
01000000
01000000
10000000
01000000
00010000
00001000
00000010
00000001
,
00000010
00000010
00000010
00001000
00000010
00000010
00000010
00001000
,
00000100
00000100
00000001
00000100
00001000
00010000
00100000
10000000
,
00020000
00000000
20000000
00030000
02000000
30000000
00020000
03000000
02000000
00030000
20000000
03000000
00020000
30000000
02000000
00030000
,
20000000
03000000
02000000
30000000
00020000
03000000
02000000
00030000
00002000
03000000
00020000
00003000
00002000
00030000
00020000
00003000
,
00000020
00030000
00000200
00000030
00002000
00000300
00000200
00003000
00000020
00000300
00002000
00000030
00000200
00003000
00000020
00000300
,
00000200
00000030
00002000
00000300
00000002
00003000
00000200
00000003
00000020
00000300
00001000
00000030
00001001
00000000
00000002
00000000
,
00000020
00000003
00002000
00000030
00000020
00003000
00000002
00000030
00002000
00000003
00000020
00003000
00000002
00000030
00000020
00000003
,
00002000
00000030
00000002
00003000
00002000
00000003
00000200
00003000
00020000
00000300
00002000
00030000
00020000
00003000
00002000
00030000
,
02000000
00003000
20000000
03000000
02000000
30000000
00020000
03000000
20000000
00030000
02000000
30000000
00020000
03000000
02000000
00030000
,
20000000
03000000
00020000
30000000
02000000
00030000
00200000
03000000
20000000
00300000
02000000
30000000
00200000
03000000
00010000
00300000
,
00110000
00000000
10010000
00000000
01000000
01100000
01000000
00000000
,
10010000
00000000
00100000
00001000
00011000
00000000
00010000
00000010
,
00000110
00000000
00001001
00000000
00001000
00001100
00001000
00000000
,
00000101
00000000
00000010
00001000
00001100
00000000
00000011
00000000
,
00000000
00022000
00000000
00000000
,
00000000
00000000
00000100
00000100
00000100
00000100
00033200
00000000
,
020MM300
00000000
00011000
00011000
00000000
00110000
00110000
00000000
,
00011000
00011000
00000000
00110000
03110000
00000000
00000000
00011000
,
00000000
00010100
00000000
00000200
00011000
00011000
00000000
00001010
,
00001010
00000000
00011000
00011000
00000000
00001010
00001310
00000000
,
00020000
00000000
00032000
00000000
00003000
20000000
0MMMM000
00000000
,
01010000
01010000
00000000
00110000
00110000
00000000
01010000
01010000
,
00000000
00110000
30110000
00000000
00000000
00011000
00000000
00001001
,
00000000
00000002
00001100
00001100
00000000
00001010
00001010
00000000
,
00001100
00001100
00000000
00001010
00001013
00000000
00001100
00000000
,
00011000
00000000
00000000
01100000
00000000
10010000
00000000
00000000
,
00110000
00000000
00011000
00000000
00200000
00011000
00011000
00000000
,
01010000
01010000
00000000
00011000
00011000
00000000
01010000
01010000
,
00300000
00011000
00000000
00000110
00000000
00000020
00001100
00001100
,
00000000
00011000
00011000
00000000
00001100
00001100
00000000
00011000
,
00011030
00000000
00020000
00000000
00032000
00000000
00003000
02000000
,
M0MMM000
00000000
00011000
00011000
00000000
00110000
00110000
00000000
,
00011000
00011000
00000000
00110000
03110000
00000000
00000000
00011000
,
00000000
00000110
00000000
00000200
00011000
00011000
00000000
00001010
,
00001010
00000000
00011000
00011000
00000000
00001010
00001310
00000000
,
00011000
00000000
01100000
00000000
00000000
11000000
00000000
01010000
,
00000000
00011000
00000220
00000330
;

//---------------dance-double - Blank----------------
#NOTES:
     dance-double:
     Blank:
     Hard:
     9:
     0.821,1.000,0.779,0.687,0.025:
00000000
00000000
10000000
00100000
10000000
00010000
10000000
00100000
,
10000000
00010000
00100000
00010000
10000000
01000000
00010000
00001000
,
00000010
00000001
00001000
00000100
00001000
00000001
00001000
00000010
,
00001000
00000001
00000010
00000001
00000100
00001000
00010000
00100000
,
10000000
00010000
10000000
01000000
00010000
01000000
20000000
00000000
,
30010000
01000000
10000000
01000000
00020000
00000000
10030000
01000000
,
00100000
00010000
01000000
00001000
00010000
00001000
01000000
00100000
,
10000000
00000000
00010000
00000000
00100000
01000000
00100000
00000000
01000000
00000000
20000000
00000000
00000000
00000000
30000000
00000000
,
00000000
00000000
00010000
10000000
00100000
10000000
00010000
10000000
,
00100000
01000000
00010000
01000000
10000000
01000000
00010000
00001000
,
00000010
00000001
00000010
00001000
00000100
00001000
00000010
00001000
,
00000100
00000010
00000001
00000010
00000001
00000100
00001000
00010000
,
00100000
10000000
00010000
00100000
10000000
00100000
00020000
00000000
,
10030000
00100000
00010000
00100000
20000000
00000000
30010000
00100000
,
01000000
10000000
00100000
01000000
00010000
00100000
00002000
02000000
,
03003000
00000000
00000000
00000000
,
10000000
01000000
10000000
00010000
10000000
01000000
10000000
00010000
,
00100000
10000000
00100000
00010000
00001000
00000100
00000001
00000100
,
00001000
00000010
00001000
00000100
00001000
00000010
00001000
00000100
,
00000001
00000100
00001000
00000001
00000100
00001000
00010000
00100000
,
10000000
00010000
10000000
00100000
10000000
00010000
10000000
01000000
,
00010000
01000000
10000000
00100000
00010000
00001000
00000100
00000001
,
00000100
00001000
00000001
00001000
00000100
00001000
00000001
00001000
,
00000100
00000001
00000100
00001000
00000100
00010000
00001000
01000000
,
00100000
10000000
00100000
01000000
00010000
01000000
00100000
10000000
,
00100000
01000000
00010000
10000000
01000000
00010000
00001000
00000010
,
00000001
00000010
00000001
00001000
00000010
00001000
00000001
00000100
,
00000001
00001000
00000100
00000010
00000001
00000100
00001000
00010000
,
00100000
10000000
00100000
00010000
00200000
00000000
01300000
10000000
,
01000000
00010000
02000000
00000000
03100000
10000000
01000000
00100000
,
00010000
00100000
10000000
00100000
00020000
00000000
00130000
00001000
,
00010000
00001000
00010000
00000000
00000010
00000000
00000200
00000000
00000300
00000000
00000000
00000000
00000000
00000000
00000000
00000000
,
00000002
00000000
00020000
00000000
00000000
00000010
00000000
00000000
,
00000000
00001000
00030003
00000000
00010000
00000000
00001000
01000000
,
00000000
00000000
20000000
00000000
00000000
00002000
00000000
00000000
,
00000000
00000000
00000000
00100000
00000000
00100000
30103000
00000000
,
00001000
00100000
00010000
00100000
02000000
00000000
13000000
00100000
,
00010000
00100000
20000000
00000000
30010000
00100000
01000000
10000000
,
00010000
01000000
00001000
00010000
00000010
00000100
00000001
00000010
,
00000100
00000000
00001000
00000000
00000010
00000000
00000100
00000000
00000001
00001000
00000001
00001000
00000001
00001000
00000001
00001000
,
00000001
00000100
00000001
00001000
00000001
00000100
00000001
00001000
,
00000100
00000001
00000100
00001000
00010000
01000000
10000000
01000000
,
00010000
00100000
00010000
10000000
00010000
00100000
00010000
10000000
,
00100000
00010000
00100000
10000000
01000000
00010000
00001000
00000010
,
00000001
00000100
00000010
00000100
00000001
00000100
00000010
00001000
,
00000100
00000001
00000100
00001000
00010000
00100000
10000000
00100000
,
00010000
01000000
00100000
01000000
00010000
01000000
00100000
10000000
,
01000000
00010000
10000000
00100000
00010000
00001000
00000100
00000001
,
00000200
00000000
00002000
00000300
00000200
00003000
00002000
00000300
00000200
00003000
00000002
00000300
00000200
00000003
00000002
00000300
,
00000200
00000003
00002000
00000300
00000200
00003000
00002000
00000300
00000020
00003000
00002000
00000030
00000020
00003000
00002000
00000030
,
00000020
00003000
00000002
00000030
00000020
00000003
00000002
00000030
00000020
00000003
00002000
00000030
00000020
00003000
00002000
00000030
,
00000020
00003000
00000002
00000030
00000020
00000003
00002000
00000030
00020000
00003000
02000000
00030000
20000000
03000000
00000000
00000000
,
32000000
00000000
00020000
03000000
02000000
00030000
00020000
03000000
02000000
00030000
20000000
03000000
02000000
30000000
20000000
03000000
,
02000000
30000000
00020000
03000000
02000000
00030000
00020000
03000000
00200000
00030000
00020000
00300000
00200000
00030000
00020000
00300000
,
00200000
00030000
20000000
00300000
00200000
30000000
20000000
00300000
00200000
30000000
00020000
00300000
00200000
00030000
00020000
00300000
,
00200000
00030000
20000000
00300000
00200000
30000000
20000000
00300000
00200000
30000000
00020000
00300000
00200000
00030000
00000000
00300000
,
11000000
00000000
10010000
00000000
00000000
01100000
00000000
00000000
,
00110000
00000000
00011000
00000000
,
00001100
00000000
00000011
00000000
00000000
00001001
00000000
00000000
,
00000110
00000000
00001001
00011000
,
00000000
00020000
00000000
00000000
,
00000000
00000000
00030000
00000000
,
00000000
00000000
11000000
11000000
00000000
10010000
10010000
00000000
,
01100000
01100000
00000000
00101000
00101000
00000000
00000000
00011000
,
00000000
00010100
00000000
00000100
00000010
00000010
00000000
00001001
,
00001001
00000000
00000011
00000011
00000000
00001100
00001100
00000000
,
00011000
00000000
01100000
00000000
00000000
10010000
00000000
00000000
,
01100000
01100000
00000000
10010000
10010000
00000000
00110000
00110000
,
00000000
00011000
00011000
00000000
00000000
00001100
00000000
00001001
,
00000000
00000010
00000100
00000100
00000000
00000011
00000011
00000000
,
00001010
00001010
00000000
00011000
00011000
00000000
00110000
00000000
,
10010000
00000000
00000000
01100000
00000000
01010000
00000000
00000000
,
11000000
00000000
01100000
00000000
00000000
00011000
00011000
00000000
,
00001010
00001010
00000000
00000110
00000110
00000000
00001001
00001001
,
00000000
00000110
00000000
00011000
00000000
00001000
01000000
01000000
,
00000000
01100000
01100000
00000000
10010000
10010000
00000000
00101000
,
00101000
00000000
00011000
00000000
00000110
00000000
00000000
00001001
,
00000000
00000000
00001010
00001010
00000000
00011000
00011000
00000000
,
01100000
01100000
00000000
10010000
10010000
00000000
00000000
11000000
,
00000000
01010000
00000000
00100000
00001000
00001000
00000000
00011000
,
00011000
00000000
00000110
00000110
00000000
00001001
00001001
00000000
,
00000110
00000000
00001100
00000000
00000000
00110000
00000000
01100000
,
00000000
00110000
00022000
00033000
;

//---------------dance-double - Blank----------------
#NOTES:
     dance-double:
     Blank:
     Medium:
     8:
     0.632,0.555,0.142,0.369,0.000:
00000000
00000000
10000000
00000000
00000000
00100000
00010000
00000000
,
00000000
00100000
00000000
00000000
10000000
01000000
00010000
00001000
,
00000010
00000001
00001000
00000000
00000000
00000010
00000001
00000000
,
00000000
00000010
00000000
00000000
00000001
00000010
00001000
00010000
,
01000000
10000000
01000000
00010000
01000000
10000000
02000000
00000000
,
03100000
00010000
00100000
10000000
00200000
00000000
00300000
00000000
,
10000000
01000000
00100000
00010000
10000000
00100000
00010000
00100000
,
10000000
00010000
00100000
00001000
00010000
00000010
00000200
00000000
,
00000300
00000000
00000001
00000000
00000000
00000010
00001000
00000000
,
00000000
00000010
00000000
00000000
00000001
00000100
00001000
00010000
,
00100000
10000000
00010000
00000000
00000000
00100000
10000000
00000000
,
00000000
00100000
00000000
00000000
10000000
00100000
00010000
00001000
,
00000100
00000001
00000100
00001000
00000100
00000001
00000200
00000000
,
00000310
00001000
00000010
00000001
00000020
00000000
00000031
00000100
,
00000010
00001000
00000001
00000010
00000200
00000000
00000000
00000000
,
00000300
00000000
00000000
00000000
,
00000001
00000100
00000001
00000000
00000001
00001000
00000001
00000100
,
00000000
00000100
00000001
00000100
00001000
00010000
00100000
10000000
,
00010000
10000000
00010000
00000000
00010000
10000000
00010000
00100000
,
00000000
00100000
10000000
00100000
00010000
00001000
00000100
00000001
,
00000100
00001000
00000010
00000000
00000010
00001000
00000010
00000100
,
00000000
00000100
00000001
00000100
00001000
00010000
00100000
10000000
,
00010000
10000000
00010000
00000000
00010000
10000000
00010000
01000000
,
00000000
01000000
10000000
01000000
00010000
00001000
00000010
00000001
,
00000010
00000000
00000000
00001000
00000100
00000000
00000000
00000001
,
00000000
00000000
00000100
00001000
00010000
01000000
10000000
00100000
,
01000000
00000000
00000000
10000000
01000000
00000000
00000000
00100000
,
00000000
00000000
10000000
01000000
00010000
00001000
00000010
00000001
,
00001000
00000010
00000001
00000010
00002000
00000000
00003001
00000010
,
00001000
00000010
00000002
00000000
00001003
00000010
00000100
00000001
,
00000010
00000100
00001000
00000100
00010000
00001000
01000000
00100000
,
10000000
00010000
00100000
02000000
00000000
03000000
00000000
00000000
,
10000000
00000000
00000000
00010000
01000000
00000000
00000000
10000000
,
00000000
00000000
01000000
00010000
00001000
00000100
00000001
00000100
,
00001000
00000000
00000000
00000001
00000100
00000000
00000000
00001000
,
00000000
00000000
00000100
00001000
00010000
01000000
10000000
00100000
,
01000000
10000000
01000000
00010000
02000000
00000000
03100000
10000000
,
00100000
00010000
00200000
00000000
10300000
01000000
00100000
00010000
,
01000000
00100000
10000000
00010000
00100000
00001000
00010000
00000010
,
00000100
00000001
00001000
00000001
00000010
00000100
00001000
00000010
,
00000100
00000001
00000100
00000000
00000100
00000001
00000100
00000010
,
00000000
00000010
00000001
00000010
00001000
00010000
01000000
10000000
,
01000000
00010000
01000000
00000000
01000000
00010000
01000000
00100000
,
00000000
00100000
10000000
00100000
00010000
00001000
00000100
00000001
,
00000010
00000001
00000010
00000000
00000010
00000001
00000010
00000100
,
00000000
00000100
00000001
00000100
00001000
00010000
00100000
10000000
,
00100000
00010000
00100000
00000000
00100000
00010000
00100000
01000000
,
00000000
01000000
10000000
00100000
01000000
00010000
00100000
01000000
,
00100000
00010000
00100000
00010000
00100000
10000000
00100000
10000000
,
00100000
00010000
00100000
00010000
01000000
00010000
01000000
00010000
,
01000000
10000000
01000000
10000000
01000000
00010000
01000000
00010000
,
01000000
10000000
01000000
00010000
00001000
00000010
00000001
00000000
,
00000010
00001000
00000010
00001000
00000010
00000001
00000010
00000001
,
00000010
00001000
00000010
00001000
00000100
00001000
00000100
00001000
,
00000100
00000001
00000100
00000001
00000100
00001000
00000100
00001000
,
00000100
00000001
00000100
00000001
00000100
00001000
00000100
00000000
,
00001010
00000000
00001010
00000000
00000010
00001000
00000010
00000000
,
00001100
00000010
00001100
00000010
,
00011000
00000000
00011000
00000000
00100000
00001000
00100000
00000000
,
00110000
00000000
01000000
00000000
00110000
00000000
00220000
00330000
,
00000000
20000000
00000000
00000000
,
00000000
00000000
30000000
00000000
,
00000000
00000000
10000000
02000000
00000000
03100000
02000000
00000000
,
03010000
02000000
00000000
03001000
01000000
00000000
00010000
00001000
,
00000000
00000100
00000000
00000001
00000100
00000200
00000000
00000310
,
00000200
00000000
00001300
00000200
00000000
00000310
00000100
00000000
,
00001100
00000000
00011000
00000000
00000000
01000000
00000000
00000000
,
00010000
02000000
00000000
03100000
02000000
00000000
13000000
02000000
,
00000000
03100000
02000000
00000000
03000000
00001000
00000000
00010000
,
00000000
00000001
00001000
00000020
00000000
00000031
00000020
00000000
,
00000130
00000020
00000000
00001030
00000010
00000000
00000110
00000000
,
00001001
00000000
00000000
00001100
00000000
00011000
00000000
00000000
,
01100000
00000000
10010000
00000000
00000000
10000000
00200000
00000000
,
01300000
00200000
00000000
00310000
00200000
00000000
01300000
00200000
,
00000000
01300000
00000000
00001000
00000000
00010000
00000100
00000020
,
00000000
00000031
00000020
00000000
00000130
00000020
00000000
00001030
,
00000020
00000000
00000031
00000000
00000100
00000000
00000000
00010000
,
00000000
10000000
00100000
00200000
00000000
01300000
00200000
00000000
,
00310000
00200000
00000000
01300000
00200000
00000000
00300000
01000000
,
00000000
00001000
00000000
00010000
00000010
00000200
00000000
00001300
,
00000200
00000000
00000310
00000200
00000000
00000301
00000200
00000000
,
00000310
00000000
00001000
00000000
00000000
01000000
00000000
00001000
,
00000000
00010000
00000020
00000030
;

//---------------dance-double - Blank----------------
#NOTES:
     dance-double:
     Blank:
     Easy:
     5:
     0.358,0.381,0.117,0.218,0.000:
00000000
00000000
00100000
00000000
00000000
10000000
00000000
00000000
,
01000000
00000000
00000000
00010000
00000000
00000000
00001000
00000000
,
00000010
00000000
00000001
00000000
00000000
00000100
00000000
00000000
,
00001000
00000000
00000000
00000100
00000000
00000000
00000001
00000000
,
00001000
00000200
00010000
00001300
,
00020000
00000100
00031000
01000000
,
00100000
10000000
00010000
00100000
,
01000000
00000000
10000000
00000000
00100000
20000000
30000000
00000000
,
00000000
00000000
01000000
00000000
00000000
10000000
00000000
00000000
,
00100000
00000000
00000000
00010000
00000000
00000000
00001000
00000000
,
00000100
00000000
00000001
00000000
00000000
00000010
00000000
00000000
,
00001000
00000000
00000000
00000010
00000000
00000000
00000001
00000000
,
00000100
00000020
00001000
00000130
,
00020000
00000100
00031000
00000100
,
00010000
00001000
02000000
00000000
,
03000000
00000000
00000000
00000000
,
10100000
00000000
00100000
00000000
01000000
00000000
00000000
00010000
,
00000000
00100000
00001000
00010000
,
00010010
00000000
00000010
00000000
00000100
00000000
00000000
00000001
,
00000000
00000010
00000100
00001000
,
00001100
00000000
00000100
00000000
00010000
00000000
00000000
00001000
,
00000000
01000000
00100000
10000000
,
10010000
00000000
00010000
00000000
00100000
00000000
00000000
00001000
,
00000000
00010000
00001000
00010000
,
00000010
00000000
00000000
00001000
00000000
00000000
00000100
00000000
,
00000000
00010000
00000000
00000000
00001000
00000000
01000000
00000000
,
10000000
00000000
00000000
01000000
00000000
00000000
00010000
00000000
,
00000000
00100000
00000000
00000000
10000000
00000000
00100000
00000000
,
00020000
01000000
00130000
20000000
,
00010000
30100000
01000000
00100000
,
10000000
01000000
00010000
00001000
,
00000010
00000000
00000001
00000200
00000300
00000000
00000000
00000000
,
00000010
00000000
00000000
00000001
00000000
00000000
00000100
00000000
,
00000000
00001000
00000000
00000000
00010000
00000000
00100000
00000000
,
10000000
00000000
00000000
01000000
00000000
00000000
00010000
00000000
,
00000000
01000000
00000000
00000000
10000000
00000000
00100000
00000000
,
02000000
00001000
03010000
00200000
,
00001000
00310000
00000010
00000100
,
00000001
00000010
00000100
00002000
,
00000002
00000000
00003003
00000000
,
00000110
00000000
00000010
00000000
00001000
00000000
00000000
00000100
,
00000000
00010000
00001000
01000000
,
01100000
00000000
00100000
00000000
10000000
00000000
00000000
00010000
,
00000000
10000000
01000000
00100000
,
00110000
00000000
00100000
00000000
00001000
00000000
00000000
00010000
,
00000000
00000010
00001000
00000100
,
00000110
00000000
00000010
00000000
00000001
00000000
00000000
00001000
,
00000000
00000001
00000100
00000010
,
00001000
00000100
00010000
00011000
,
00001000
01000000
00100000
10100000
,
10000000
01000000
00100000
00110000
,
00100000
00001000
00020000
00030020
,
00000130
00000001
00000010
00000110
,
00000100
00001000
00000001
00001001
,
00001000
00000100
00010000
00011000
,
00001000
01000000
00100000
10000000
,
00010000
00000000
00010000
00000000
00000000
01000000
00000000
00000000
,
00100000
00000000
10000000
00000000
,
00001000
00000000
00001000
00000000
00000000
00010000
00000000
00000000
,
00000010
00000000
00000000
00000000
00000100
00000000
00000200
00000300
,
00000000
00000002
00000000
00000000
,
00000003
00000000
00000000
00000000
,
00000000
00000000
00000200
00000000
00000000
00001000
00000000
00000000
,
00000001
00000000
00000000
00001300
00000000
00000000
00000000
00010000
,
00000000
00001000
00000000
00000000
02000000
00000000
00000000
10000000
,
00000000
00000000
00010000
00000000
00000000
13000000
00000000
00000000
,
00100000
00000000
00100000
00000000
00000000
01000000
00000000
00000000
,
00200000
00000000
00000000
10000000
00000000
00000000
00010000
00000000
,
00000000
10300000
00000000
00000000
00000000
00001000
00000000
00010000
,
00000000
00000000
00000200
00000000
00000000
00000001
00000000
00000000
,
00001000
00000000
00000000
00000301
00000000
00000000
00001000
00000000
,
00000100
00000000
00000000
00010000
00000000
00001000
00000000
00000000
,
01000000
00000000
01000000
00000000
00000000
00200000
00000000
00000000
,
10000000
00000000
00000000
00010000
00000000
00000000
10300000
00000000
,
00000000
00001000
00000000
00010000
00000000
00000000
00000020
00000000
,
00000000
00001000
00000000
00000000
00000001
00000000
00000000
00001030
,
00000000
00000000
00000100
00000000
00010000
00000000
00000000
00001000
,
00000000
00000000
00200000
00000000
00000000
10000000
00000000
00000000
,
00010000
00000000
00000000
10300000
00000000
00000000
00000000
00001000
,
00000000
00010000
00000000
00000000
00000200
00000000
00000000
00000001
,
00000000
00000000
00001000
00000000
00000000
00000301
00000000
00000000
,
00001000
00000000
00000100
00000000
00000000
00010000
00000000
00001000
,
00000000
01000000
00200000
00300000
;
