#TITLE:Rhythm is a Dancer;
#SUBTITLE:;
#ARTIST:Pegboard Nerds & Tia Simone;
#TITLETRANSLIT:;
#SUBTITLETRANSLIT:;
#ARTISTTRANSLIT:;
#GENRE:;
#CREDIT:;
#BANNER:;
#BACKGROUND:;
#LYRICSPATH:;
#CDTITLE:;
#MUSIC:riad.mp3;
#OFFSET:-0.101;
#SAMPLESTART:82.596;
#SAMPLELENGTH:12.000;
#SELECTABLE:YES;
#BPMS:0.000=128.000;
#STOPS:;
#BGCHANGES:;
#KEYSOUNDS:;

//---------------dance-single - Blank----------------
#NOTES:
     dance-single:
     Blank:
     Challenge:
     9:
     0.528,0.853,0.272,0.132,0.241:
0000
0000
0000
0000
,
0000
0000
0000
0000
,
0000
0000
0000
0000
,
0000
0000
0000
0000
,
1000
0000
0000
0000
0010
0000
0000
1000
0000
0000
0001
0000
0000
0000
0100
0000
,
0010
0000
0000
0000
0100
0000
0000
0001
0000
0000
0010
0000
0000
0000
0100
0000
,
1000
0000
0000
0000
0010
0000
0000
0100
0000
0000
0001
0000
0000
0000
1000
0000
,
0100
0000
0000
0000
0010
0000
0000
0001
0000
0000
0100
0000
0000
0000
0010
0000
,
0100
0000
0000
0000
0010
0000
0000
1000
0000
0000
0001
0000
0000
0000
1000
0000
,
0100
0000
0000
0000
0010
0000
0000
0001
0000
0000
0100
0000
0000
0000
0001
0000
,
1000
0000
0000
0000
0010
0000
0000
1000
0000
0000
0100
0000
0000
0000
0010
0000
,
0001
0000
0000
0000
0100
0000
0000
0010
0000
0000
1000
0000
0000
0000
0001
0000
,
1000
0000
0000
0000
0100
0000
0000
0001
0100
0000
1000
0000
0001
0000
1000
0000
,
0010
0000
0000
0000
0100
0000
0000
1000
0100
0000
0001
0000
1000
0000
0001
0000
,
0100
0000
0000
0000
0010
0000
0000
0001
0010
0000
1000
0000
0001
0000
1000
0000
,
0100
0000
0000
0000
0010
0000
0000
1000
0010
0000
0001
0000
1000
0000
0010
0000
,
0100
0000
0000
0000
0001
0000
0000
0100
1000
0000
0100
0000
0001
0000
1000
0000
,
0001
0000
0000
0000
1000
0000
0000
0100
0001
0000
0100
0000
1000
0000
0001
0000
,
1000
0000
0000
0000
0001
0000
0000
0010
1000
0000
0010
0000
0001
0000
1000
0000
,
0001
0000
0000
0000
1000
0000
0000
0010
0001
0000
0010
0000
1000
0000
0001
0000
,
1000
1000
0001
0001
0100
0100
0010
0010
,
1000
0100
0010
0001
1000
0100
0010
0001
,
0100
0100
0010
0010
1000
1000
0001
0001
,
1000
0100
0010
0001
1000
0100
0010
0010
,
0001
1000
0001
1000
0010
1000
0010
0100
0001
0100
0010
1000
0001
1000
0100
0010
,
0001
0100
0010
1000
0001
1000
0010
0100
0001
0010
0100
1000
0001
0100
0010
0100
,
0040
0000
0000
0030
,
MMMM
0000
0000
MMMM
,
1001
0000
MMMM
0000
0201
0000
0000
1000
0000
0000
0001
0000
0000
0000
0301
0000
,
1001
0000
MMMM
0000
1200
0000
0000
0001
0000
0000
1000
0000
0000
0000
1300
0000
,
1001
0000
MMMM
0000
0201
0000
0000
1000
0000
0000
0010
0000
0300
0000
0001
0000
,
0100
1000
0100
0001
0010
1000
0010
0001
,
1001
0000
MMMM
0000
0021
0000
0000
1000
0000
0000
0001
0000
0000
0000
0031
0000
,
1001
0000
MMMM
0000
1020
0000
0000
0001
0000
0000
1000
0000
0100
0000
1030
0000
,
0001
0000
0010
0000
0100
0000
1000
0001
0100
0000
0010
0000
1000
0000
0010
0000
,
0100
0000
0001
0000
1000
0000
0001
0010
0100
0000
2000
0000
0010
0000
3010
0000
,
0110
0000
MMMM
0000
0201
0000
0010
0000
0000
1000
0000
0000
0010
0000
0301
0000
,
0110
0000
MMMM
0000
1200
0000
0010
0000
0000
0001
0000
0000
0010
0000
1300
0000
,
0110
0000
MMMM
0000
0201
0000
0010
0000
0000
1000
0000
0000
0010
0000
0301
0000
,
1000
0100
0001
0100
1000
0010
0001
0010
,
0110
0000
MMMM
0000
1020
0000
0100
0000
0000
0001
0000
0000
0100
0000
1030
0000
,
0110
0000
MMMM
0000
0021
0000
1000
0000
0000
0100
0000
0000
0001
0000
0130
0000
,
1000
0000
0010
0000
0100
0000
0001
0010
0100
0000
1000
0000
0010
0000
0100
0000
,
0001
0000
1000
0000
0100
0000
0001
0100
1000
0000
0010
0000
0100
0000
0000
0000
,
0010
0000
0100
0000
0001
0000
0000
0010
1000
0000
0001
0000
0100
0000
1000
0000
,
0010
0000
0100
0000
0001
0000
0000
1000
0010
0000
0001
0000
1000
0000
0100
0000
,
0001
0000
0010
0000
1000
0000
0000
0001
0100
0000
1000
0000
0010
0000
0100
0000
,
0001
0100
1000
0100
0001
0100
0010
0000
,
0100
0000
0010
0000
1000
0000
0000
0010
0001
0000
1000
0000
0100
0000
0001
0000
,
0010
0000
1000
0000
0001
0000
0000
0100
1000
0000
0001
0000
0010
0000
1000
0000
,
0001
0000
0100
0000
0010
0000
0000
0001
1000
0000
0100
0000
0001
0000
1000
0000
,
0010
0001
0010
1000
0001
1000
0100
0000
,
0011
0000
MMMM
0000
1100
0000
0000
0010
0100
0000
0010
0000
1000
0000
0001
0000
,
0101
0000
MMMM
0000
1010
0000
0000
0001
0010
0000
0100
0000
1000
0000
0001
0000
,
1001
0000
MMMM
0000
0110
0000
0000
1000
0100
0000
1000
0000
0010
0000
1000
0000
,
1100
0000
MMMM
0000
0011
0000
0000
0100
0001
0000
0100
0000
0010
0000
1000
0000
,
1001
0000
MMMM
0000
0110
0000
0000
0001
0010
0000
0001
0000
0100
0000
0010
0000
,
0110
0000
MMMM
0000
1001
0000
0000
0100
1000
0000
0010
0000
0100
0000
0001
0000
,
0011
0000
MMMM
0000
1100
0000
0000
0010
0100
0000
0001
0000
0100
0000
0010
0000
,
1000
0000
0100
0000
0010
0000
0001
1000
0001
0000
0100
0000
0010
0000
1000
0000
,
0001
0200
0000
0000
0300
0000
0000
0000
,
0001
0100
1000
0100
0001
0100
1000
0100
,
0002
0000
0003
0000
,
1000
0000
0100
0000
0010
0000
0001
0000
0100
0000
0000
0100
0000
0000
0000
0000
,
0010
0200
0000
0000
0300
0000
0000
0000
,
1000
0010
0001
0010
1000
0010
0001
0010
,
2000
0000
3000
0000
,
0001
0000
0010
0000
0100
0000
1000
0000
0010
0000
0000
0010
0000
0000
0000
0000
,
0220
0000
0330
0000
;

//---------------dance-single - Blank----------------
#NOTES:
     dance-single:
     Blank:
     Hard:
     8:
     0.490,0.474,0.109,0.101,0.183:
0000
0000
0000
0000
,
0000
0000
0000
0000
,
0000
0000
0000
0000
,
0000
0000
0000
0000
,
1000
0000
0010
0000
0100
0000
0010
0000
1000
0000
0000
0001
0000
0000
0001
0000
,
1000
0000
0100
0000
0010
0000
0100
0000
1000
0000
0000
0001
0000
0000
0001
0000
,
1000
0000
0010
0000
0100
0000
0001
0000
0010
0000
0000
0010
0000
0000
0010
0000
,
0200
0000
0000
2300
0000
0000
0000
0000
,
3001
0000
0100
0000
0010
0000
0100
0000
0001
0000
0000
1000
0000
0000
1000
0000
,
0001
0000
0010
0000
0100
0000
0010
0000
0001
0000
0000
1000
0000
0000
1000
0000
,
0010
0000
0100
0000
0001
0000
0010
0000
0100
0000
0000
0100
0000
0000
0200
0000
,
0000
0000
0300
1000
,
0010
0000
0000
0000
0100
0000
0000
0001
1000
0000
0001
0000
0100
0000
0001
0000
,
1000
0000
0000
0000
0100
0000
0000
0010
0001
0000
0010
0000
0100
0000
0010
0000
,
0001
0000
0000
0000
0100
0000
0000
0010
1000
0000
0010
0000
0100
0000
0010
0000
,
1000
0000
0000
0000
0001
0000
0000
1000
0010
0000
1000
0000
0001
0000
1000
0000
,
0010
0000
0000
0000
0100
0000
0000
0001
1000
0000
0001
0000
0100
0000
0001
0000
,
1000
0000
0000
0000
0100
0000
0000
1000
0010
0000
1000
0000
0100
0000
1000
0000
,
0010
0000
0000
0000
0100
0000
0000
0010
0100
0000
0001
0000
0100
0000
0010
0000
,
0100
0000
0000
0000
0001
0000
0000
1000
0001
0000
0010
0000
0000
0000
0000
0000
,
0001
0001
0010
0010
0100
0100
1000
1000
,
0001
0100
0010
1000
0001
0100
0010
1000
,
0001
0001
0010
0010
0100
0100
1000
1000
,
0010
0000
0100
0000
0010
0000
0100
0000
0001
0000
0000
1000
0000
0000
0000
0000
,
0010
0100
0001
1000
0100
0001
0100
0010
,
0001
0100
0010
1000
0001
0010
0100
1000
,
0020
0000
0000
0000
,
0130
0000
0000
1001
,
0010
0000
0000
0000
0101
0000
0000
0001
0100
0000
1000
0000
0100
0000
0001
0000
,
1000
0000
0000
0000
1010
0000
0000
1000
0010
0000
0001
0000
0010
0000
1000
0000
,
0001
0000
0000
0000
0011
0000
0000
0001
0010
0000
1000
0000
0010
0000
0001
0000
,
0100
0010
0100
0010
1000
0001
1000
0001
,
0100
0000
0000
0000
1010
0000
0000
1000
0010
0000
0001
0000
0010
0000
1000
0000
,
0001
0000
0000
0000
1001
0000
0000
0001
0010
0000
1000
0000
0010
0000
0001
0000
,
0100
0000
0010
0000
1000
0000
0000
0010
1000
0000
0001
0000
1000
0000
0100
0000
,
0010
0000
0001
0000
0100
0000
0000
0010
0100
0000
0010
0000
0M00
0000
0M00
0000
,
0010
0000
0000
0000
0001
0000
0100
0000
0000
1000
0000
0000
0100
0000
0001
0000
,
1000
0000
0000
0000
1000
0000
0100
0000
0000
0001
0000
0000
0100
0000
1000
0000
,
0001
0000
0000
0000
0001
0000
0010
0000
0000
1000
0000
0000
0010
0000
0001
0000
,
1000
0010
0100
0001
1000
0001
0200
0000
,
1300
0000
0000
0000
0001
0000
0010
0000
0000
1000
0000
0000
0100
0000
0001
0000
,
0000
0000
0000
0000
0001
0000
0100
0000
0000
1000
0000
0000
0010
0000
0001
0000
,
0100
0000
0010
0000
1000
0000
0000
0001
1000
0000
0100
0000
0010
0000
0100
0000
,
1000
0000
0010
0000
0100
0000
0000
0001
0100
0000
0010
0000
0100
0000
0000
0000
,
0001
0000
0010
0000
0100
0000
1000
0010
1000
0000
0010
0000
0100
0000
0001
0000
,
1000
0000
0001
0000
0010
0000
0100
1000
0001
0000
1000
0000
0020
0000
0000
0000
,
0130
0000
0001
0000
0010
0000
0001
1000
0010
0000
1000
0000
0100
0000
0010
0000
,
0001
0000
0100
0000
0010
0000
1000
0100
1000
0000
0010
0000
0200
0000
0000
0000
,
0301
0000
1000
0000
0010
0000
1000
0001
0100
0000
0010
0000
0100
0000
0001
0000
,
0010
0000
0100
0000
1000
0000
0010
1000
0010
0000
0100
0000
0020
0000
0000
0000
,
1030
0000
0100
0000
0010
0000
0001
1000
0010
0000
0100
0000
0001
0000
0100
0000
,
0010
0000
1000
0000
0001
0000
0010
0100
1000
0000
0001
0000
2000
0000
0000
0000
,
3010
0000
0000
0000
0110
0000
0000
0100
0001
0000
0100
0000
0010
0000
1000
0000
,
0001
0000
0000
0000
1001
0000
0000
1000
0100
0000
0010
0000
0001
0000
0100
0000
,
0010
0000
0000
0000
0110
0000
0000
0100
0001
0000
1000
0000
0100
0000
1000
0000
,
0010
0000
0000
0000
0101
0000
0000
0100
0010
0000
1000
0000
0001
0000
1000
0000
,
0100
0000
0000
0000
0110
0000
0000
0010
0001
0000
1000
0000
0010
0000
0100
0000
,
0001
0000
0000
0000
1001
0000
0000
0001
1000
0000
0010
0000
0100
0000
0001
0000
,
1000
0000
0000
0000
1100
0000
0000
0100
0010
0000
0001
0000
0100
0000
0010
0000
,
0100
0000
0000
0000
1001
0000
0000
0001
0010
0000
0001
0000
0100
0000
0010
0000
,
0100
0200
0000
0000
0300
0000
0000
0000
,
0001
0100
0010
1000
0001
0100
0010
1000
,
0002
0000
0003
0000
,
1000
0000
0001
0000
1000
0000
0010
0000
0100
0000
0000
0010
0000
0000
0000
0000
,
0010
0020
0000
0000
0030
0000
0000
0000
,
1000
0100
0010
0001
1000
0100
0010
0001
,
2000
0000
3000
0000
,
0001
0000
0100
0000
0010
0000
0100
0000
0001
0000
0000
1000
0000
0000
0000
0000
;

//---------------dance-single - Blank----------------
#NOTES:
     dance-single:
     Blank:
     Medium:
     5:
     0.336,0.421,0.039,0.265,0.012:
0000
0000
0000
0000
,
0000
0000
0000
0000
,
0000
0000
0000
0000
,
0000
0000
0000
0000
,
1000
0000
0010
0100
0002
0000
0000
0000
,
1003
0000
0100
0010
0002
0000
0000
0000
,
0103
0010
0100
0000
0001
0000
1000
0000
,
0020
0030
0200
0300
,
0001
0000
0100
0010
2000
0000
0000
0000
,
3001
0000
0010
0100
2000
0000
0000
0000
,
3010
0100
0001
0100
0010
0000
0100
0000
,
0002
0003
2000
3000
,
0010
1000
0100
1000
,
0010
0001
0100
0001
,
0010
1000
0100
0001
,
0100
1000
0010
0100
,
0001
0010
1000
0010
,
0001
0100
1000
0010
,
0200
0300
0002
0003
,
2000
3000
0020
0030
,
2000
0001
0001
0001
,
3001
0100
0010
1000
0001
0100
0010
1000
,
0002
1000
1000
1000
,
1003
0000
0100
0000
0010
0000
0001
0000
1000
0000
0000
1000
0000
0000
0000
0000
,
1000
0001
1000
0001
0100
0010
0100
0010
,
1000
0001
0100
0010
1000
0001
1000
0010
,
0200
0000
0300
0000
,
0010
0000
0000
1001
,
0010
0000
0100
0000
0001
0100
1000
0000
,
0100
0000
0010
0000
1000
0010
0001
0000
,
0010
0000
0100
0000
1000
0100
0001
0000
,
1000
1000
0001
0001
,
1001
0000
0100
0000
1000
0100
0001
0000
,
0100
0000
0010
0000
1000
0010
0001
0000
,
0200
0300
0020
0030
,
1000
0001
1001
0000
,
0100
0000
0001
1000
0000
0000
1000
0001
,
0000
0000
0100
0010
0000
0000
0010
0100
,
0000
0000
0001
1000
0000
0000
1000
0001
,
0100
0100
0010
0010
,
1000
0000
0001
0010
0000
0000
1000
0010
,
0000
0000
0001
0100
0000
0000
1000
0100
,
0001
0010
0200
0300
,
1000
0001
2002
3003
,
0010
0100
0002
0103
,
2000
3100
0002
0103
,
0010
1000
0001
0010
,
0200
0000
1300
0000
,
0100
0010
0002
0013
,
2000
3010
0002
0013
,
0100
1000
0010
0100
,
0002
0000
1003
0000
,
0100
0000
0010
0000
0100
0001
0010
0000
,
0100
0000
1000
0000
0010
0100
0001
0000
,
0010
0000
0100
0000
1000
0001
0100
0000
,
0010
0100
0202
0303
,
0001
0000
1000
0000
0010
1000
0100
0000
,
0010
0000
0001
0000
0100
0001
1000
0000
,
0010
0000
0100
0000
0001
1000
0001
0000
,
0010
0100
1000
1000
,
0020
0030
0000
0000
,
1000
0001
1000
0001
0100
0010
0100
0010
,
2000
0000
3000
0000
,
0001
0000
1000
0000
0001
0000
1000
0000
0010
0000
0000
0010
0000
0000
0000
0000
,
0200
0000
0300
0000
,
0100
0010
0100
0010
1000
0001
1000
0001
,
0200
0000
0300
0000
,
0010
0000
1000
0000
0010
0000
1000
0000
0001
0000
0000
0001
0000
0000
0000
0000
;

//---------------dance-single - Blank----------------
#NOTES:
     dance-single:
     Blank:
     Easy:
     2:
     0.176,0.159,0.008,0.140,0.000:
0000
0000
0000
0000
,
0000
0000
0000
0000
,
0000
0000
0000
0000
,
0000
0000
0000
0000
,
1000
0100
0001
0000
,
1000
0010
0001
0000
,
1000
0000
0001
0000
,
0100
0000
0000
0000
,
0001
0010
1000
0000
,
0001
0100
1000
0000
,
0001
0000
1000
0000
,
0010
0000
0000
0100
,
0200
0300
0000
0001
,
0002
0003
0000
1000
,
2000
3000
0000
0100
,
0010
0000
0001
1000
,
2000
3000
0000
0010
,
0020
0030
0000
0100
,
0100
0000
0001
0000
,
1000
0000
0000
0000
,
0010
0000
0000
0000
,
1000
0001
1000
0001
,
1000
0000
0000
0000
,
0010
0100
0010
0000
,
0200
0000
0000
0000
,
0000
0000
0000
0000
,
0320
0000
0030
0000
,
0000
0000
0000
0000
,
1000
1000
0010
0000
,
0001
0001
0010
0000
,
1000
1000
0010
0000
,
0001
0000
0001
0000
,
1000
1000
0100
0000
,
0001
0001
0100
0000
,
1000
0000
0010
0000
,
0100
0000
0100
0000
,
0001
0010
0100
0000
,
1000
0010
0100
0000
,
0001
0010
0100
0000
,
1000
0000
1000
0000
,
1000
0100
0010
0000
,
0001
0100
0010
0000
,
0100
0000
0001
0000
,
1000
0000
0020
0030
,
0100
0000
0001
0000
,
0010
0000
1000
0000
,
0100
0000
0001
0000
,
2000
0000
3000
0000
,
0010
0000
0100
0000
,
0001
0000
1000
0000
,
0100
0000
0010
0000
,
0002
0000
0003
0100
,
0200
0300
0000
0010
,
0020
0030
0000
0001
,
0002
0003
0000
1000
,
1000
0000
0010
0100
,
0200
0300
0000
0001
,
0002
0003
0000
0010
,
0010
0000
0100
0000
,
1000
0000
0010
0000
,
0100
0000
0000
0000
,
0001
1000
0001
1000
,
0020
0030
0000
0000
,
0100
0010
0200
0300
,
0001
0000
0000
0000
,
0100
0010
0100
0010
,
2000
3000
0000
0000
,
0001
0001
1000
0000
,
1001
0000
0000
0000
;

//---------------dance-single - Blank----------------
#NOTES:
     dance-single:
     Blank:
     Beginner:
     1:
     0.109,0.106,0.023,0.000,0.000:
0000
0000
0000
0000
,
0000
0000
0000
0000
,
0000
0000
0000
0000
,
0000
0000
0000
0000
,
1000
0000
0000
0000
,
0010
0000
0000
0000
,
0100
0000
0100
0000
,
0100
0000
0000
0000
,
0001
0000
0000
0000
,
1000
0000
0000
0000
,
0010
0000
0010
0000
,
0010
0000
0000
0100
,
0100
0000
0000
0001
,
0001
0000
0000
1000
,
1000
0000
0000
0010
,
0010
0000
0000
0000
,
0001
0001
0000
0000
,
0100
0100
0000
0000
,
0010
0010
0000
0000
,
0000
0000
0000
0000
,
1000
0000
0000
0000
,
0001
0000
0001
0000
,
0100
0000
0000
0000
,
0010
0000
0010
0000
,
0100
0000
0000
0000
,
0000
0000
0000
0000
,
0010
0000
0000
0000
,
1000
0000
0000
0000
,
0001
0000
0001
0000
,
1000
0000
1000
0000
,
0010
0000
0010
0000
,
0100
0000
0000
0000
,
0001
0000
0001
0000
,
0010
0000
0010
0000
,
0100
0000
0000
0000
,
1000
0000
0000
0000
,
0010
0000
0010
0000
,
0100
0000
0100
0000
,
0001
0000
0001
0000
,
1000
0000
0000
0000
,
0010
0000
0010
0000
,
0100
0000
0100
0000
,
0001
0000
0000
0000
,
1000
0000
0000
0000
,
0010
0000
0000
0000
,
0100
0000
0000
0000
,
0001
0000
0001
0000
,
0001
0000
0000
0000
,
0010
0000
0000
0000
,
0100
0000
0000
0000
,
1000
0000
1000
0000
,
1000
0000
0000
0010
,
0010
0000
0000
0100
,
0100
0000
0000
0001
,
0001
0000
0000
0000
,
0010
0000
0010
0000
,
0100
0000
0000
1000
,
1000
0000
0000
0010
,
0010
0000
0000
0000
,
0000
0000
0000
0000
,
0100
0000
0000
0000
,
0001
0000
0001
0000
,
1001
0000
0000
0000
,
0100
0000
0100
0000
,
0100
0000
0000
0000
,
0010
0000
0010
0000
,
0110
0000
0000
0000
,
1000
0000
0001
0000
,
1001
0000
0000
0000
;

//---------------dance-double - Blank----------------
#NOTES:
     dance-double:
     Blank:
     Challenge:
     9:
     0.451,0.451,0.070,0.070,0.206:
00000000
00000000
00000000
00000000
,
00000000
00000000
00000000
00000000
,
00000000
00000000
00000000
00000000
,
00000000
00000000
00000000
00000000
,
10000000
00000000
01000000
00000000
00010000
00000000
01000000
00000000
10000000
00000000
00000000
00100000
00000000
00000000
01000000
00000000
,
00010000
00000000
00001000
00000000
00000010
00000000
00000100
00000000
00000001
00000000
00000000
00001000
00000000
00000000
00000000
00000000
,
00000001
00000000
00000010
00000000
00000100
00000000
00001000
00000000
00000010
00000000
00000000
00000100
00000000
00000000
00000002
00000000
,
00000000
00000000
00000000
00020000
00000003
00000000
00000000
00000000
,
00031000
00000000
00000010
00000000
00000001
00000000
00000010
00000000
00001000
00000000
00000000
00010000
00000000
00000000
00001000
00000000
,
01000000
00000000
00100000
00000000
10000000
00000000
00010000
00000000
00100000
00000000
00000000
01000000
00000000
00000000
00000000
00000000
,
10000000
00000000
01000000
00000000
00100000
00000000
00010000
00000000
01000000
00000000
00000000
00100000
00000000
00000000
20000000
00000000
,
00000000
00000000
30000000
00100000
,
01000000
00000000
00000000
00000000
00010000
00000000
00000000
00100000
00001000
00000000
00010000
00000000
00001000
00000000
00000010
00000000
,
00000001
00000000
00000000
00000000
00000100
00000000
00000000
00000010
00000100
00000000
00000001
00000000
00000010
00000000
00000100
00000000
,
00001000
00000000
00000000
00000000
00000100
00000000
00000000
00010000
00001000
00000000
01000000
00000000
00100000
00000000
10000000
00000000
,
00010000
00000000
00000000
00000000
10000000
00000000
00000000
01000000
00100000
00000000
00010000
00000000
00100000
00000000
00001000
00000000
,
00010000
00000000
00000000
00000000
00000100
00000000
00000000
00010000
00001000
00000000
00010000
00000000
00000100
00000000
00000010
00000000
,
00000001
00000000
00000000
00000000
00000100
00000000
00000000
00000010
00000100
00000000
00000010
00000000
00001000
00000000
00000100
00000000
,
00010000
00000000
00000000
00000000
00001000
00000000
00000000
00010000
01000000
00000000
10000000
00000000
00010000
00000000
01000000
00000000
,
00100000
00000000
00000000
00000000
10000000
00000000
00000000
00010000
10000000
00000000
01000000
00000000
00100000
00000000
00010000
00000000
,
10000000
10000000
01000000
01000000
00100000
00100000
00010000
00010000
,
00001000
00000100
00000010
00000001
00001000
00000100
00000010
00000001
,
00000100
00000100
00000010
00000010
00001000
00001000
00000100
00000100
,
00010000
00000000
00001000
00000000
00010000
00000000
00001000
00000000
00100000
00000000
00000000
00100000
00000000
00000000
00100000
00000000
,
00010000
01000000
00100000
00010000
00100000
10000000
00010000
00100000
,
01000000
00010000
01000000
10000000
00100000
01000000
00010000
00100000
,
00001000
00010000
00001000
00010000
00001000
00010000
00001000
00010000
00001000
00010000
00001000
00010000
00001000
00010000
00001000
00010000
,
00001000
00000000
00000000
00000000
00000000
00M00000
000M0000
0000M000
MMMMMM00
0000M000
000M0000
00M00000
,
00000001
00000000
00000000
00000000
00000010
00000000
00000000
00001000
00000000
00000000
00010000
00000000
00000000
00000000
01000000
00000000
,
10000000
00000000
00000000
00000000
00100000
00000000
00000000
00010000
00000000
00000000
00001000
00000000
00000000
00000000
00000100
00000000
,
00000001
00000000
00000000
00000000
00000010
00000000
00000000
00001000
00000000
00000000
00010000
00000000
00000000
00000000
01000000
00000000
,
10000000
00100000
01000000
00100000
10000000
00010000
00100000
00010000
,
10000000
00000000
00000000
00000000
00100000
00000000
00000000
00010000
00000000
00000000
00001000
00000000
00000000
00000000
00000100
00000000
,
00000001
00000000
00000000
00000000
00000010
00000000
00000000
00001000
00000000
00000000
00010000
00000000
00000000
00000000
01000000
00000000
,
10000000
00000000
00100000
00000000
01000000
00000000
00000000
00010000
01000000
00000000
00010000
00000000
00100000
00000000
00001000
00000000
,
00010000
00000000
00000010
00000000
00000100
00000000
00000000
00000001
00001000
00000000
00001000
00000000
00000000
00000000
00000000
00000000
,
00000001
00000000
00000000
00000000
00000100
00000000
00001000
00000000
00000000
00010000
00000000
00000000
01000000
00000000
10000000
00000000
,
10000000
00000000
00000000
00000000
00100000
00000000
00010000
00000000
00000000
00001000
00000000
00000000
00000010
00000000
00000001
00000000
,
00000001
00000000
00000000
00000000
00000100
00000000
00001000
00000000
00000000
00010000
00000000
00000000
01000000
00000000
10000000
00000000
,
10000000
00000000
00100000
00000000
01000000
00000000
00010000
00000000
10000000
00000000
00000000
10000000
00000000
00000000
00000000
00000000
,
10000000
00000000
00000000
00000000
00100000
00000000
00010000
00000000
00000000
00001000
00000000
00000000
00000010
00000000
00000001
00000000
,
00000001
00000000
00000000
00000000
00000100
00000000
00001000
00000000
00000000
00010000
00000000
00000000
01000000
00000000
10000000
00000000
,
10000000
00000000
00100000
00000000
01000000
00000000
00000000
00010000
01000000
00000000
00100000
00000000
10000000
00000000
00010000
00000000
,
00100000
00000000
00001000
00000000
00100000
00000000
00000000
00001000
00010000
00000000
00000010
00000000
00000100
00000000
00000000
00000000
,
00000001
00000100
00001000
00000100
00000010
00000100
00001000
00000100
,
00000001
00000100
00010000
00000100
00000001
00000100
00000010
00000000
,
00000001
00000000
00000010
00000000
00000100
00000000
00001000
00000000
00000100
00000000
00000000
00010000
00000000
00000000
00002000
00000000
,
00000000
00000000
00000000
02000000
00003000
00000000
03000000
00000000
,
00100000
01000000
10000000
01000000
00010000
01000000
10000000
01000000
,
00100000
01000000
10000000
01000000
00001000
01000000
10000000
00000000
,
00010000
00000000
00100000
00000000
01000000
00000000
10000000
00000000
00100000
00000000
00000000
01000000
00000000
00000000
00020000
00000000
,
00000000
00000000
00000000
00030000
00000000
00000000
00110000
00000000
,
00011000
00000000
00000000
00000000
00000100
00000000
00000000
00000010
00000001
00000000
00000100
00000000
00000010
00000000
00001000
00000000
,
00000010
00000000
00000000
00000000
00000100
00000000
00000000
00000001
00001000
00000000
00000100
00000000
00001100
00000000
00000000
00000000
,
00011000
00000000
00000000
00000000
00001000
00000000
00000000
00100000
01000000
00000000
10000000
00000000
00100000
00000000
01000000
00000000
,
00010000
00000000
00000000
00000000
00100000
00000000
00000000
00001000
00010000
00000000
00000010
00000000
00000110
00000000
00000000
00000000
,
00001001
00000000
00000000
00000000
00000100
00000000
00000000
00010000
00001000
00000000
00100000
00000000
01000000
00000000
10000000
00000000
,
00100000
00000000
00000000
00000000
01000000
00000000
00000000
00010000
00100000
00000000
00001000
00000000
00011000
00000000
00000000
00000000
,
00001010
00000000
00000001
00000010
00001000
00000000
00010000
01000000
,
10000000
00000000
10000000
00100000
01000000
00000000
00010000
00000000
,
00200000
00300000
00000000
00000000
,
10000000
01000000
01000000
00010000
10000000
00100000
00100000
00010000
,
00000000
00000000
00000000
00000000
,
10000000
00000000
00100000
00000000
00010000
00000000
00100000
00000000
10000000
00000000
00000000
10000000
00000000
00000000
00000000
00000000
,
00010000
00001000
00000000
00000000
00000000
00000000
00000000
00000000
,
00000001
00000010
00000010
00001000
00000001
00000100
00000100
00001000
,
00000000
00000000
00000000
00000000
,
00000001
00000000
00000010
00000000
00001000
00000000
00000010
00000000
00000001
00000000
00000000
00000001
00000000
00000000
00000000
00000000
,
00000220
00000330
00000000
00000000
;

//---------------dance-double - Blank----------------
#NOTES:
     dance-double:
     Blank:
     Hard:
     7:
     0.406,0.425,0.156,0.257,0.047:
00000000
00000000
00000000
00000000
,
00000000
00000000
00000000
00000000
,
00000000
00000000
00000000
00000000
,
00000000
00000000
00000000
00000000
,
10000000
00100000
01000000
00100000
01000000
00000000
00010000
00000000
,
00100000
01000000
10000000
01000000
00100000
00000000
00010000
00000000
,
00001000
00000100
00000010
00000001
00000100
00000000
00000010
00000000
,
00000200
00000300
00000002
00000003
,
00000001
00001000
00000010
00001000
00000010
00000000
00000100
00000000
,
00000001
00000010
00000100
00001000
00000100
00000000
00010000
00000000
,
00001000
01000000
00100000
01000000
00010000
00000000
10000000
00000000
,
00200000
00300000
00000000
12000000
,
00010000
00000000
00000000
13000000
,
00100000
00010000
00001000
00000201
,
00001000
00000000
00000000
00000301
,
00000010
00001000
00010000
10200000
,
00010000
00000000
00000000
10300000
,
01000000
00010000
00001000
00000010
,
00000022
00000033
00000202
00000303
,
00002200
00003300
00022000
00033000
,
00010000
00001000
00100000
00001000
00010000
00001000
00100000
00001000
,
00010000
00000010
00000100
00000001
00010000
00000010
00000100
00000001
,
00010000
00000100
00001000
00000100
00010000
00000100
00001000
00000100
,
00010000
00001000
01000000
00100000
10000000
00000000
00010000
00000000
,
10000000
10000000
01000000
01000000
00100000
00100000
00010000
00010000
,
00001000
00001000
00000100
00000100
00000010
00000010
00000001
00000001
,
00002002
00000000
00000000
00003003
,
0000M00M
00000000
00000000
00000000
,
00001000
00000000
00000000
00000000
00000100
00000000
00000000
00000001
00000000
00000000
00000010
00000000
00000000
00000000
00001000
00000000
,
00000100
00000000
00000000
00000000
00000100
00000000
00000000
00000001
00000000
00000000
00000010
00000000
00000000
00000000
00001000
00000000
,
00000100
00000000
00000000
00000000
00000100
00000000
00000000
00000001
00000000
00000000
00000010
00000000
00000000
00000000
00001000
00000000
,
00000100
00010000
00001000
01000000
00100000
10000000
00010000
00100000
,
01000000
00000000
00000000
00000000
10000000
00000000
00000000
00100000
00000000
00000000
00010000
00000000
00000000
00000000
01000000
00000000
,
10000000
00000000
00000000
00000000
10000000
00000000
00000000
00100000
00000000
00000000
00010000
00000000
00100000
00000000
10000000
00000000
,
00010000
01000000
10000000
00000000
00010000
00100000
10000000
00000000
,
00100000
00001000
00010000
00000010
00000100
00000000
00000000
00000000
,
00000001
00000000
00000000
00000000
00000100
00000000
00001000
00000000
00000000
00000100
00000000
00000000
00000001
00000000
00001000
00000000
,
00000001
00000000
00000000
00000000
00000010
00000000
00001000
00000000
00000000
00000010
00000000
00000000
00000001
00000000
00001000
00000000
,
00000001
00000000
00000000
00000000
00000100
00000000
00001000
00000000
00000000
00000100
00000000
00000000
00000001
00000000
00001000
00000000
,
00000100
00010000
00001000
01000000
00100000
10000000
00010000
01000000
,
00100000
00000000
00000000
00000000
10000000
00000000
01000000
00000000
00000000
00010000
00000000
00000000
01000000
00000000
10000000
00000000
,
00010000
00000000
00000000
00000000
10000000
00000000
00100000
00000000
00000000
00010000
00000000
00000000
00100000
00000000
10000000
00000000
,
00010000
00000000
00100000
01000000
10000000
00000000
00100000
01000000
,
00001000
00000000
00010000
00000100
00020000
00000000
00030000
00000000
,
00000010
00001000
00000001
00001000
00000100
00000000
00000010
00000000
,
00000001
00000100
00000010
00001000
00000100
00000000
00010000
00000000
,
00001000
01000000
00100000
10000000
00010000
00000000
00100000
00000000
,
22000000
33000000
02020000
03030000
,
10000000
00100000
00010000
00100000
10000000
00000000
00010000
00000000
,
00100000
00001000
00010000
00001000
00100000
00000000
00001000
00000000
,
00010000
00000010
00000001
00000010
00001000
00000000
00000100
00000000
,
00000020
00000030
00000002
00001003
,
00001100
00000000
00000010
00001000
00000100
00000000
00010000
00000000
,
00011000
00000000
00001000
01000000
00100000
00000000
10000000
00000000
,
10010000
00000000
10000000
01000000
00010000
00000000
00001000
00000010
,
00000001
00000000
00000100
00000010
00000100
00000000
00000010
00000000
,
00001010
00000000
00000001
00001000
00000100
00000000
00010000
00000000
,
00011000
00000000
00001000
00000010
00000001
00000000
00000100
00000000
,
00000220
00000330
00022000
00033000
,
20020000
30030000
02200000
03300000
,
00100000
00000000
00000000
00000000
,
10000000
01000000
00100000
00010000
10000000
01000000
00100000
00010000
,
01000000
00000000
00000000
00000000
,
00010000
00000000
00100000
00000000
00010000
00000000
00100000
00000000
00010000
00000000
00000000
00010000
00000000
00000000
00000000
00000000
,
00000010
00000000
00000000
00000000
,
00000001
00000100
00000010
00001000
00000001
00000100
00000010
00001000
,
00000001
00000010
00000000
00000000
00000000
00000000
00000000
00000000
,
00000001
00000000
00000010
00000000
00001000
00000000
00000010
00000000
00000001
00000000
00000000
00000001
00000000
00000000
00000000
00000000
,
00002002
00003003
00000000
00000000
;

//---------------dance-double - Blank----------------
#NOTES:
     dance-double:
     Blank:
     Medium:
     4:
     0.309,0.316,0.194,0.171,0.000:
00000000
00000000
00000000
00000000
,
00000000
00000000
00000000
00000000
,
00000000
00000000
00000000
00000000
,
00000000
00000000
00000000
00000000
,
10000000
00100000
01000000
00001000
,
00010000
00000010
00000200
00000300
,
00000001
00000010
00000100
00001000
,
00000200
00000300
00020000
00030000
,
00001000
01000000
00100000
10000000
,
01000000
00100000
00020000
00030000
,
00001000
00000010
00000001
00000100
,
00000020
00000030
00000000
00000100
,
00000010
00000000
00001000
00000000
00000001
00000000
00001000
00000100
,
00010000
00000000
00001000
00000000
01000000
00000000
00100000
01000000
,
00100000
00000000
10000000
00000000
00010000
00000000
10000000
01000000
,
00100000
00010000
02020000
03030000
,
00100000
00000000
00010000
00000000
00001000
00000000
00010000
00000100
,
00001000
00000010
00000100
00000001
,
00001001
00000000
00001100
00000000
,
00010100
00000000
00011000
00001000
,
01000000
00000000
00100000
00000000
01000000
00000000
00010000
10000000
,
00100000
00000000
00100000
10000000
00010000
00000000
00100000
00000000
,
00001000
00000000
00010000
00000000
00000010
00000000
00000100
00000001
,
00001000
00000001
00002000
00000000
00003000
00000000
00000000
00000000
,
00000001
00000010
00000100
00001000
,
00010000
00100000
01000000
10000000
,
02200000
00000000
00000000
03300000
,
00000000
00000000
00000000
00000000
,
10010000
10000000
00100000
00010000
,
10010000
00010000
01000000
10000000
,
10010000
10000000
00100000
00010000
,
00002000
00003000
00000020
00000030
,
00001001
00000001
00000010
00001000
,
00001001
00001000
00000100
00000001
,
00001000
00000000
00000010
00000000
00001000
00000100
00010000
00000000
,
00001000
01000000
00200000
00300000
,
10010000
00000000
10000000
00010000
10000000
00000000
00100000
00000000
,
10010000
00000000
00010000
10000000
00010000
00000000
01000000
00000000
,
10010000
00000000
10000000
00010000
10000000
00000000
00100000
00000000
,
01000000
00001000
00010000
00000010
,
00001001
00000000
00000001
00001000
00000001
00000000
00000100
00000000
,
00001001
00000000
00001000
00000001
00001000
00000000
00000010
00000000
,
00000200
00000300
00000002
00000003
,
00001000
00000100
00020000
00030000
,
00001000
01000000
00010000
00000000
01000000
00000000
00100000
00000000
,
10000000
00010000
10000000
00000000
01000000
00000000
00000000
00000000
,
00100000
00010000
00100000
00000000
00001000
00000000
00010000
00000000
,
00000010
00000100
00000002
00000003
,
00001000
00000001
00001000
00000000
00000100
00000000
00010000
00000000
,
00001000
01000000
00100000
00000000
01000000
00000000
00100000
00000000
,
10000000
00010000
10000000
00000000
01000000
00000000
00100000
00000000
,
00020000
00030000
00002000
00003000
,
00001001
00000001
00001000
00000000
,
00011000
00001000
00010000
00000000
,
10010000
10000000
00010000
00000000
,
01000000
00100000
01000000
00000000
,
10010000
10000000
00010000
00000000
,
00011000
00001000
00010000
00000000
,
00001001
00000000
00000101
00000000
,
00000110
00000000
00011000
00000000
,
01000000
00000000
00000000
00000000
,
10000000
00010000
01000000
00000000
01000000
00010000
10000000
00000000
,
00100000
00000000
00000000
00000000
,
10000000
00010000
10000000
00010000
20000000
00000000
30000000
00000000
,
00010000
00000000
00000000
00000000
,
00100000
00001000
00010000
00000000
00010000
00001000
00100000
00000000
,
00002000
00003000
00000000
00000000
,
00000100
00000010
00000100
00000010
00000200
00000000
00000300
00000000
;

//---------------dance-double - Blank----------------
#NOTES:
     dance-double:
     Blank:
     Easy:
     3:
     0.239,0.211,0.132,0.124,0.000:
00000000
00000000
00000000
00000000
,
00000000
00000000
00000000
00000000
,
00000000
00000000
00000000
00000000
,
00000000
00000000
00000000
00000000
,
10000000
10000000
00100000
00000000
,
00100000
00100000
00010000
00000000
,
00001000
00000100
00000010
00000001
,
00000100
00000000
00000010
00000000
,
00000001
00000001
00000100
00000000
,
00000100
00000100
00001000
00000000
,
00010000
00100000
01000000
10000000
,
00100000
00000000
01000000
00100000
,
10100000
00000000
00000000
01000000
,
00100000
00110000
00000000
00001000
,
00011000
00000000
00000000
00001000
,
00000010
00000001
00000010
00001000
,
00001001
00000000
00000000
00000100
,
00010000
00011000
00000000
01000000
,
00200000
00300000
20000000
30000000
,
00020000
00030000
00200000
00300000
,
00022000
00033000
00000000
00000000
,
00000010
00000010
00000100
00000100
,
00000000
00000000
00000000
00000000
,
01000000
01000000
00100000
00000000
,
10000000
00100000
01000000
00010000
,
00100000
00001000
00010000
00000010
,
00000200
00000000
00000000
00000300
,
00000000
00000000
00000000
00000000
,
00000001
00000100
00001000
00000100
,
00000001
00000010
00001000
00000010
,
00000001
00000100
00001000
00000100
,
00000010
00010000
00011000
00000000
,
00010000
00100000
10000000
00100000
,
00010000
01000000
10000000
01000000
,
00020000
00030000
20000000
30000000
,
00100000
00001000
00011000
00000000
,
00010000
01000000
10000000
01000000
,
00010000
00100000
10000000
00100000
,
00010000
01000000
10000000
01000000
,
00010000
00001000
00011000
00000000
,
00001000
00000100
00000001
00000100
,
00001000
00000010
00000001
00000010
,
00002000
00003000
00000200
00000300
,
00010000
00001000
00011000
00000000
,
00010000
00100000
00100000
00000000
,
10000000
00100000
00100000
00000000
,
00010000
01000000
00100000
10000000
,
00010000
00000000
00001000
00000000
,
00001000
00000010
00000010
00000000
,
00000001
00000010
00000010
00000000
,
00000001
00000010
00000100
00001000
,
00000010
00000000
00000100
00001000
,
00001100
00000000
00000000
00010000
,
00001000
00011000
00000000
01000000
,
01100000
00000000
00000000
00010000
,
10000000
00100000
01100000
00000000
,
01000000
00000000
00000000
00010000
,
00100000
00110000
00000000
00001000
,
00002000
00003000
00000020
00000030
,
00000002
00000003
00000200
00000300
,
00001000
00000000
00000000
00000000
,
00000001
00000001
00000100
00000100
,
00000110
00000000
00000000
00000000
,
00001000
00010000
00001000
00000000
,
01000000
00000000
00000000
00000000
,
10000000
10000000
00010000
00010000
,
01100000
00000000
00000000
00000000
,
00010000
00001000
00010000
00001000
00020000
00000000
00030000
00000000
;
