#TITLE:Lucky;
#SUBTITLE:Hot Stuff Short Mix;
#ARTIST:Lucky Twice;
#TITLETRANSLIT:;
#SUBTITLETRANSLIT:;
#ARTISTTRANSLIT:;
#GENRE:;
#CREDIT:;
#BANNER:;
#BACKGROUND:bkd.png;
#LYRICSPATH:;
#CDTITLE:;
#MUSIC:Lucky.mp3;
#OFFSET:-0.068;
#SAMPLESTART:80.303;
#SAMPLELENGTH:12.000;
#SELECTABLE:YES;
#BPMS:0.000=132.000;
#STOPS:;
#BGCHANGES:;
#KEYSOUNDS:;

//---------------dance-single - Blank----------------
#NOTES:
     dance-single:
     Blank:
     Challenge:
     9:
     0.671,0.632,0.430,0.438,0.235:
0000
0000
0000
0000
,
0000
0000
0000
0000
,
0000
0000
0000
0000
,
0000
0000
0000
0000
,
0010
0000
1010
1000
0001
0010
0011
0001
,
0000
0001
0011
0001
1000
0010
1010
0010
,
2002
0000
0000
0000
0000
0000
0000
0020
,
0000
0030
3003
0000
1010
0000
1001
0000
,
0010
0000
1000
0001
1000
0000
0010
1000
0001
0000
0010
0000
0001
0000
0200
0000
,
0000
0000
0301
0010
0001
0000
1000
0001
0100
0000
0010
0000
1000
0000
0100
0000
,
0000
0000
0100
0010
0000
0000
0010
0001
0000
0000
0001
1000
0010
0000
1000
0000
,
0000
0000
1000
0001
0000
0000
0001
0010
0000
0000
0010
0100
1000
0000
1000
0000
,
0001
0000
1000
0010
0100
0000
0020
0000
0000
0000
1030
0001
0010
0000
0200
0000
,
0000
0000
1300
0001
1000
0000
0010
0000
0100
0000
0101
0000
0001
0000
2002
0000
,
0003
0000
3010
0100
0001
0000
2000
0000
0000
0000
3001
0010
0001
0000
0200
0000
,
0000
0000
0310
1000
0001
0000
0010
0000
0001
0000
1001
0000
1000
0000
2020
0000
,
0030
0000
3010
0100
0001
0000
0020
0000
0000
0000
0130
1000
0001
0000
2000
0000
,
0000
0000
3001
0100
0001
0000
0010
0000
0100
0000
1100
0000
1000
0000
2002
0000
,
3000
0000
0103
0010
1000
0000
0002
0000
0000
0000
0013
0100
1000
0000
0020
0000
,
0000
0000
1030
0010
0100
0000
0001
0000
0010
0000
1010
0000
0010
0000
0010
0000
,
0001
1000
0010
0001
0020
0000
1030
0100
,
0001
0200
1000
0310
0000
1001
0000
0010
,
0010
0001
0010
1000
0020
0000
0031
0100
,
1000
0200
1000
0301
0000
1010
0000
0100
,
0010
0000
1000
0010
0100
0000
0020
0000
0000
0000
1030
0001
0100
0000
0002
0000
,
0000
0000
0013
0100
1000
0000
0010
0000
0100
0000
0101
0000
0001
0000
2002
0000
,
0003
0000
3001
0010
0001
0000
0200
0000
0000
0000
0310
0100
0010
0000
2000
0000
,
0000
0000
3001
0010
0001
0000
0001
0000
1000
0000
1010
0000
0010
0000
0220
0000
,
0030
0000
0310
0001
1000
0000
0020
0000
0000
0000
0130
0010
1000
0000
0200
0000
,
0000
0000
0301
1000
0001
0000
0010
0000
0100
0000
1100
0000
1000
0000
2002
0000
,
3000
0000
0103
0010
1000
0000
0002
0000
0000
0000
0013
0100
0010
0000
0200
0000
,
0000
0000
1300
0001
0100
0000
0010
0000
1000
0000
1001
0000
0010
0000
0100
0000
,
0100
0001
0100
1000
0200
0000
0301
0010
,
1000
0020
0001
0130
0000
1100
0000
0010
,
0010
0001
0010
1000
0020
0000
0031
0100
,
1000
0200
0010
0301
0000
1001
1000
0000
,
0020
0000
0000
1000
0130
1000
0200
1000
,
0000
1300
0000
1000
0001
1000
0001
1000
,
0200
0000
0000
0010
0301
0010
0002
0010
,
0000
0013
0000
0010
0001
0100
0010
1000
,
0010
0100
0101
0001
1000
0000
1010
0010
,
0100
0001
0011
0001
2000
3000
0110
0100
,
0001
1000
1001
0001
0020
0030
1100
1000
,
0010
0100
0101
0001
1001
0000
0110
0000
,
1000
0000
0001
1000
0001
0000
0010
0000
0001
0000
0101
0000
0001
0000
0101
0000
,
0000
0000
0010
0100
0010
0000
1000
0000
0100
0000
1100
0000
0100
0000
1100
0000
,
0010
0000
0001
0100
0001
0000
1000
0000
0010
0000
0110
0000
0010
0000
0110
0000
,
0000
0000
0001
1000
0001
0000
0100
0000
0001
0000
0011
0000
0001
0000
0011
0000
,
0100
0100
1000
0010
0200
0000
0301
0010
,
0001
0001
0100
0010
2000
0000
3100
0100
,
0010
0001
0010
1000
0010
0001
0100
0001
,
0100
1000
0100
0001
0101
0000
1001
0000
,
0010
0000
1000
0001
1000
0000
0001
0100
0010
0000
1000
0000
0100
0000
2000
0000
,
0000
0000
3010
0100
0001
0000
0100
0001
0100
0000
0010
0000
1000
0000
0002
0000
,
0000
0000
0013
0100
1000
0000
1000
0100
1000
0000
0010
0000
0100
0000
0002
0000
,
0000
0000
1003
0010
1000
0000
0010
0100
0010
0100
0001
0000
1000
0000
0001
0000
,
0010
0000
0000
0010
0100
0000
0000
0100
1000
0000
0001
0000
1000
0000
0010
0000
,
0100
0000
0000
0100
0001
0000
0000
0001
0010
0000
0100
0000
1000
0000
0001
0000
,
1000
0000
0000
1000
0010
0000
0000
0010
0100
0000
0001
0000
1000
0000
0010
0000
,
0100
0000
0000
0100
0001
0000
0000
0001
0010
0000
0100
0000
1000
0000
0010
0000
,
0100
0000
0001
1000
0010
0000
0100
0000
0001
0000
0011
0000
0001
0000
0011
0000
,
0000
0000
1000
0010
1000
0000
0010
0000
0100
0000
0101
0000
0100
0000
0101
0000
,
0010
0000
1000
0100
1000
0000
0010
0000
0100
0000
1100
0000
0100
0000
1100
0000
,
0000
0000
0100
0001
0100
0000
0001
0000
0010
0000
0011
0000
0010
0000
0011
0000
,
0001
0001
1000
0010
0200
0000
0310
1000
,
0001
0001
0010
0100
2000
0000
3010
0100
,
0001
0001
1000
0010
0001
0010
1000
0001
,
0010
0010
0100
1000
1001
0000
0100
0000
,
0220
0000
0000
0000
,
0330
0000
0000
0000
;

//---------------dance-single - Blank----------------
#NOTES:
     dance-single:
     Blank:
     Hard:
     7:
     0.484,0.440,0.207,0.032,0.000:
0000
0000
0000
0000
,
0000
0000
0000
0000
,
0000
0000
0000
0000
,
0000
0000
0000
0000
,
0010
0000
1000
0001
0100
0010
0100
0010
,
0000
0010
1000
0001
0010
0001
0010
0001
,
2000
0000
0000
0000
0000
0000
0000
0020
,
3000
0030
1001
0110
,
1000
0010
0100
0010
1000
0001
0000
0010
,
0000
0100
1000
0001
1000
0010
0000
0100
,
0000
0001
1000
0010
1000
0010
1000
0001
,
0010
0100
1000
0010
,
0100
0001
1000
0001
0100
0000
0010
1000
,
0010
1000
0010
0000
0100
0010
0100
0001
,
0100
1001
0010
1001
,
0100
0000
1001
0000
0010
0001
0000
1000
,
1000
0010
0100
0001
1000
0000
0001
0010
,
0001
0010
0001
0000
0100
0010
1000
0001
,
0010
0100
1000
0000
0001
0000
0110
0000
,
1000
0000
0110
0000
0010
1000
0000
0001
,
0100
0001
0100
0001
0100
0000
0010
1000
,
0001
1000
0000
0110
0000
0001
0000
1000
,
0010
0100
0010
1000
0010
0000
0001
0010
,
0100
1000
0000
0110
0000
0001
0010
0001
,
1000
0001
1000
0001
1000
0000
0010
0100
,
0001
0100
0010
0000
0001
1000
0001
0010
,
0001
0010
0100
0000
0010
0000
1001
0000
,
0100
0000
1001
0000
0010
0001
0000
1000
,
0010
0100
0010
0100
0001
0000
1000
0100
,
1000
0001
1000
0000
0001
0100
0010
0100
,
0001
1000
0001
0000
0010
0000
1100
0000
,
0010
0000
0101
0000
0010
1000
0000
0100
,
0001
0100
0001
1000
0010
0000
0100
0001
,
1000
0010
0000
0100
0000
1001
0000
0010
,
0001
1000
0001
0100
0010
0000
1000
0100
,
0010
0100
0000
1000
0000
0010
0100
0000
,
1001
0000
0000
0100
0010
0100
0010
0100
,
0000
0001
0000
0100
0010
0100
0010
0100
,
1000
0000
0000
0001
1000
0001
1000
0001
,
0000
0100
0000
0001
1000
0001
1000
0001
,
0010
0010
0100
1000
0001
0000
0100
0010
,
1000
1000
0001
0010
0100
0000
1000
0010
,
0100
0100
0001
1000
0010
0000
1000
0100
,
0010
0001
0010
0100
1100
0000
1001
0000
,
0100
0000
0000
0010
1000
0001
0010
0001
,
0000
0100
0000
0010
1000
0001
0100
0001
,
1000
0000
0000
0100
0010
1000
0010
0100
,
0000
0001
0000
1000
0100
0010
0100
1000
,
0010
0010
0100
0001
1000
0000
0001
0010
,
0001
0001
0100
0010
1000
0000
0100
0100
,
0010
1000
0001
0010
0100
1000
0100
0010
,
0100
1000
0001
0100
0110
0000
1001
0000
,
0010
1000
0001
1000
0010
0100
0000
0001
,
0000
0010
0001
1000
0001
0010
0100
1000
,
0000
0010
1000
0001
1000
0010
0100
0001
,
0000
0001
0010
0100
1100
0000
1001
0000
,
0010
1000
0001
0010
0100
0010
0100
1000
,
0000
1000
0010
0100
0001
1000
0001
0100
,
0000
0100
0010
1000
0100
0010
0001
0100
,
0000
0010
1000
0001
0011
0000
1001
0000
,
0100
0000
0000
0010
1000
0001
0010
0001
,
0000
0100
0000
0010
1000
0001
1000
0010
,
0100
0000
0000
0100
0010
1000
0001
0010
,
0000
0100
0000
0001
0010
1000
0010
0001
,
1000
1000
0010
0100
0001
0000
1000
0010
,
0100
0100
0001
0010
0100
0000
1000
0100
,
0010
0010
0100
1000
0001
0100
0010
1000
,
0001
0001
0010
0100
1100
0000
0110
0000
,
2002
0000
0000
0000
,
3003
0000
0000
0000
;

//---------------dance-single - Blank----------------
#NOTES:
     dance-single:
     Blank:
     Medium:
     5:
     0.348,0.330,0.263,0.080,0.000:
0000
0000
0000
0000
,
0000
0000
0000
0000
,
0000
0000
0000
0000
,
0000
0000
0000
0000
,
0010
1001
0100
0001
,
1000
0110
0100
0001
,
2000
0000
0000
0000
,
3020
0030
1000
1100
,
0010
0100
0001
0011
,
0010
1000
0001
0110
,
1000
0100
0010
0101
,
0010
1000
0001
0011
,
0100
0000
0010
1000
0010
0000
0100
0000
,
0001
1000
0000
0010
0000
0100
0000
0002
,
0000
1003
0100
0001
,
1000
0010
0100
0001
,
0010
0000
1000
0100
1000
0000
0010
0000
,
0001
0010
0000
0100
0000
1000
0000
0020
,
0000
0130
1000
0001
,
0100
0010
1000
0001
,
0100
0010
0100
0010
0100
0000
0000
0000
,
0001
1000
0001
0000
,
0010
0100
0010
0100
0010
0000
0000
0000
,
1000
0001
0010
0100
,
1000
0000
0010
0100
0010
0000
1000
0000
,
0001
0100
0000
0010
0000
1000
0000
0002
,
0000
0013
1000
0100
,
0001
0010
1000
0001
,
0100
0000
0010
1000
0010
0000
0100
0000
,
1000
0100
0000
0010
0000
1000
0000
0002
,
0000
0103
0010
1000
,
0001
0010
0100
0000
,
1000
0001
1000
0001
1000
0000
0000
0000
,
0010
0100
0001
0000
,
0001
1000
0001
1000
0001
0000
0000
0000
,
0100
0010
1000
0010
,
0022
0000
0000
0000
,
0000
0000
0000
0033
,
1000
0000
0000
0001
0100
0001
0100
0001
,
0000
1000
0000
0001
0100
0001
0100
0000
,
0010
1000
1001
0000
,
0010
0001
0110
0000
,
1000
0100
0001
0010
,
0100
0001
1010
0011
,
0100
0000
0000
0001
1000
0001
1000
0001
,
0000
0010
0000
0001
1000
0001
1000
0001
,
0100
0000
0000
0010
0100
0010
0100
0010
,
0000
1000
0000
0010
0100
0010
0100
0000
,
1000
0001
0101
0000
,
0010
1000
1100
0000
,
0010
1000
0001
0010
,
0100
1000
0011
1010
,
0100
1100
0010
1000
,
0001
0011
0100
1000
,
0010
0101
0010
1000
,
0010
0101
1100
0110
,
0001
1010
0100
1000
,
0010
1001
0010
0001
,
0100
0011
0100
0010
,
1000
0110
1001
0101
,
1000
0000
0000
0001
0100
0001
0100
0001
,
0000
1000
0000
0001
0100
0001
0100
0001
,
1000
0000
0000
1000
0010
1000
0010
1000
,
0000
0100
0000
1000
0010
1000
0010
1000
,
0100
0001
1001
0000
,
0010
1000
0110
0000
,
0001
1000
0010
0010
,
0100
0001
1010
0011
,
2002
0000
0000
0000
,
3003
0000
0000
0000
;

//---------------dance-single - Blank----------------
#NOTES:
     dance-single:
     Blank:
     Easy:
     3:
     0.216,0.220,0.008,0.048,0.000:
0000
0000
0000
0000
,
0000
0000
0000
0000
,
0000
0000
0000
0000
,
0000
0000
0000
0000
,
0010
0000
0100
0100
,
0000
0001
1000
0001
,
0000
0100
0000
0010
,
0000
0000
1000
1000
,
0001
0000
0100
0000
,
0010
0000
1000
0000
,
0100
0000
0001
0000
,
0010
0000
1000
0000
,
0100
0100
1000
0000
,
0001
0100
0010
0010
,
0010
1000
0000
0001
,
0000
0100
0000
1000
,
1000
0010
0100
0000
,
0001
1000
0010
0010
,
0010
0100
0000
1000
,
0000
0010
0000
0000
,
0001
1000
0001
0000
,
0100
0010
0100
0000
,
0001
0010
1000
0000
,
0001
0100
1000
0000
,
0010
1000
0001
0000
,
0100
0010
1000
1000
,
1000
0001
0000
0010
,
0000
1000
0000
0100
,
0001
0001
0010
0000
,
0001
1000
0010
0010
,
0010
0100
0000
0001
,
0000
1000
0000
0000
,
0100
0001
1000
0000
,
0001
0010
1000
0000
,
0010
0001
1000
0000
,
0001
0100
1000
0010
,
0020
0000
0000
0000
,
0000
0000
0000
0030
,
1000
0000
0001
0001
,
0000
1000
0001
0001
,
0100
0010
0100
0000
,
0001
0010
1000
0000
,
0100
0100
0100
0000
,
0010
0010
1000
0001
,
0010
0000
1000
1000
,
0000
0010
1000
1000
,
0100
0000
0001
0001
,
0000
0100
0001
0001
,
1000
0010
1000
0000
,
0001
0010
1000
0000
,
0010
1000
0010
0000
,
0100
0001
0010
0010
,
2000
0000
0000
3000
,
0002
0000
0000
0003
,
0200
0000
0000
0300
,
0010
0000
1000
0001
,
0010
0100
0010
0100
,
1000
0100
1000
0100
,
1000
0001
1000
0001
,
0100
0001
0010
0010
,
1000
0000
0001
0001
,
0000
1000
0001
0001
,
0100
0000
0010
0010
,
0000
0100
0010
0010
,
1000
0001
1000
0000
,
0001
0010
1000
0000
,
0010
0010
1000
0001
,
0100
0100
0001
1000
,
2002
0000
0000
0000
,
3003
0000
0000
0000
;

//---------------dance-single - Blank----------------
#NOTES:
     dance-single:
     Blank:
     Beginner:
     1:
     0.089,0.108,0.032,0.000,0.000:
0000
0000
0000
0000
,
0000
0000
0000
0000
,
0000
0000
0000
0000
,
0000
0000
0000
0000
,
0010
0000
0000
0000
,
1000
0000
0000
0000
,
0001
0000
0000
0000
,
0010
0000
0000
0000
,
1001
0000
0000
0000
,
0100
0000
0000
0000
,
0001
0000
1000
0000
,
0001
0000
0000
0000
,
0010
0000
0000
0000
,
1000
0000
0000
0000
,
0001
0000
0000
0000
,
0100
0000
0000
0000
,
0010
0000
0000
0000
,
0100
0000
0000
0000
,
0001
0000
0000
0000
,
0010
0000
0000
0000
,
1000
0000
1000
0000
,
1000
0000
0000
0000
,
0001
0000
0001
0000
,
0001
0000
0000
0000
,
0100
0000
0000
0000
,
0010
0000
0000
0000
,
1000
0000
0000
0000
,
0001
0000
0000
0000
,
0010
0000
0000
0000
,
0100
0000
0000
0000
,
0001
0000
0000
0000
,
0010
0000
0000
0000
,
0100
0000
0100
0000
,
0100
0000
0000
0000
,
0010
0000
0010
0000
,
0010
0000
0000
0000
,
0110
0000
0000
0000
,
0000
0000
0000
0000
,
1000
0000
0000
0000
,
0001
0000
0000
0000
,
0010
0000
0000
0000
,
0100
0000
0000
0000
,
1000
0000
0000
0000
,
0001
0000
0000
0000
,
0010
0000
0000
0000
,
0001
0000
0000
0000
,
0100
0000
0000
0000
,
1000
0000
0000
0000
,
0010
0000
0100
0000
,
0010
0000
1000
0000
,
0001
0000
0000
0000
,
1000
0000
0000
0000
,
0110
0000
0000
0000
,
0000
0000
0000
0000
,
0010
0000
0000
0000
,
1000
0000
0000
0000
,
0001
0000
1000
0000
,
0010
0000
0100
0000
,
0001
0000
0000
0000
,
1000
0000
0000
0000
,
0010
0000
0000
0000
,
0100
0000
0000
0000
,
0001
0000
0000
0000
,
0010
0000
0000
0000
,
1000
0000
1000
0000
,
1000
0000
0000
0000
,
0001
0000
0001
0000
,
0001
0000
0000
0000
,
0110
0000
0000
0000
;

//---------------dance-double - Blank----------------
#NOTES:
     dance-double:
     Blank:
     Challenge:
     10:
     0.624,0.605,0.462,0.335,0.163:
00000000
00000000
00000000
00000000
,
00000000
00000000
00000000
00000000
,
00000000
00000000
00000000
00000000
,
00000000
00000000
00000000
00000000
,
00100000
00000000
01000000
00010000
10000000
00000000
00010000
00000000
00100000
00000000
00110000
00000000
00100000
00000000
00110000
00000000
,
00000000
00000000
00001000
00100000
00001000
00000000
00010000
00000000
00000010
00000000
00000110
00000000
00000010
00000000
00000110
00000000
,
00002000
00000000
00000000
00000000
00000000
00000000
00000000
00020000
,
00000000
00033000
00101000
00010010
,
00000100
00000000
00000001
00001000
00000010
00000000
00000100
00000001
00000010
00000000
00000100
00000000
00001000
00000000
00000020
00000000
,
00000000
00000000
00001030
00000100
00001000
00000000
00000100
00010000
00001000
00000000
01000000
00000000
00010000
00000000
20000000
00000000
,
00000000
00000000
30100000
01000000
00010000
00000000
10000000
00010000
10000000
00000000
00010000
00000000
00100000
00000000
00002000
00000000
,
00000000
00000000
00013000
00000010
00001000
00000000
00000010
00001000
00000001
00000000
00000010
00000000
00000001
00000000
00000100
00000000
,
00000010
00000010
00001000
00000001
00000020
00000000
00000130
00001000
,
00000100
00000001
00000000
00000101
00000000
00001100
00000000
00011000
,
00001000
00000000
00100000
00010000
10000000
00000000
01000000
00000000
10000000
00000000
00100000
01000000
00010000
00000000
10000000
00000000
,
00010000
00000000
00100000
00001000
00010000
00000000
00000010
00000000
00001000
00000000
00001001
00000000
00000010
00000000
00000001
00000000
,
00000001
00000100
00000010
00001000
00000200
00000000
00010300
00001000
,
01000000
00100000
00000000
10100000
00000000
11000000
00000000
01010000
,
00010000
00000000
01000000
10000000
00010000
00000000
00100000
00000000
01000000
00000000
00010000
00100000
00001000
00000000
00010000
00000000
,
00000010
00000000
00000100
00000001
00001000
00000000
00000010
00000000
00001000
00000000
00000200
00000000
00000000
00000000
00010300
00000000
,
00001000
00010000
00000100
01000000
00200000
00000000
00000000
10300000
,
00010000
00100000
00001000
00010000
00000000
00010010
00000000
00000010
,
00000100
00000001
00001000
00000001
00000020
00000000
00000000
00000130
,
00001000
00000001
00000000
00001001
00000000
00000010
00001000
00000100
,
00000001
00000001
00000100
00001000
00000020
00000000
00010030
00001000
,
01000000
00100000
00000000
10100000
00000000
10010000
00000000
00110000
,
00100000
00000000
00010000
10000000
00100000
00000000
01000000
00000000
00010000
00000000
00100000
00001000
00010000
00000000
00001000
00000000
,
00010000
00000000
00001000
00010000
00000010
00000000
00001000
00000000
00000001
00000000
00000110
00000000
00000100
00000000
00001000
00000000
,
00001000
00000100
00000010
00000001
00001000
00001000
00000100
00010000
,
00001000
01000000
00000000
01100000
00000000
10100000
00000000
10010000
,
00000000
00000000
00010000
00100000
00001000
00000000
00010000
00000000
00000010
00000000
00000100
00000001
00001000
00000000
00000001
00000000
,
00000010
00000000
00000100
00001000
00000100
00000000
00000010
00000000
00000001
00000000
00002002
00000000
00003000
00000000
00010003
00000000
,
00001000
00100000
00001000
00100000
00020000
00000000
00000000
01030000
,
00100000
10000000
00010000
00100000
00000000
00101000
00000000
00001000
,
00010000
00000010
00000100
00000001
00002000
00000000
00000000
00003010
,
00000100
00000101
00000000
00002200
00000300
00003000
00011000
00000000
,
02002000
00000000
00000000
10000000
00100000
10000000
00100000
10000000
,
00000000
00010000
00000000
10000000
00100000
10000000
00100000
03003000
,
00020200
00000000
00000000
00000001
00000010
00000001
00000010
00000001
,
00000000
00001000
00000000
00000001
00000010
00000001
00000010
00030300
,
00001000
00000000
00010000
00001000
01000000
00000000
00100000
00000000
10000000
00000000
00000000
00000000
00110000
00000000
00100000
00000000
,
00001000
00010000
00010010
00000010
00000100
00000000
00000011
00000001
,
00001000
00000010
00001010
00000100
00002000
00003000
00101000
00001000
,
01000000
00100000
10000000
00010000
00110000
00000000
00101000
00000000
,
00020200
00000000
00000000
00001000
00000010
00001000
00000010
00001000
,
00000000
00000001
00000000
00001000
00000010
00001000
00000010
00030300
,
02002000
00000000
00000000
00100000
10000000
00100000
10000000
00100000
,
00000000
00010000
00000000
00100000
10000000
00100000
10000000
03003000
,
00010000
00000000
00100000
00001000
00010000
00000000
00000010
00000000
00001000
00000000
00000000
00000000
00000110
00000000
00000010
00000000
,
00001000
00000001
00000011
00000010
00002000
00003000
00001010
00000010
,
00010000
00001000
01001000
01000000
00200000
00300000
10010000
00010000
,
00100000
00001000
00010000
00000010
00000110
00000000
00001001
00000000
,
00000010
00000000
00001000
00000001
00000010
00000000
00000100
00001000
00000100
00000000
00000010
00000000
00010000
00000000
00002000
00000000
,
00000000
00000000
01003000
00010000
01000000
00000000
00100000
10000000
00010000
00000000
00100000
00000000
01000000
00000000
20000000
00000000
,
00000000
00000000
30100000
01000000
00100000
00000000
01000000
00010000
00100000
00000000
00001000
00000000
00010000
00000000
00000020
00000000
,
00000000
00000000
00001030
00000100
00001000
00000000
00000001
00001000
00000010
00001000
00000010
00000000
00000100
00000000
00000001
00000000
,
00011000
00000000
00010000
00001000
01000000
00000000
00100000
10000000
00010000
00000000
00100000
00000000
01000000
00000000
20000000
00000000
,
00000000
00000000
30100000
01000000
00010000
00000000
00100000
00001000
00010000
00000000
00001000
00000000
00010000
00000000
00000020
00000000
,
00000000
00000000
00000130
00000001
00001000
00000000
00000001
00000010
00000100
00000000
00000010
00000000
00000001
00000000
00002000
00000000
,
00000000
00000000
00003100
00010000
00001000
00000000
01000000
00000000
01010000
00000000
00000000
00000000
00110000
00000000
00000000
00000000
,
00020020
00000000
00000000
00001000
00000001
00001000
00000001
00001000
,
00000000
00000100
00000000
00001000
00000001
00001000
00000001
00030030
,
00202000
00000000
00000000
00010000
01000000
00010000
01000000
00010000
,
00000000
10000000
00000000
00010000
01000000
00010000
01000000
00303000
,
00001000
00000000
00010000
00000010
00000100
00000000
00000001
00000000
00000010
00000000
00000000
00000000
00001100
00000000
00001000
00000000
,
00000010
00010000
00011000
00001000
02000000
03000000
10100000
10000000
,
00010000
00100000
00101000
00001000
00020000
00030000
00001010
00000010
,
00000100
00000001
00000010
00000000
00001100
00000000
00011000
00000000
,
02002000
00000000
00000000
00000000
,
03003000
00000000
00000000
00000000
;

//---------------dance-double - Blank----------------
#NOTES:
     dance-double:
     Blank:
     Hard:
     8:
     0.522,0.495,0.359,0.231,0.000:
00000000
00000000
00000000
00000000
,
00000000
00000000
00000000
00000000
,
00000000
00000000
00000000
00000000
,
00000000
00000000
00000000
00000000
,
00020000
00000000
00000000
00130000
00001000
00100000
00001000
00010000
,
00000000
00010010
00000000
00000010
00000100
00000001
00001000
00000001
,
00000020
00000000
00000000
00000000
00000000
00000000
00000000
00020000
,
00000000
00030030
00001100
00001001
,
00000010
00001000
00000001
00000010
00000100
00001000
00000000
00001100
,
00000000
00000100
00010000
00001000
01000000
00100000
00000000
10100000
,
00000000
10000000
01000000
00100000
01000000
10000000
00010000
00200000
,
00000000
00301000
00010000
00000010
00000100
00000001
00001000
00000010
,
00000100
00000010
00000100
00000010
00020000
00000000
00031000
01000000
,
00100000
10000000
00000000
11000000
00000000
01100000
00000000
00220000
,
00000000
00030000
00301000
00000000
00010000
00000010
00000100
00000000
,
00000001
00001000
00000010
00000100
00000001
00000001
00001000
00000100
,
00010000
00000100
00010000
00001000
00020000
00000000
00031000
01000000
,
00100000
10000000
00000000
10010000
00000000
00110000
00000000
00202000
,
00000000
00003000
00310000
00000000
00000010
00001000
00000001
00000000
,
00000010
00000100
00001000
00000100
00010000
00001000
00000000
00010000
,
01000000
10000000
01000000
00010000
01000000
00000000
00000000
00100000
,
10000000
10010000
00000000
00110000
00000000
00101000
00000000
00001000
,
00000100
00000001
00000100
00001000
00000100
00000000
00000000
00000010
,
00000001
00001001
00000000
00001100
00000000
00010100
00000000
00001000
,
01000000
00001000
01000000
00100000
02000000
00000000
03100000
10000000
,
00010000
00100000
00000000
00110000
00000000
00101000
00000000
00022000
,
00000000
00003000
00030010
00000000
00000100
00000001
00001000
00000000
,
00000001
00000010
00000100
00001000
00000010
00000010
00001000
00000100
,
00010000
00000100
00010000
00001000
01000000
00000000
00100000
10000000
,
00010000
00100000
00000000
00110000
00000000
00101000
00000000
00020020
,
00000000
00030000
00001030
00000000
00000001
00001000
00000100
00000000
,
00000010
00000100
00001000
00000001
00000100
00000100
00000010
00010000
,
00100000
10000000
00100000
00010000
00100000
00000000
00000000
00010000
,
10000000
11000000
00000000
01010000
00000000
00011000
00000000
00001000
,
00000010
00000001
00000010
00001000
00000010
00000000
00000000
00000001
,
00001000
00001100
00000000
00001010
00000000
00000000
00001000
00000000
,
00020000
00000000
00000000
00030100
00001000
00000100
00001000
00000100
,
00000000
00020000
00000000
00030100
00001000
00000100
00001000
00000100
,
02000000
00000000
00000000
03001000
00010000
00001000
00010000
00001000
,
00000000
02000000
00000000
03001000
00010000
00001000
00010000
00001000
,
01000000
00100000
10000000
00010000
00100000
00000000
00001000
00010000
,
00000010
00000100
00000001
00001000
00000010
00000000
00000001
00000010
,
00000100
00001000
00000100
00000010
00000001
00000010
00001000
00000010
,
00000001
00000100
00000010
00001000
00001010
00000000
00011000
00000000
,
00200000
00000000
00000000
00301000
00010000
00001000
00010000
00001000
,
00000000
00200000
00000000
00301000
00010000
00001000
00010000
00000010
,
00000200
00000000
00000000
00000301
00001000
00000001
00001000
00000001
,
00000000
00000200
00000000
00000301
00001000
00000001
00001000
00000010
,
00010000
00001000
01000000
00100000
10000000
00000000
00010000
00100000
,
10000000
00100000
00010000
10000000
00100000
00000000
01000000
00010000
,
00100000
00001000
00010000
00000010
00000100
00000000
00000100
00000001
,
00001000
00000001
00000010
00000100
00001100
00000000
00001010
00000000
,
00000001
00000100
00000010
00001000
00000100
00010000
00000000
00011000
,
00000000
00001000
01000000
00100000
10000000
00010000
00000000
00110000
,
00000000
00100000
00010000
01000000
00001000
00100000
00000000
00101000
,
00000000
00001000
00010000
00000010
00000110
00000000
00000101
00000000
,
00000001
00000010
00000100
00001000
00000010
00000100
00000000
00001001
,
00000000
00000010
00010000
00001000
00100000
00010000
00000000
10010000
,
00000000
10000000
00100000
01000000
00010000
00100000
00000000
00101000
,
00000000
00001000
00010000
00000010
00000110
00000000
00001001
00000000
,
00000200
00000000
00000000
00010300
00001000
00010000
00001000
00010000
,
00000000
00000200
00000000
00010300
00001000
00010000
00001000
01000000
,
00200000
00000000
00000000
10300000
00010000
10000000
00010000
10000000
,
00000000
00200000
00000000
10300000
00010000
10000000
00010000
00100000
,
00001000
00010000
00000010
00000100
00000001
00000000
00000100
00000010
,
00001000
00000001
00000010
00000100
00001000
00000000
00000100
00010000
,
00001000
01000000
00100000
10000000
00010000
00010000
00100000
01000000
,
10000000
00100000
01000000
00010000
00110000
00000000
00101000
00000000
,
00022000
00000000
00000000
00000000
,
00033000
00000000
00000000
00000000
;

//---------------dance-double - Blank----------------
#NOTES:
     dance-double:
     Blank:
     Medium:
     5:
     0.353,0.330,0.295,0.080,0.000:
00000000
00000000
00000000
00000000
,
00000000
00000000
00000000
00000000
,
00000000
00000000
00000000
00000000
,
00000000
00000000
00000000
00000000
,
00000010
00000000
00000000
00001000
00000001
00001000
00000001
00001000
,
00000000
00000010
00000000
00001000
00000001
00001000
00000001
00000000
,
00000200
00000000
00000000
00000000
00000000
00000000
00000000
00000020
,
00000000
00000330
00001000
00100000
,
00010000
10000000
00100000
01100000
,
00100000
01000000
00001000
00011000
,
00010000
00000010
00000100
00000101
,
00000001
00001000
00001100
00010100
,
00010000
00000000
00001000
01000000
00001000
00000000
01000000
00000000
,
00100000
10000000
00000000
00010000
00000000
00100000
00000000
00002000
,
00000000
00013000
00000010
00000110
,
00000100
00000110
00000001
00000100
,
00000001
00000000
00001000
00000010
00001000
00000000
00000001
00000000
,
00000010
00000100
00000000
00001000
00000000
00000010
00000000
00020000
,
00000000
00031000
01000000
01100000
,
00100000
01100000
10000000
00100000
,
00010000
00100000
00010000
00100000
00010000
00000000
00000000
00000000
,
01000000
00001000
00010000
00000000
,
00000010
00000100
00000010
00000100
00000010
00000000
00000000
00000000
,
00000100
00010000
00001000
00000000
,
10000000
00000000
00100000
01000000
00100000
00000000
01000000
00000000
,
00010000
00100000
00000000
00001000
00000000
00010000
00000000
00000020
,
00000000
00000130
00000001
00001001
,
00001000
00001001
00000100
00000010
,
00010000
00000000
00001000
00010000
00001000
00000000
00100000
00000000
,
00010000
10000000
00000000
00100000
00000000
01000000
00000000
00020000
,
00000000
00130000
00001000
00011000
,
00010000
00011000
00000010
00000100
,
00000001
00001000
00000001
00001000
00000001
00000000
00000000
00000000
,
00000100
00001000
00010000
00000000
,
10000000
00010000
10000000
00010000
10000000
00000000
00000000
00000000
,
00010000
00100000
00001000
00010000
,
00022000
00000000
00000000
00000000
,
00000000
00000000
00000000
00033000
,
01000000
00000000
00000000
00100000
10000000
00100000
10000000
00100000
,
00000000
01000000
00000000
00100000
10000000
00100000
10000000
00000000
,
00010000
00100000
00101000
00000000
,
00000010
00000100
00000101
00000000
,
00000010
00000001
00000100
00001000
,
00000010
00000100
00001100
00011000
,
01000000
00000000
00000000
00010000
10000000
00010000
10000000
00010000
,
00000000
00100000
00000000
00010000
10000000
00010000
10000000
00000000
,
00001000
00000000
00000000
00010000
00000010
00010000
00000010
00010000
,
00000000
00001000
00000000
00010000
00000010
00010000
00000010
00000000
,
00000100
00000001
00001001
00000000
,
00001000
00100000
00101000
00000000
,
01000000
00100000
10000000
00100000
,
00010000
01000000
00110000
00101000
,
00001000
00011000
00010000
00000010
,
00000100
00000110
00000010
00000001
,
00001000
00001001
00001000
00000100
,
00010000
00011000
01001000
01100000
,
10000000
10010000
00010000
00100000
,
01000000
01100000
00100000
00001000
,
00010000
00011000
00010000
00000010
,
00000100
00000110
00000101
00001001
,
00000100
00000000
00000000
00001000
00000001
00001000
00000001
00001000
,
00000000
00000010
00000000
00001000
00000001
00001000
00000001
00000000
,
00010000
00000000
00000000
00000010
00010000
00000010
00010000
00000010
,
00000000
00001000
00000000
00000010
00010000
00000010
00010000
00000000
,
00001000
01000000
01010000
00000000
,
00100000
10000000
10010000
00000000
,
00010000
00100000
00001000
00010000
,
00000010
00000100
00000001
00000010
,
00000220
00000000
00000000
00000000
,
00000330
00000000
00000000
00000000
;

//---------------dance-double - Blank----------------
#NOTES:
     dance-double:
     Blank:
     Easy:
     4:
     0.304,0.275,0.287,0.167,0.000:
00000000
00000000
00000000
00000000
,
00000000
00000000
00000000
00000000
,
00000000
00000000
00000000
00000000
,
00000000
00000000
00000000
00000000
,
00000010
00000110
00000000
00001001
,
00000000
00010100
00000000
01001000
,
00000000
10100000
00000000
10010000
,
00000000
00100000
01010000
00110000
,
00100000
00010000
00100000
10000000
,
00010000
00100000
00001000
00010000
,
00000010
00000100
00000001
00000010
,
00000100
00000001
00000100
00001000
,
00010000
00001000
00010000
00001000
,
01000000
00000000
00000000
00100000
00000000
00100000
00000000
00100000
,
00000000
10000000
01000000
00010000
,
10000000
00100000
00001000
00000010
,
00000001
00000100
00000001
00000100
,
00000010
00000000
00000000
00000100
00000000
00000100
00000000
00000100
,
00000000
00010000
00100000
10000000
,
00010000
00100000
00000100
00000010
,
00001001
00000110
00001001
00000000
,
00000100
00001000
00100000
00000000
,
10010000
01100000
10010000
00000000
,
00100000
00010000
00001000
00000000
,
00000001
00000010
00000001
00000010
,
00000100
00000000
00000000
00001000
00000000
00001000
00000000
00001000
,
00000000
00010000
00100000
10000000
,
01000000
00010000
00100000
00001000
,
00010000
00000010
00000100
00000001
,
00000010
00000000
00000000
00000100
00000000
00000100
00000000
00000100
,
00000000
00000001
00000010
00001000
,
00000100
00010000
00001000
01000000
,
01100000
10010000
01100000
00000000
,
00100000
00010000
00000100
00000000
,
00000110
00001001
00000110
00000000
,
00001000
00010000
00100000
00001000
,
00022000
00000000
00000000
00000000
,
00000000
00000000
00000000
00033000
,
00200000
00000000
10000000
10300000
,
00000000
00200000
00000000
00000000
10000000
00000000
10300000
00000000
,
00010000
00100000
00101000
00000000
,
00010000
00000010
00001010
00000000
,
00000100
00001000
00000100
00010000
,
00001000
00010000
00011000
00010010
,
00000200
00000000
00000001
00000301
,
00000000
00000200
00000000
00000000
00000001
00000000
00000301
00000000
,
00000020
00000000
00010000
00010030
,
00000000
00000020
00000000
00000000
00010000
00000000
00010030
00000000
,
00001000
01000000
01010000
00000000
,
00100000
10000000
10010000
00000000
,
00100000
00001000
00010000
00000010
,
00000100
00000001
00000011
00001001
,
00000020
00000000
00000032
00000000
,
00000203
00000000
00000320
00000000
,
00002030
00000000
00003200
00000000
,
00020300
00000000
00031000
01000000
,
00100000
10000000
00010000
00100000
,
00001000
00010000
00000010
00000001
,
00000100
00001000
00000010
00000100
,
00000001
00000100
00001100
00011000
,
02000000
00000000
00100000
03100000
,
00000000
02000000
00000000
00000000
00100000
00000000
03100000
00000000
,
00002000
00000000
00010000
00013000
,
00000000
00002000
00000000
00000000
00010000
00000000
00013000
00000000
,
00001000
00010000
00010010
00000000
,
00000100
00000001
00001001
00000000
,
00000010
00000100
00001000
00000100
,
00010000
00001000
01001000
01100000
,
20020000
00000000
00000000
00000000
,
30030000
00000000
00000000
00000000
;
