#TITLE:Loading Screen;
#SUBTITLE:;
#ARTIST:Freezepond;
#TITLETRANSLIT:;
#SUBTITLETRANSLIT:;
#ARTISTTRANSLIT:;
#GENRE:vaporwave;
#CREDIT:;
#BANNER:Loading Screen banner.png;
#BACKGROUND:Loading Screen bkd.png;
#LYRICSPATH:;
#CDTITLE:;
#MUSIC:Loading Screen.mp3;
#OFFSET:0.000;
#SAMPLESTART:17.700;
#SAMPLELENGTH:12.000;
#SELECTABLE:YES;
#BPMS:0.000=122.000;
#STOPS:;
#BGCHANGES:;
#KEYSOUNDS:;

//---------------dance-single - Blank----------------
#NOTES:
     dance-single:
     Blank:
     Challenge:
     10:
     0.703,0.763,0.239,0.396,0.572:
0000
0000
0000
0000
,
0010
0000
0000
0001
0000
0000
0100
0000
0000
1000
0000
0000
0100
0000
0001
0000
,
1000
0000
0000
0010
0000
0000
0001
0000
0000
1000
0000
0000
0001
0000
0010
0000
,
1000
0000
0000
0001
0000
0000
1000
0000
0000
0100
0000
0000
0010
0000
0001
0000
,
1000
0000
0000
0010
0000
0000
0001
0000
0000
0010
0000
0000
1000
0000
0001
0000
,
0201
0000
0000
0001
0000
0000
0010
0000
000M
1000
0000
0000
0010
0000
0301
0000
,
0210
0000
0000
1000
0000
0000
0010
0000
0000
0001
M000
0000
0010
0000
1300
0000
,
0120
0000
0000
0100
0000
0000
M001
0000
0000
0100
0000
0000
1000
0000
0130
0000
,
0120
0000
0000
0001
0000
0000
0100
0000
000M
1000
0000
0000
0100
0000
1030
0000
,
1001
0000
0000
0000
0010
0000
0000
0000
0100
0000
0001
0000
0010
0000
0100
0000
1000
0000
0000
0000
0100
0000
0000
0000
0010
0000
0000
0000
1000
0000
0000
0010
,
0002
0000
0000
0000
0103
0000
0010
0000
1000
0001
1000
0000
0010
0000
0100
0000
,
0101
0000
0001
0000
0010
0100
1000
0010
0100
0000
0001
0000
1000
0000
0010
0000
,
0210
0310
0001
1001
0100
0120
0130
0000
,
0010
0000
1000
0000
0001
0010
0100
1000
0001
0000
1000
0000
0010
0000
0100
0000
,
0002
0000
0000
0000
1000
0000
0000
0000
0103
0000
0000
0000
0001
0000
0000
0000
1000
0000
0000
0000
0010
0000
0000
0000
0100
0020
0000
0000
0000
0000
0000
0000
,
1030
0000
0001
1000
0100
0000
1000
0000
0100
0010
0001
1000
0010
0000
0100
0000
,
0102
0103
0010
2010
3010
0100
1001
1000
,
0110
0000
0000
0000
0010
0000
0000
0000
1000
0000
0010
0000
0001
0000
0010
0000
1000
0000
0000
0000
0001
0000
0000
0000
0010
0000
0000
0000
0100
0000
0000
1000
,
0200
0000
0000
0000
0310
0000
0100
1000
0001
1000
0010
0000
0100
0000
0010
0000
,
1010
2000
3200
0320
0032
2003
3002
0003
,
0110
0000
0000
1010
0000
0000
0011
0000
0000
0110
0000
0000
1100
0000
0101
0000
,
0011
0000
0000
0000
1000
0000
0000
0000
0001
0000
0010
0000
1000
0000
0010
0000
0001
0000
0000
0000
0100
0000
0000
0000
0010
0000
0000
0000
1000
0000
0000
0100
,
0020
0000
0031
1000
0010
0100
0001
0000
,
1010
0000
0010
1000
0001
0000
0010
0000
0100
1000
0001
0000
1000
0000
0000
0000
,
0110
0000
0000
0001
1000
0000
0110
0000
0000
1000
0001
0000
0110
0000
0000
0000
,
0001
0000
0100
1000
0001
1000
0010
0000
0100
0001
1000
0001
0M20
0000
0000
0000
,
0130
0000
0001
1000
0100
1000
0001
0000
1000
0001
0010
0001
20M0
0000
0000
0000
,
3010
0000
0100
0001
1000
0001
0100
0000
0010
1000
0001
0010
0M02
0000
0000
0000
,
0013
0000
1000
0001
1000
0010
1000
0000
0001
0010
0001
1000
0001
0000
0100
0000
,
0010
0000
1000
0001
0100
0000
M00M
0000
0001
0000
1000
0000
1101
0000
0000
0000
,
0010
0000
0001
1000
0010
0000
M00M
0000
1000
0000
0001
0000
1011
0000
0000
0000
,
0010
0000
0100
0001
0010
0000
0M0M
0000
0100
0000
0001
0000
0111
0000
0000
0000
,
0100
0000
1000
0010
0100
0000
M0M0
0000
0010
0000
1000
0000
1110
0000
0000
0000
,
0010
0010
0010
1001
,
0100
0000
0010
1000
0001
0000
1000
0000
0001
0010
0100
0000
1000
0000
0010
0000
,
0100
0000
0010
0001
0010
0000
1000
0000
0001
0010
1000
0000
0010
0000
0001
0000
,
1000
0000
0100
0001
0100
0000
1000
0000
0100
0001
0100
0000
100M
0000
0010
0000
,
010M
0000
0001
1000
0010
0000
0001
0000
0010
1000
0001
0000
0010
0000
0100
0000
,
1000
0000
0010
0100
0001
0000
1000
0000
0001
0010
0100
0000
1000
0000
0010
0000
,
0001
0000
0010
1000
0001
0000
0010
0000
0100
0001
0100
0000
1000
0000
0001
0000
,
0200
0000
0301
1000
0010
0001
0010
1000
,
1001
0000
0010
0000
0100
0001
1000
0001
0010
0000
0100
0000
1000
0000
0010
0000
,
0100
0002
0000
0000
0000
0000
0000
0000
0023
0000
0000
0000
0000
0000
0000
0000
203M
0000
0000
0000
0000
0000
0000
0000
3010
0000
0000
0000
0001
0000
0000
0000
,
1000
1000
0010
0100
0001
0010
0100
1000
,
0001
0000
0010
1000
0000
0010
0001
0000
1000
0010
0000
0100
0002
0000
0023
0000
,
1030
0000
001M
0000
0001
1000
0010
0100
1000
0000
0100
0000
0010
0000
1000
0000
,
0001
0100
1000
0100
0001
1000
0010
0001
0010
1000
0001
0010
0100
1000
0100
0001
,
0200
0000
000M
0000
1300
0010
0001
0010
1000
0100
0010
1000
0010
0100
0001
0100
,
0020
0000
0031
0002
20M3
3020
0130
0000
,
0001
0000
1000
0001
0100
0001
1000
0000
0010
0100
0001
1000
0200
0000
0000
0000
,
0310
0000
0001
1000
0M10
0001
1000
0000
0001
0010
1000
0001
0200
0000
0000
0000
,
0301
0000
0010
0100
1000
0100
0001
0000
0100
1000
0010
0001
2000
0000
0000
0000
,
3001
0000
0010
1000
0001
0010
0100
0000
1000
0010
0100
0001
0010
0000
0100
0000
,
2000
0000
0000
0010
0000
0000
0010
0000
0000
0100
0000
0000
3002
0000
0000
0000
,
M023
0000
0000
1000
0000
0000
0001
0000
0000
1000
0000
0000
0230
0000
0000
0000
,
23M0
0000
0000
0010
0000
0000
0001
0000
0000
0100
0000
0000
3002
0000
0000
0000
,
M203
0000
0000
0010
0000
0000
1000
0000
0000
0001
0000
0000
0310
0000
1000
0000
,
0M01
0000
0010
0100
1000
0100
0010
0000
0001
1000
0010
0001
0020
0000
0000
0000
,
1030
0000
0001
0010
0100
0001
0100
0000
1000
0010
0100
0010
0200
0000
0000
0000
,
0301
0000
1000
0010
0M01
0010
1000
0000
0001
0010
0100
0001
2000
0000
0000
0000
,
3010
0000
0001
1000
0010
0100
0001
0000
1000
0001
0010
0100
1000
0000
0010
0000
,
0100
0000
0001
0100
1000
0100
0001
0000
1000
0001
0010
0100
0002
0000
0000
0000
,
0103
0000
0010
0001
1000
0010
0100
0000
0010
1000
0001
0010
0002
0000
0000
0000
,
1003
0000
0010
0100
0001
1000
0100
0000
0001
0100
1000
0001
0200
0000
0000
0000
,
0310
0000
1000
0001
0100
0010
0100
0000
0001
0100
1000
0100
0001
0000
1000
0000
,
0020
0000
0000
0000
,
0000
0000
0000
0000
0000
2202
0000
0000
,
0000
0000
3303
MM0M
0000
0000
0000
0000
,
0030
0000
0000
0000
;

//---------------dance-single - Blank----------------
#NOTES:
     dance-single:
     Blank:
     Hard:
     8:
     0.559,0.508,0.052,0.299,0.310:
0000
0000
0000
0000
,
1000
0000
0000
1000
0000
0000
0001
0000
0000
0001
0000
0000
0200
0000
0000
0000
,
0310
0000
0000
0010
0M00
0000
1000
0000
0000
1000
0000
0000
0002
0000
0000
0000
,
0103
0000
0000
0100
000M
0000
1000
0000
0000
1000
0000
0000
0002
0000
0000
0000
,
0013
0000
0000
0010
000M
0000
0100
0000
0000
0100
0000
0000
0001
0000
1000
0000
,
0010
0000
0000
1000
0000
0000
0001
0000
0000
0010
0000
0000
0200
0000
0010
0000
,
0310
0000
0000
1000
0M00
0000
0001
0000
0000
0010
0000
0000
0200
0000
0001
0000
,
0301
0000
0000
0010
0M00
0000
1000
0000
0000
0001
0000
0000
2000
0000
0010
0000
,
3010
0000
0000
0100
M000
0000
0001
0000
0000
0010
0000
0000
0200
0000
1000
0000
,
1300
0000
0010
0000
0100
0001
0000
0001
1000
0000
0010
0000
0100
0000
0001
0000
,
0020
0000
0000
0000
0130
0000
1000
0000
00M1
0100
0000
0000
0010
0000
0000
0000
,
1000
0000
0001
0000
0100
0001
0000
0001
1000
0000
0010
0000
0100
0000
0001
0000
,
0020
0000
0130
1000
00M1
0010
0001
0000
,
0100
0000
0010
0000
1000
0001
0000
0100
0001
0000
0010
0000
0100
0000
1000
0000
,
0002
0000
0000
0000
0000
0000
0000
0000
0103
0000
0000
0000
0010
0000
0000
0000
100M
0000
0000
0000
0001
0000
0000
0000
0010
0100
0000
0000
0000
0000
0000
0000
,
1000
0000
0010
0000
0100
0000
0000
0001
0100
0000
0010
0000
1000
0000
0001
0000
,
0020
0000
0130
1000
00M1
1000
0010
0100
,
0001
0000
0100
0000
0010
1000
0001
1000
0001
0000
0010
0000
0100
0000
1000
0000
,
0020
0000
0130
0001
10M0
0010
0100
0000
,
0001
0010
0100
1000
0010
0100
0001
1000
,
0001
0000
0000
1001
0000
0000
0100
0000
0000
1001
0000
0000
0010
0000
1000
0000
,
0001
0000
0010
0000
1000
0010
0001
0010
0001
0000
1000
0000
0010
0000
0100
0000
,
0002
0000
0013
0100
1000
0001
0100
0000
,
0020
0000
0001
0100
0000
0001
0030
0000
,
1000
0000
0001
0100
0000
1000
0001
0000
,
0010
0000
0000
0100
0010
0000
1000
0000
0100
0000
0001
0000
0100
0000
0000
0000
,
0010
0000
0000
0001
1000
0000
0010
0000
0100
0000
0001
0000
0010
0000
0000
0000
,
0100
0000
0000
0001
0100
0000
1000
0000
0010
0000
0100
0000
0001
0000
0000
0000
,
1000
0000
0000
0010
0100
0000
0001
0000
1000
0000
0010
0000
0002
0000
0023
0000
,
1030
0000
0000
0010
0001
0000
0100
0000
0010
0000
1000
0000
0100
0000
0000
0000
,
0001
0000
0000
0010
1000
0000
0010
0000
0100
0000
0001
0000
1000
0000
0000
0000
,
0010
0000
0000
1000
0001
0000
0100
0000
1000
0000
0100
0000
0001
0000
0000
0000
,
0010
0000
0000
1000
0001
0000
0100
0000
0010
0000
1000
0000
0002
0000
0023
0000
,
0130
0100
0100
1001
,
0020
0000
0130
0001
1000
0001
0010
0100
,
1000
0000
0000
0000
0100
0010
0100
1000
0001
0000
1000
0000
0010
0000
0100
0000
,
0002
0000
0000
0000
0000
0000
0000
0000
0023
0000
0000
0000
0000
0000
0000
0000
0130
2000
0000
0000
0000
0000
0000
0000
3010
0000
0000
0000
0100
0000
0000
0000
,
0001
0000
0000
0000
1000
0001
0100
0010
0100
0000
0001
0000
1000
0000
0001
0000
,
0020
0000
0130
1000
0001
0100
0020
0000
,
1030
0100
0001
0100
1000
0010
0100
0001
,
0020
0000
0130
1000
0001
0100
0010
1000
,
1100
0000
0000
0000
0010
1000
0001
1000
0010
0000
0100
0000
0001
0000
0010
0000
,
0200
0000
2300
0000
3200
0000
0301
0100
,
1000
0000
0000
1000
0010
0000
0100
0000
0001
0000
1000
0000
0001
0000
0010
0000
,
0100
0000
0000
1010
0000
0000
0100
0000
0000
0011
0000
0000
0100
0000
0001
0000
,
1000
0000
0000
0000
0010
0100
0001
0100
0001
0000
0010
0000
0100
0000
1000
0000
,
0001
0000
1000
0010
0000
1000
0001
0000
1000
0010
0000
1000
0001
1000
0001
0100
,
0002
0000
0013
0100
1000
0001
1000
0010
,
0200
0000
0001
0320
0000
2030
0000
0000
,
3010
0000
0100
0000
0001
0000
0000
1000
0001
0000
0100
0000
0010
0000
1000
0000
,
0100
0000
0010
0000
0001
0000
0000
0001
1000
0000
0010
0000
0001
0000
0010
0000
,
1000
0000
0001
0000
0100
0000
0000
0010
1000
0000
0001
0000
0010
0000
0100
0000
,
1000
0000
0100
0000
0001
0000
0000
0100
1000
0000
0010
0000
0100
0000
0001
0000
,
1000
0000
0010
0000
0001
0000
0000
0010
1000
0000
0001
0000
0010
0000
0100
0000
,
1000
0000
0001
0000
0010
0000
0000
1000
0010
0000
0001
0000
0100
0000
0010
0000
,
1000
0000
0001
0000
0010
0000
0000
0100
1000
0000
0010
0000
0100
0000
0001
0000
,
1000
0000
0010
0000
0001
0000
0000
0010
1000
0000
0001
0000
0010
0000
0100
0000
,
1000
0000
0001
0100
0001
0000
1000
0000
0010
0100
0010
0000
2000
0000
0000
0000
,
3001
0000
0100
0010
0100
0000
0001
0000
1000
0010
1000
0000
0020
0000
0000
0000
,
0130
0000
0001
1000
0001
0000
0100
0000
0001
1000
0001
0000
0020
0000
0000
0000
,
0130
0000
1000
0010
1000
0000
0100
0000
1000
0010
1000
0000
0010
0000
0100
0000
,
0001
0000
1000
0001
1000
0000
0010
0000
1000
0001
1000
0000
0200
0000
0000
0000
,
0310
0000
0001
0100
0001
0000
1000
0000
0001
0100
0001
0000
0020
0000
0000
0000
,
0130
0000
1000
0001
1000
0000
0010
0000
0100
0001
0100
0000
0020
0000
0000
0000
,
1030
0000
0001
1000
0001
1000
0001
0000
0100
0010
0100
0010
0200
0000
0000
0000
,
0002
0000
0000
0000
,
0000
0000
1010
M0M0
,
0000
0000
0000
0000
,
0303
0000
0000
0000
;

//---------------dance-single - Blank----------------
#NOTES:
     dance-single:
     Blank:
     Medium:
     5:
     0.333,0.330,0.060,0.209,0.011:
0000
0000
0000
0000
,
2000
0020
0000
3030
,
0002
2000
0000
3003
,
0200
0020
0000
0330
,
0002
0020
0000
0033
,
1000
0000
0000
1000
0000
0000
1000
0000
0000
0000
0000
0000
0010
0000
0000
0000
,
0001
0000
0000
0001
0000
0000
0001
0000
0000
0000
0000
0000
0100
0000
0000
0000
,
1000
0000
0000
1000
0000
0000
1000
0000
0000
0000
0000
0000
0010
0000
0000
0000
,
2002
0000
0000
3003
,
0100
0000
0000
0000
1000
0001
1000
0001
,
1000
0010
0200
0300
,
0001
0000
0000
0000
0100
1000
0100
1000
,
0010
0100
0002
0003
,
0010
0000
0000
0000
1000
0001
1000
0001
,
0100
0000
0010
0000
1000
0100
1000
0000
,
0020
0000
0030
0000
0100
0001
0100
0000
,
0010
1000
0001
0010
,
0100
0000
0000
0000
0010
0100
0010
1000
,
0001
0010
2000
3000
,
0100
0000
0000
0000
1000
0001
1000
0000
,
0010
0000
0100
0000
1000
0000
0010
0100
,
0001
0000
1000
0000
0001
0010
0001
0010
,
0001
1000
0020
0030
,
0001
1000
0020
0030
,
0100
0000
0000
0001
0000
0000
1000
0000
,
0010
0000
0010
0000
1000
0001
1000
0000
,
0100
0000
0100
0000
0001
1000
0001
0000
,
1000
0000
1000
0000
0010
0100
0010
0000
,
0001
0000
0001
0000
0100
0010
0100
0000
,
0010
0010
0010
0000
1000
0001
1000
0000
,
0100
0100
0100
0000
0001
1000
0001
0000
,
1000
1000
1000
0000
0010
0100
0010
0000
,
0001
0001
0001
0000
0100
0010
0100
0000
,
0002
0000
0000
1003
,
0010
0100
0002
0003
,
1000
0000
0010
0000
0100
0001
0100
0001
,
0100
0010
1000
0001
,
0020
0000
0030
0000
1000
0010
0100
0001
,
1000
0001
0010
0100
,
2000
0000
3000
0000
0010
0100
0010
1000
,
0010
0100
0001
0010
,
1010
0000
0000
0000
0001
1000
0001
1000
,
0010
0100
0001
0010
,
0010
0100
1000
0001
,
0100
0000
0000
0010
0000
0000
0001
0000
,
1000
0000
0000
0000
0100
0001
1000
0001
,
0010
0100
1000
0010
,
0200
0001
0310
1000
,
2002
0000
3003
0110
0000
0101
0000
0000
,
0100
0000
0100
0000
0001
0010
0001
0000
,
0010
0000
0010
0000
1000
0100
1000
0000
,
0001
0000
0001
0000
0100
0001
0100
0000
,
1000
0000
1000
0000
0010
1000
0010
0000
,
0100
0100
0100
0000
0001
0010
0001
0000
,
0010
0010
0010
0000
1000
0100
1000
0000
,
0001
0001
0001
0000
0100
0001
0100
0000
,
1000
1000
1000
0000
0010
1000
0010
0000
,
0100
0000
0010
0000
1000
0001
0010
0000
,
0001
0000
1000
0000
0010
1000
0001
0000
,
0100
0000
0010
0000
1000
0001
0010
0000
,
0100
0000
1000
0000
0010
0001
0100
0001
,
0010
0000
1000
0001
,
2010
3000
M010
0001
,
0120
0030
00M1
1000
,
1020
0000
0030
0000
01M0
0000
0001
1000
,
0020
0000
0000
0000
,
0000
0000
0200
0000
,
0000
0000
0000
0000
,
0330
0000
0000
0000
;

//---------------dance-single - Blank----------------
#NOTES:
     dance-single:
     Blank:
     Easy:
     2:
     0.162,0.203,0.015,0.127,0.000:
0000
0000
0000
0000
,
0200
0000
0000
0300
,
0020
0000
0000
0030
,
0002
0000
0000
0003
,
2000
0000
0000
3000
,
0010
0010
0000
0000
,
0100
0100
0000
0000
,
0001
1000
0000
0000
,
0010
0001
0000
0000
,
0010
0000
1000
1000
,
0002
0000
0003
0000
,
0010
0000
0100
0100
,
0001
0000
1000
0000
,
0010
0000
0100
0100
,
2000
0000
3000
0010
,
0010
0000
0100
0100
,
0001
0000
1000
0000
,
0010
0000
0100
0100
,
0002
0000
0003
0000
,
0010
0000
1000
0000
,
0001
0000
0100
0000
,
1000
0000
0010
0010
,
0200
0000
0300
0000
,
0002
0000
0003
0000
,
1000
0000
0000
0001
0000
0000
1000
0000
,
0100
0100
0000
0000
,
0010
0010
0000
0000
,
1000
1000
0000
0000
,
0001
0001
0000
0000
,
0100
0001
0000
0000
,
0010
0100
0000
0000
,
1000
0001
0000
0000
,
0010
0001
0000
0000
,
1001
0000
0000
0000
,
0010
1000
0002
0000
,
0003
0000
0100
0000
,
0010
0000
1000
0000
,
0001
0000
0010
0010
,
2000
0000
3000
0001
,
0001
0000
0100
0100
,
0010
0000
1000
0000
,
0001
0000
0010
0010
,
0002
0000
0003
0000
,
0100
0000
0010
0000
,
1000
0000
0001
0000
,
1000
0000
0100
0000
,
0010
0010
0100
0100
,
0002
0003
2000
3000
,
0001
0000
0000
1000
0000
0000
0001
0000
,
0010
1000
0000
0000
,
0100
0001
0000
0000
,
1000
0001
0000
0000
,
0010
1000
0000
0000
,
0010
0001
0000
0000
,
0100
0010
0000
0000
,
0001
1000
0000
0000
,
0100
0001
0000
0000
,
0010
0001
0000
0000
,
0010
1000
0000
0000
,
0100
0001
0000
0000
,
1000
0001
0000
0000
,
0010
0100
0000
0000
,
0001
1000
0000
0000
,
0010
0001
0000
0000
,
0100
0010
0000
0000
,
0020
0000
0000
0000
,
0000
0030
2002
0000
,
0000
0000
0000
0000
,
3003
0000
0000
0000
;

//---------------dance-single - Blank----------------
#NOTES:
     dance-single:
     Blank:
     Beginner:
     1:
     0.087,0.099,0.030,0.000,0.000:
0000
0000
0000
0000
,
0100
0000
0000
0000
,
0010
0000
0000
0000
,
0001
0000
0000
0000
,
1000
0000
0000
0000
,
0010
0000
0000
0000
,
0100
0000
0000
0000
,
0001
0000
0000
0000
,
0010
0000
0000
0000
,
0000
0000
0100
0000
,
0100
0000
0010
0000
,
0000
0000
1000
0000
,
1000
0000
0001
0000
,
0000
0000
0010
0000
,
0100
0000
0010
0000
,
0100
0000
0000
0000
,
1000
0000
0000
0000
,
0000
0000
0010
0000
,
1000
0000
0001
0000
,
0000
0000
0010
0000
,
0100
0000
0001
0000
,
0000
0000
1000
0000
,
0001
0000
0100
0000
,
0010
0000
0000
0000
,
1000
0000
0000
0000
,
0001
0000
0000
0000
,
0010
0000
0000
0000
,
1000
0000
0000
0000
,
0100
0000
0000
0000
,
0001
0000
0000
0000
,
1000
0000
0000
0000
,
0010
0000
0000
0000
,
0100
0000
0000
0000
,
0110
0000
0000
0000
,
1000
0000
0000
0000
,
0000
0000
0010
0000
,
0100
0000
0001
0000
,
1000
0000
0000
0000
,
0010
0000
0000
0000
,
0100
0000
0000
0000
,
0001
0000
1000
0000
,
1001
0000
0000
0000
,
0100
0000
0100
0000
,
0100
0000
0000
0000
,
0010
0000
0010
0000
,
0001
0000
0000
0000
,
1000
0000
0000
0000
,
0100
0000
0000
0000
,
0001
0000
1000
0000
,
0010
0000
0000
0000
,
0100
0000
0000
0000
,
0001
0000
0000
0000
,
1000
0000
0000
0000
,
0010
0000
0000
0000
,
0001
0000
0000
0000
,
0100
0000
0000
0000
,
0010
0000
0000
0000
,
1000
0000
0000
0000
,
0001
0000
0000
0000
,
0010
0000
0000
0000
,
0100
0000
0000
0000
,
1000
0000
0000
0000
,
0010
0000
0000
0000
,
0001
0000
0000
0000
,
0100
0000
0000
0000
,
0110
0000
0000
0000
,
0000
0000
1001
0000
;

//---------------dance-double - Blank----------------
#NOTES:
     dance-double:
     Blank:
     Challenge:
     10:
     0.643,0.763,0.142,0.426,0.419:
00000000
00000000
00000000
00000000
,
00100000
00000000
00000000
00001000
00000000
00000000
00000010
00000000
00M00000
00000001
00000000
00000000
00000100
00000000
00000000
00000000
,
00001000
00000000
00000000
00100000
00000000
00000000
10000000
00000000
00000M00
01000000
00000000
00000000
00010000
00000000
00000000
00000000
,
00001000
00000000
00000000
00000010
00000000
00000000
00000001
00000000
000M0000
00000100
00000000
00000000
00001000
00000000
00000000
00000000
,
00010000
00000000
00000000
00100000
00000000
00000000
10000000
00000000
0000M000
01000000
00000000
00000000
00010000
00000000
00100000
00000000
,
00002000
00000000
00000000
00010000
00000000
00000000
00100000
00000000
000M0000
01000000
00000000
00000000
10M03000
00000000
00000000
00000000
,
00020000
00000000
00000000
00001000
00000000
00000000
00000100
00000000
0000M000
00000010
00000000
00000000
00030M01
00000000
00000000
00000000
,
00001200
00000000
00000000
01000000
00000000
00000000
00001000
00000000
00000000
01000000
00000000
00000000
0M001300
00000000
00000000
00000000
,
02100000
00000000
00000000
00001000
00000000
00000000
00100000
00000000
00000000
00001000
00000000
00000000
0310M000
00000000
00001000
00000000
,
00010000
00000000
00000100
00000000
00001000
00000010
00000100
00000001
00001000
00000000
00000001
00000000
00000010
00000000
00000100
00000000
,
0000200M
00000000
00000000
00000000
00003100
00000000
00010000
00000000
00001000
01000000
00100000
00000000
10000000
00000000
00010000
00000000
,
M0100000
00000000
01000000
00000000
10000000
00100000
01000000
00010000
10000000
00000000
00010000
00000000
00100000
00000000
00001000
00000000
,
00M10000
00010000
00000010
00000100
00000100
00000001
00001000
00000010
,
0000M100
00000000
00000001
00000000
00000010
00000100
00001000
00000100
00010000
00000000
00001000
00000000
01000000
00000000
00100000
00000000
,
2M000000
00000000
30010000
00200000
00000000
00301000
00000020
00000000
,
0000M130
00000001
00001000
00000100
00010000
00001000
01000000
00100000
,
200M0000
00000000
30010000
00200000
00000000
00301000
00010000
00000100
,
00M00010
00000000
00000001
00000000
00001000
00000010
00000100
00000001
00001000
00000000
00000100
00000000
00010000
00000000
00001000
00000000
,
020M0000
00000000
00000000
00000000
03100000
00000000
10000000
00000000
00010000
00100000
01000000
00000000
00010000
00000000
01000000
00000000
,
100M0000
00100000
01000000
00100000
00100000
00001000
00010000
00000010
,
0000M100
00000000
00000000
00010000
00000000
00000000
01000000
00000000
00000000
00100000
00000000
00000000
10000000
00000000
00010000
00000000
,
0M100000
00000000
00010000
00000000
01000000
00001000
00010000
00001000
00010000
00000000
00000100
00000000
00001000
00000000
00000010
00000000
,
0000M200
00000000
00000301
00000200
00000000
00001300
00000010
00010000
,
000020M0
00000000
00103000
00020000
00000000
01030000
00100000
10000000
,
20M20000
00000000
30030000
00022000
00000000
00033000
00002001
00000000
,
000M3010
00000000
00000100
00000001
00001000
00000000
00000010
00000000
00001000
00000100
00001000
00000000
00000002
00000000
00000000
00000000
,
00010M03
00000000
00001000
01000000
00100000
00000000
01000000
00000000
00100000
10000000
00010000
00000000
00200000
00000000
00000000
00000000
,
0M301000
00000000
00010000
00000100
00001000
00000000
00000010
00000000
00000100
00000001
00001000
00000000
00000200
00000000
00000000
00000000
,
00M10300
00000000
00001000
01000000
00100000
00000000
10000000
00000000
00010000
00100000
01000000
10000000
00020000
00000000
02030000
00000000
,
031M0000
00000000
10000000
00010000
00100000
00000000
00001000
00000000
00010000
00000010
00000001
00000000
00000020
00000000
00000000
00000000
,
00001M30
00000000
00000001
00000010
00000100
00000000
00000010
00000000
00000001
00001000
00000100
00000000
00020000
00000000
00000000
00000000
,
00031M00
00000000
01000000
00100000
01000000
00000000
00010000
00000000
00100000
00001000
00010000
00000000
00000020
00000000
00000000
00000000
,
000M1030
00000000
00000100
00010000
00001000
00000000
00010000
00000000
00001000
01000000
00100000
00000000
20000000
00000000
00000000
00000000
,
30M10000
00010000
00010000
MM1M1MMM
,
00010000
00010000
00000010
00000100
00000002
00000000
00001003
00000000
,
0000010M
00000000
00010000
00000000
00001000
01000000
00010000
01000000
00010000
00000000
10000000
00000000
00100000
00000000
01000000
00000000
,
00M20000
00000000
00230000
00000000
00301000
00010000
00000010
00000100
,
000000M1
00000000
00001000
00000000
00000001
00000010
00000100
00000001
00010000
00000000
00000010
00000000
00000001
00000000
00001000
00000000
,
0000020M
00000000
00010300
00002000
00000000
01003000
00100000
10000000
,
0001M000
00100000
01000000
10000000
00100000
01000000
00010000
00100000
,
0M011000
00000000
00000100
00001010
00000000
00000100
00001001
00000010
,
0000100M
00000000
00000100
00000000
00010000
00001000
01000000
00100000
10000000
00000000
00010000
00000000
00100000
00000000
01000000
00000000
,
20M00000
00000000
30200000
00000000
01300000
00001000
00010000
00000010
,
000M0100
00000000
00000010
00001000
00000001
00000000
00000010
00000000
00000100
00000000
00001000
00000000
00000100
00000000
00010000
00000000
,
00001M00
00000000
01000000
00100000
00000000
10000000
00010000
00000000
00100000
00001000
00000000
00010000
00100000
00000000
01000000
00000000
,
100M0000
00000000
00100000
00000000
01000000
00010000
00100000
00001000
00010000
00000000
00001000
00000000
00010000
00000000
01000000
00000000
,
100M0000
00100000
01000000
00010000
01000000
00100000
01000000
00010000
00100000
00001000
00010000
00000010
00000001
00000010
00010000
00001000
,
000002M0
00000000
00000000
00000000
00001300
00000010
00000001
00000010
00001000
00000100
00010000
00001000
01000000
10000000
01000000
00010000
,
M2020000
00000000
03030000
00011000
00000000
00020020
00000000
00030030
,
000M0100
00000000
00000001
00001000
00000010
00000000
00001000
00000000
00000100
00010000
00001000
00000000
02000000
00000000
00000000
00000000
,
M3100000
00000000
10000000
00100000
00010000
00000000
10000000
00000000
00010000
00100000
10000000
00000000
00002000
00000000
00000000
00000000
,
00M13000
00000000
00000010
00000100
00000001
00000000
00001000
00000000
00000100
00000001
00000100
00000000
00020000
00000000
00000000
00000000
,
00031M00
00000000
01000000
00100000
10000000
00010000
00100000
00000000
01000000
10000000
00100000
00000000
01100000
00000000
01010000
00000000
,
0M101000
00000000
00100000
00001000
00010000
00000000
00000010
00000000
00000100
00000001
00001000
00000000
00000020
00000000
00000000
00000000
,
0000M130
00000000
00000001
00000010
00001000
00000000
00000100
00000000
00010000
00001000
01000000
00000000
00200000
00000000
00000000
00000000
,
103M0000
00000000
00100000
00010000
00100000
00000000
10000000
00000000
00010000
00100000
00001000
00000000
00020000
00000000
00000000
00000000
,
00M30010
00000000
00000100
00000001
00001000
00000010
00000100
00000000
00000001
00000010
00000100
00001000
00000200
00000000
00000000
00000000
,
0001M300
00000000
00100000
10000000
00010000
00000000
00100000
00000000
00001000
00100000
00010000
00000000
02000000
00000000
00000000
00000000
,
M3100000
00000000
10000000
00010000
00100000
00000000
00001000
00000000
00010000
00000010
00000100
00000000
00000002
00000000
00000000
00000000
,
00000M13
00000000
00000100
00001000
00000100
00000000
00010000
00000000
00001000
01000000
00100000
00000000
20000000
00000000
00000000
00000000
,
3M010000
00000000
00100000
00010000
01000000
10000000
01000000
00000000
00010000
00100000
00001000
00000000
00011000
00000000
00001010
00000000
,
000M0101
00000000
00000100
00000010
00010000
00000000
00001000
00000000
01000000
10000000
01000000
00000000
00020000
00000000
00000000
00000000
,
0M130000
00000000
00001000
00010000
00000010
00000000
00000100
00000000
00000001
00000100
00001000
00000000
00000200
00000000
00000000
00000000
,
0000M310
00000000
00010000
00001000
01000000
00000000
00100000
00000000
10000000
01000000
00010000
00000000
02000000
00000000
00000000
00000000
,
130M0000
00000000
00100000
01000000
00010000
00100000
00010000
00000000
00100000
00001000
00010000
00000010
00000100
00000000
00010000
00000000
,
MMM2M2MM
00000000
00000000
00000000
,
00000000
00000000
00000000
00000000
00000000
20000000
00000000
00000000
,
00000000
00000000
30000000
M0000000
00000000
00000000
00000000
00000000
,
00030300
00000000
00000000
00000000
;

//---------------dance-double - Blank----------------
#NOTES:
     dance-double:
     Blank:
     Hard:
     7:
     0.467,0.407,0.060,0.150,0.075:
00000000
00000000
00000000
00000000
,
00010000
00000000
00000000
10000000
00000000
00000000
00100000
00000000
00000000
01000000
00000000
00000000
00010000
00000000
00000000
00000000
,
00001000
00000000
00000000
00010000
00000000
00000000
00000010
00000000
00000000
00000100
00000000
00000000
00000001
00000000
00000000
00000000
,
00001000
00000000
00000000
00000100
00000000
00000000
00010000
00000000
00000000
00001000
00000000
00000000
01000000
00000000
00000000
00000000
,
00100000
00000000
00000000
10000000
00000000
00000000
00100000
00000000
00000000
01000000
00000000
00000000
00010000
00000000
00100000
00000000
,
00001000
00000000
00000000
00010000
00000000
00000000
00000100
00000000
00000000
00000010
00000000
00000000
00000001
00000000
00000000
00000000
,
00001000
00000000
00000000
00000100
00000000
00000000
00010000
00000000
00000000
00001000
00000000
00000000
01000000
00000000
00000000
00000000
,
00100000
00000000
00000000
10000000
00000000
00000000
00010000
00000000
00000000
00100000
00000000
00000000
01000000
00000000
00000000
00000000
,
00001000
00000000
00000000
00010000
00000000
00000000
00000010
00000000
00000000
00000100
00000000
00000000
00000001
00000000
00001000
00000000
,
00000100
00010000
00001000
01000000
00100000
10000000
00010000
00100000
,
02000000
00000000
13000000
00100000
01000000
00000000
00100000
00000000
,
00010000
00100000
00001000
00010000
00000010
00010000
00000010
00000100
,
00000001
00000000
00001000
00000100
00010000
00001000
00010000
00000000
,
00001000
00000000
01000000
00100000
10000000
00010000
10000000
00010000
,
00100000
00000000
00010000
00100000
00001000
00010000
00000020
00000000
,
00000130
00000000
00001000
00000000
00000100
00010000
00001000
01000000
,
00100000
00000000
10000000
00010000
00100000
00001000
00010000
00001000
,
00010000
00000000
00000010
00000100
00000001
00001000
00000100
00000001
,
00000200
00000000
00001300
00000010
00010000
00000000
00001000
00000000
,
01000000
00100000
10000000
00100000
01000000
00010000
00100000
00001000
,
00100000
00000000
00000000
00001000
00000000
00000000
00010000
00000000
00000000
00000010
00000000
00000000
00000100
00000000
00000001
00000000
,
00001000
00000000
00000100
00010000
00001000
01000000
00100000
10000000
,
00020000
00000000
01030000
00200000
00000000
00302000
00000000
00103000
,
02000000
00000000
03001000
00020000
00000000
00030010
00000100
00000001
,
00001100
00000000
00000000
00011000
00000000
00000000
01010000
00000000
,
01000000
10000000
01000000
00010000
01000000
10000000
01000000
00000000
,
00010000
00100000
10000000
00100000
00010000
00100000
10000000
00000000
,
01000000
00001000
00010000
00001000
01000000
00001000
00010000
00000000
,
00000010
00010000
00000001
00000010
00000001
00001000
00000010
00000010
,
00000100
00001000
00000100
00000001
00000100
00001000
00000100
00000000
,
00000010
00000001
00000010
00001000
00000010
00000001
00000010
00000000
,
00000100
00010000
00001000
00010000
00000100
00010000
00001000
00000000
,
01000000
00010000
10000000
00100000
01000000
00010000
00100000
00100000
,
01000000
00000000
00000000
00110000
,
00010000
00000000
00000100
00001000
00000020
00000000
00000130
00000000
,
000010M0
00000000
00000001
00000100
00001000
00000100
00000001
00001000
,
00000200
00000000
00020300
00000000
00032000
00000000
01003000
00100000
,
10000000
00000000
00010000
00100000
10000000
00100000
00010000
00100000
,
00001000
00000000
00010000
00000010
00000100
00000010
00001000
00000000
,
00000002
00000000
00000013
00000000
00000100
00001000
00000100
00010000
,
00001000
00000000
01000000
00100000
10000000
00010000
00200000
00000000
,
10300000
00000000
00100000
00010000
10000000
00100000
01000000
00001000
,
00020000
00000000
00030020
00000000
000M0230
00000000
00000301
00001000
,
00000010
00000000
00001000
00000100
00000010
00000001
00001000
00000000
,
00000010
00000000
00000000
00010000
00000000
00000000
00001000
00000000
00000000
01000000
00000000
00000000
00100000
00000000
10000000
00000000
,
00010000
00000000
00100000
10000000
00010000
00100000
00001000
00010000
,
00000010
00000100
00000001
00001000
00000100
00000010
00000001
00001000
,
00000020
00000000
00001030
00000100
000100M0
00001000
01000000
10000000
,
11000000
00000000
00000000
00110000
00000000
00101000
00000000
00000000
,
00010000
00001000
00000010
00001000
00010000
00001000
00000010
00000000
,
00001000
00000100
00000001
00000100
00001000
00000100
00000001
00000000
,
00000010
00001000
00000100
00001000
00000010
00001000
00000100
00000000
,
00010000
00001000
01000000
00001000
00010000
00001000
01000000
01000000
,
00100000
10000000
00001000
10000000
00100000
10000000
00001000
00000000
,
00010000
00000010
00000100
00000010
00010000
00000010
00000100
00000000
,
00000001
00000100
00001000
00000100
00000001
00000100
00001000
00000000
,
00000001
00001000
00000100
00001000
00000001
00001000
00000100
00000000
,
00010000
00001000
01000000
00001000
00010000
00001000
01000000
00000000
,
00100000
10000000
00010000
10000000
00100000
10000000
00010000
00000000
,
01000000
00100000
00010000
00100000
01000000
00100000
00010000
00000000
,
01000000
00001000
00010000
00001000
01000000
00001000
00010000
00010000
,
00001000
00000100
00000001
00000100
00001000
00000100
00000001
00000000
,
00000100
00001000
00000001
00001000
00000100
00001000
00000001
00000000
,
00010000
00000100
00001000
00000100
00010000
00000100
00001000
00000000
,
00010000
00001000
01000000
00001000
00010000
00001000
01000000
00000000
,
02002000
00000000
00000000
00000000
,
00000000
00000000
00000000
00000000
00000000
00100000
00000000
00M00000
,
00000000
00000000
00000000
00000000
,
03003000
00000000
00000000
00000000
;

//---------------dance-double - Blank----------------
#NOTES:
     dance-double:
     Blank:
     Medium:
     5:
     0.316,0.305,0.045,0.030,0.045:
00000000
00000000
00000000
00000000
,
00100000
00000000
00000000
00100000
00000000
00000000
00100000
00000000
00000000
00000000
00000000
00000000
00000000
00000000
00000000
00000000
,
00001000
00000000
00000000
00001000
00000000
00000000
00001000
00000000
00000000
00000000
00000000
00000000
00000000
00000000
00000000
00000000
,
00000010
00000000
00000000
00000010
00000000
00000000
00000010
00000000
00000000
00000000
00000000
00000000
00000000
00000000
00000000
00000000
,
00010000
00000000
00000000
00010000
00000000
00000000
00010000
00000000
00000000
00000000
00000000
00000000
00000000
00000000
00000000
00000000
,
01000000
00000000
00000000
01000000
00000000
00000000
01000000
00000000
00000000
00000000
00000000
00000000
00000000
00000000
00000000
00000000
,
00010000
00000000
00000000
00010000
00000000
00000000
00010000
00000000
00000000
00000000
00000000
00000000
00000000
00000000
00000000
00000000
,
00000100
00000000
00000000
00000100
00000000
00000000
00000100
00000000
00000000
00000000
00000000
00000000
00000000
00000000
00000000
00000000
,
00000001
00000000
00000000
00000001
00000000
00000000
00000001
00000000
00000000
00000000
00000000
00000000
00000000
00000000
00000000
00000000
,
00000100
00000000
00010000
00000000
00001000
00000000
01000000
00001000
,
01000000
00100000
10000000
00000000
,
01000000
00000000
00010000
00000000
00100000
00000000
00001000
00010000
,
00001000
00010000
00000100
00001000
,
00000000
00000000
00000010
00000000
00001000
00000000
00000100
00010000
,
00000100
00010000
00001000
01000000
,
00200000
00000000
00300000
00000000
10000000
00000000
00010000
00100000
,
00010000
00100000
00001000
00010000
,
00000010
00000000
00000000
00000000
00000100
00000000
00000001
00001000
,
00000010
00001000
00000100
00000000
,
00010000
00001000
01000000
00100000
,
10000000
00000000
00000000
10000000
00000000
00000000
00010000
00000000
00000000
00010000
00000000
00000000
00100000
00000000
00000000
00000000
,
00001000
00000000
00000000
00000000
00000010
00000000
00001000
00000001
,
00001000
00000010
00000100
00000000
,
00001000
00000000
00000000
00000100
00000000
00010000
00000000
00000000
,
00011000
00000000
00000000
01010000
00000000
00000000
01100000
00000000
,
10000000
00000000
00010000
00000000
10000000
00010000
00100000
00000000
,
00001000
00000000
00100000
00000000
00001000
00010000
00001000
00000000
,
00010000
00000000
00000010
00000000
00000100
00000001
00001000
00000000
,
00000001
00000000
00001000
00000000
00000100
00001000
00000100
00000000
,
00010000
00000000
00001000
01000000
00001000
01000000
00001000
00000000
,
01000000
00000000
00100000
10000000
00010000
10000000
00010000
00000000
,
00100000
00000000
00001000
00100000
00001000
00100000
00001000
00000000
,
00010000
00000000
00000010
00000100
00000001
00000100
00000001
00000000
,
00001001
00000000
00000000
00000100
,
00001000
00000000
00000100
00010000
00000100
00000000
00000000
00000000
,
01000000
00000000
00100000
00000000
10000000
00000000
00010000
00100000
,
00001000
00000000
00010000
00000000
00000010
00000000
00000100
00000001
,
00000100
00000000
00000000
00000000
00000010
00000000
00001000
00000001
,
00001000
00000100
00010000
00001000
,
01000000
00000000
00100000
10000000
,
00010000
00000000
00000000
00001000
00000000
00000000
00000010
00000000
,
00000100
00000000
00000000
00000000
00000001
00000000
00001000
00000010
,
00001000
00000000
00000100
00000000
00010000
00000000
00001000
01000000
,
00100000
00000000
10000000
00000000
00010000
00100000
00010000
00000000
,
01000000
00000000
00000000
01000000
00000000
00000000
00100000
00000000
00000000
00100000
00000000
00000000
10000000
00000000
00000000
00000000
,
00010000
00000000
00000000
00000000
00001000
00010000
00001000
00000000
,
00010000
00000010
00000100
00000001
,
00002000
00003100
00010000
00001000
,
01000000
00000000
00000000
01100000
00000000
10010000
00000000
00000000
,
00100000
00000000
01000000
00000000
00010000
01000000
00010000
00000000
,
00100000
00000000
00001000
00000000
00010000
00000010
00010000
00000000
,
00000010
00000000
00000100
00000000
00000001
00001000
00000100
00000000
,
00000010
00000000
00000001
00000000
00001000
00000010
00001000
00000000
,
00000100
00000000
00010000
00001000
00010000
00001000
00010000
00000000
,
00001000
00000000
01000000
00100000
10000000
00100000
01000000
00000000
,
00010000
00000000
10000000
00010000
00100000
00010000
00100000
00000000
,
00001000
00000000
00010000
00000010
00000100
00000010
00001000
00000000
,
00000001
00000000
00000010
00000000
00000100
00001000
00000001
00000000
,
00001000
00000000
00000100
00000000
00010000
00001000
00010000
00000000
,
00001000
00000000
01000000
00000000
00100000
10000000
00010000
00000000
,
00100000
00000000
01000000
00000000
10000000
00100000
01000000
00010000
,
00100000
00000000
00001000
00010000
00001000
00010000
00000010
00000000
,
00000100
00000000
00000001
00001000
00000001
00001000
00000001
00000000
,
00000100
00000000
00000010
00001000
00000100
00001000
00000100
00000000
,
00010000
00000000
00001000
01000000
00001000
01000000
00100000
10000000
,
00020000
00000000
00000000
00000000
,
00000000
00000000
00000000
00000000
00000000
00200000
00000000
00000000
,
00000000
00000000
00000000
00000000
,
00330000
00000000
00000000
00000000
;

//---------------dance-double - Blank----------------
#NOTES:
     dance-double:
     Blank:
     Easy:
     4:
     0.254,0.229,0.007,0.037,0.000:
00000000
00000000
00000000
00000000
,
00100000
00000000
00000000
00010000
00000000
00000000
00100000
00000000
,
00001000
00000000
00000000
00010000
00000000
00000000
00000010
00000000
,
00000100
00000000
00000000
00000001
00000000
00000000
00001000
00000000
,
00000100
00000000
00000000
00010000
00000000
00000000
00001000
00000000
,
00100000
00000000
00000000
00010000
00000000
00000000
10000000
00000000
,
00100000
00000000
00000000
01000000
00000000
00000000
00001000
00000000
,
00010000
00000000
00000000
00000010
00000000
00000000
00000100
00000000
,
00000001
00000000
00000000
00001000
00000000
00000000
00000100
00000000
,
00000010
00000000
00010000
00000100
,
00010000
00001000
01000000
00000000
,
00000000
00100000
10000000
00010000
,
00100000
00000000
00000000
00001000
00000000
00000000
00010000
00000000
,
00000010
00000000
00001000
00000100
,
00010000
00001000
01000000
00100000
,
20000000
00000000
30000000
00000000
00100000
00000000
01000000
00010000
,
01000000
00010000
00100000
00001000
,
00010000
00000000
00000010
00000100
,
00000001
00001000
00000100
00000000
,
00000000
00010000
01000000
00100000
,
10000000
00000000
00000000
00010000
00000000
00000000
00100000
00000000
,
00001000
00000000
00010000
00000010
,
00000100
00000001
00001000
00000010
,
00010000
00001000
01000000
00100000
,
10000000
00000000
00000000
00010000
00000000
00000000
00001000
00000000
,
00000010
00000000
00000000
00000000
00001000
00000001
00001000
00000000
,
00000100
00000000
00000000
00000000
00010000
00001000
00010000
00000000
,
00001000
00000000
00000000
00000000
01000000
00100000
01000000
00000000
,
00010000
00000000
00000000
00000000
10000000
01000000
10000000
00000000
,
00010000
00000000
00000000
00000000
00100000
00001000
00010000
00000000
,
00001000
00000000
00000000
00000000
00010000
00000010
00010000
00000000
,
00000100
00000000
00000000
00000000
00001000
00000001
00001000
00000000
,
00000010
00000000
00000000
00000000
00000100
00000001
00000100
00000000
,
00001001
00000000
00000000
00000020
,
00001030
00000100
00010000
00000000
,
00000000
00001000
01000000
00100000
,
10000000
00000000
00010000
00000000
00001000
00000000
00100000
00001000
,
00100000
00000000
00001000
00010000
,
00000010
00000100
00000001
00001000
,
00000010
00000000
00000100
00000001
,
00001000
00000100
00010000
00001000
,
01000000
00000000
00100000
10000000
,
00010000
00000000
00100000
00000000
00001000
00000000
00010000
00000010
,
00001000
00000010
00000100
00000001
,
00001000
00000000
00000000
00000100
00000000
00000000
00010000
00000000
,
00001000
00000000
01000000
00100000
,
10000000
00010000
00100000
00001000
,
00020000
00030010
00000100
00000001
,
00000100
00000000
00000000
00010000
00000000
00001000
00000000
00000000
,
01000000
00000000
00000000
00000000
00010000
10000000
00010000
00000000
,
00100000
00000000
00000000
00000000
00010000
00000100
00001000
00000000
,
00000100
00000000
00000000
00000000
00001000
00000001
00000010
00000000
,
00000100
00000000
00000000
00000000
00001000
00000100
00001000
00000000
,
00010000
00000000
00000000
00000000
01000000
00010000
01000000
00000000
,
00100000
00000000
00000000
00000000
10000000
00010000
00100000
00000000
,
00001000
00000000
00000000
00000000
00010000
00000100
00010000
00000000
,
00001000
00000000
00000000
00000000
00000010
00000001
00001000
00000000
,
00000010
00000000
00000000
00000000
00000100
00000010
00000100
00000000
,
00010000
00000000
00000000
00000000
01000000
00001000
01000000
00000000
,
00100000
00000000
00000000
00000000
10000000
01000000
00100000
00000000
,
01000000
00000000
00000000
00000000
00010000
00100000
00001000
00000000
,
00010000
00000000
00000000
00000000
00000100
00010000
00000100
00000000
,
00001000
00000000
00000000
00000000
00000010
00000100
00000010
00000000
,
00000001
00000000
00000000
00000000
00001000
00000100
00001000
00000000
,
00000010
00000000
00000000
00000000
00010000
00001000
00010000
00001000
,
00020000
00000000
00000000
00000000
,
00000000
00000000
00000000
00000000
00000000
00002000
00000000
00000000
,
00000000
00000000
00000000
00000000
,
00033000
00000000
00000000
00000000
;
